999
dxfrw 0.6.3
  0
SECTION
  2
HEADER
  9
$ACADVER
  1
AC1021
  9
$DWGCODEPAGE
  3
ANSI_1252
  9
$INSBASE
 10
0
 20
0
 30
0
  9
$EXTMIN
 10
10000000000
 20
10000000000
 30
0
  9
$EXTMAX
 10
-10000000000
 20
-10000000000
 30
0
  9
$LIMMIN
 10
0
 20
0
  9
$LIMMAX
 10
420
 20
297
  9
$ORTHOMODE
 70
    0
  9
$REGENMODE
 70
    1
  9
$FILLMODE
 70
    1
  9
$QTEXTMODE
 70
    0
  9
$MIRRTEXT
 70
    0
  9
$LTSCALE
 40
1
  9
$ATTMODE
 70
    0
  9
$TEXTSIZE
 40
2.5
  9
$TRACEWID
 40
15.68
  9
$TEXTSTYLE
  7
STANDARD
  9
$CLAYER
  8
legende
  9
$CELTYPE
  6
BYLAYER
  9
$CECOLOR
 62
  256
  9
$CELTSCALE
 40
1
  9
$DISPSILH
 70
    0
  9
$DIMSCALE
 40
2.5
  9
$DIMASZ
 40
10
  9
$DIMEXO
 40
0.625
  9
$DIMDLI
 40
3.75
  9
$DIMRND
 40
0
  9
$DIMDLE
 40
0
  9
$DIMEXE
 40
1.25
  9
$DIMTP
 40
0
  9
$DIMTM
 40
0
  9
$DIMTXT
 40
5
  9
$DIMCEN
 40
2.5
  9
$DIMTSZ
 40
0
  9
$DIMTOL
 70
    0
  9
$DIMLIM
 70
    0
  9
$DIMTIH
 70
    0
  9
$DIMTOH
 70
    0
  9
$DIMSE1
 70
    0
  9
$DIMSE2
 70
    0
  9
$DIMTAD
 70
    1
  9
$DIMZIN
 70
    8
  9
$DIMBLK
  1

  9
$DIMASO
 70
    1
  9
$DIMSHO
 70
    1
  9
$DIMPOST
  1

  9
$DIMAPOST
  1

  9
$DIMALT
 70
    0
  9
$DIMALTD
 70
    3
  9
$DIMALTF
 40
0.03937
  9
$DIMLFAC
 40
1
  9
$DIMTOFL
 70
    1
  9
$DIMTVP
 40
0
  9
$DIMTIX
 70
    0
  9
$DIMSOXD
 70
    0
  9
$DIMSAH
 70
    0
  9
$DIMBLK1
  1

  9
$DIMBLK2
  1

  9
$DIMSTYLE
  2
STANDARD
  9
$DIMCLRD
 70
  253
  9
$DIMCLRE
 70
  253
  9
$DIMCLRT
 70
    0
  9
$DIMTFAC
 40
1
  9
$DIMGAP
 40
0.625
  9
$DIMJUST
 70
    0
  9
$DIMSD1
 70
    0
  9
$DIMSD2
 70
    0
  9
$DIMTOLJ
 70
    0
  9
$DIMTZIN
 70
    8
  9
$DIMALTZ
 70
    0
  9
$DIMALTTZ
 70
    0
  9
$DIMUPT
 70
    0
  9
$DIMDEC
 70
    0
  9
$DIMTDEC
 70
    2
  9
$DIMALTU
 70
    2
  9
$DIMALTTD
 70
    3
  9
$DIMTXSTY
  7
standard
  9
$DIMAUNIT
 70
    0
  9
$DIMADEC
 70
    0
  9
$DIMALTRND
 40
0
  9
$DIMAZIN
 70
    0
  9
$DIMDSEP
 70
   44
  9
$DIMATFIT
 70
    3
  9
$DIMFRAC
 70
    0
  9
$DIMLDRBLK
  1
STANDARD
  9
$DIMLUNIT
 70
    2
  9
$DIMLWD
 70
   -1
  9
$DIMLWE
 70
   -2
  9
$DIMTMOVE
 70
    0
  9
$DIMFXL
 40
1
  9
$DIMFXLON
 70
    0
  9
$DIMJOGANG
 40
0.7854
  9
$DIMTFILL
 70
    0
  9
$DIMTFILLCLR
 70
    0
  9
$DIMARCSYM
 70
    0
  9
$DIMLTYPE
  6

  9
$DIMLTEX1
  6

  9
$DIMLTEX2
  6

  9
$LUNITS
 70
    2
  9
$LUPREC
 70
    4
  9
$SKETCHINC
 40
1
  9
$FILLETRAD
 40
0
  9
$AUNITS
 70
    0
  9
$AUPREC
 70
    2
  9
$MENU
  1
.
  9
$ELEVATION
 40
0
  9
$PELEVATION
 40
0
  9
$THICKNESS
 40
0
  9
$LIMCHECK
 70
    0
  9
$CHAMFERA
 40
0
  9
$CHAMFERB
 40
0
  9
$CHAMFERC
 40
0
  9
$CHAMFERD
 40
0
  9
$SKPOLY
 70
    0
  9
$USRTIMER
 70
    1
  9
$ANGBASE
 50
0
  9
$ANGDIR
 70
    0
  9
$PDMODE
 70
   34
  9
$PDSIZE
 40
0
  9
$PLINEWID
 40
0
  9
$SPLFRAME
 70
    0
  9
$SPLINETYPE
 70
    2
  9
$SPLINESEGS
 70
    8
  9
$HANDSEED
  5
20000
  9
$SURFTAB1
 70
    6
  9
$SURFTAB2
 70
    6
  9
$SURFTYPE
 70
    6
  9
$SURFU
 70
    6
  9
$SURFV
 70
    6
  9
$UCSBASE
  2

  9
$UCSNAME
  2

  9
$UCSORG
 10
0
 20
0
 30
0
  9
$UCSXDIR
 10
1
 20
0
 30
0
  9
$UCSYDIR
 10
0
 20
1
 30
0
  9
$UCSORTHOREF
  2

  9
$UCSORTHOVIEW
 70
    0
  9
$UCSORGTOP
 10
0
 20
0
 30
0
  9
$UCSORGBOTTOM
 10
0
 20
0
 30
0
  9
$UCSORGLEFT
 10
0
 20
0
 30
0
  9
$UCSORGRIGHT
 10
0
 20
0
 30
0
  9
$UCSORGFRONT
 10
0
 20
0
 30
0
  9
$UCSORGBACK
 10
0
 20
0
 30
0
  9
$PUCSBASE
  2

  9
$PUCSNAME
  2

  9
$PUCSORG
 10
0
 20
0
 30
0
  9
$PUCSXDIR
 10
1
 20
0
 30
0
  9
$PUCSYDIR
 10
0
 20
1
 30
0
  9
$PUCSORTHOREF
  2

  9
$PUCSORTHOVIEW
 70
    0
  9
$PUCSORGTOP
 10
0
 20
0
 30
0
  9
$PUCSORGBOTTOM
 10
0
 20
0
 30
0
  9
$PUCSORGLEFT
 10
0
 20
0
 30
0
  9
$PUCSORGRIGHT
 10
0
 20
0
 30
0
  9
$PUCSORGFRONT
 10
0
 20
0
 30
0
  9
$PUCSORGBACK
 10
0
 20
0
 30
0
  9
$USERI1
 70
    0
  9
$USERI2
 70
    0
  9
$USERI3
 70
    0
  9
$USERI4
 70
    0
  9
$USERI5
 70
    0
  9
$USERR1
 40
0
  9
$USERR2
 40
0
  9
$USERR3
 40
0
  9
$USERR4
 40
0
  9
$USERR5
 40
0
  9
$WORLDVIEW
 70
    1
  9
$SHADEDGE
 70
    3
  9
$SHADEDIF
 70
   70
  9
$TILEMODE
 70
    1
  9
$MAXACTVP
 70
   64
  9
$PINSBASE
 10
65.16666666666667
 20
175.8333333333333
 30
0
  9
$PLIMCHECK
 70
    0
  9
$PEXTMIN
 10
0
 20
0
 30
0
  9
$PEXTMAX
 10
0
 20
0
 30
0
  9
$GRIDMODE
 70
    1
  9
$SNAPSTYLE
 70
    0
  9
$GRIDUNIT
 10
0
 20
0
  9
$PLIMMIN
 10
0
 20
0
  9
$PLIMMAX
 10
297
 20
210
  9
$UNITMODE
 70
    0
  9
$VISRETAIN
 70
    1
  9
$PLINEGEN
 70
    0
  9
$PSLTSCALE
 70
    1
  9
$TREEDEPTH
 70
 3020
  9
$CMLSTYLE
  2
Standard
  9
$CMLJUST
 70
    0
  9
$CMLSCALE
 40
20
  9
$PROXYGRAPHICS
 70
    1
  9
$MEASUREMENT
 70
    1
  9
$CELWEIGHT
370
   -1
  9
$ENDCAPS
280
    0
  9
$JOINSTYLE
280
    0
  9
$LWDISPLAY
290
    0
  9
$INSUNITS
 70
    0
  9
$HYPERLINKBASE
  1

  9
$STYLESHEET
  1

  9
$XEDIT
290
    1
  9
$CEPSNTYPE
380
    0
  9
$PSTYLEMODE
290
    1
  9
$EXTNAMES
290
    1
  9
$PSVPSCALE
 40
0.08333333333333333
  9
$OLESTARTUP
290
    0
  9
$SORTENTS
280
  127
  9
$INDEXCTL
280
    0
  9
$HIDETEXT
280
    1
  9
$XCLIPFRAME
290
    0
  9
$HALOGAP
280
    0
  9
$OBSCOLOR
 70
  257
  9
$OBSLTYPE
280
    0
  9
$INTERSECTIONDISPLAY
280
    0
  9
$INTERSECTIONCOLOR
 70
  257
  9
$DIMASSOC
280
    1
  9
$PROJECTNAME
  1

  9
$CAMERADISPLAY
290
    0
  9
$LENSLENGTH
 40
50
  9
$CAMERAHEIGHT
 40
0
  9
$STEPSPERSEC
 40
2
  9
$STEPSIZE
 40
50
  9
$3DDWFPREC
 40
2
  9
$PSOLWIDTH
 40
5
  9
$PSOLHEIGHT
 40
80
  9
$LOFTANG1
 40
1.570796326794897
  9
$LOFTANG2
 40
1.570796326794897
  9
$LOFTMAG1
 40
0
  9
$LOFTMAG2
 40
0
  9
$LOFTPARAM
 70
    7
  9
$LOFTNORMALS
280
    1
  9
$LATITUDE
 40
1
  9
$LONGITUDE
 40
1
  9
$NORTHDIRECTION
 40
0
  9
$TIMEZONE
 70
-8000
  9
$LIGHTGLYPHDISPLAY
280
    1
  9
$TILEMODELIGHTSYNCH
280
    1
  9
$SOLIDHIST
280
    1
  9
$SHOWHIST
280
    1
  9
$DWFFRAME
280
    2
  9
$DGNFRAME
280
    0
  9
$REALWORLDSCALE
290
    1
  9
$INTERFERECOLOR
 62
    1
  9
$CSHADOW
280
    0
  9
$SHADOWPLANELOCATION
 40
0
  0
ENDSEC
  0
SECTION
  2
CLASSES
  0
ENDSEC
  0
SECTION
  2
TABLES
  0
TABLE
  2
VPORT
  5
8
330
0
100
AcDbSymbolTable
 70
    1
  0
VPORT
  5
31
330
2
100
AcDbSymbolTableRecord
100
AcDbViewportTableRecord
  2
*ACTIVE
 70
    0
 10
0
 20
0
 11
1
 21
1
 12
192.2849492917275
 22
-215.6935518141987
 13
0
 23
0
 14
10
 24
10
 15
10
 25
10
 16
0
 26
0
 36
1
 17
0
 27
0
 37
0
 40
848.283167600027
 41
1.848883048620237
 42
50
 43
0
 44
0
 50
0
 51
0
 71
    0
 72
  100
 73
    1
 74
    3
 75
    0
 76
    1
 77
    0
 78
    0
281
    0
 65
    1
110
0
120
0
130
0
111
1
121
0
131
0
112
0
122
1
132
0
 79
    0
146
0
348
10020
 60
    7
 61
    5
292
1
282
    1
141
0
142
0
 63
  250
421
3358443
  0
ENDTAB
  0
TABLE
  2
LTYPE
  5
5
330
0
100
AcDbSymbolTable
 70
    4
  0
LTYPE
  5
14
330
5
100
AcDbSymbolTableRecord
100
AcDbLinetypeTableRecord
  2
ByBlock
 70
    0
  3

 72
   65
 73
    0
 40
0
  0
LTYPE
  5
15
330
5
100
AcDbSymbolTableRecord
100
AcDbLinetypeTableRecord
  2
ByLayer
 70
    0
  3

 72
   65
 73
    0
 40
0
  0
LTYPE
  5
16
330
5
100
AcDbSymbolTableRecord
100
AcDbLinetypeTableRecord
  2
Continuous
 70
    0
  3
Solid line
 72
   65
 73
    0
 40
0
  0
LTYPE
  5
32
330
5
100
AcDbSymbolTableRecord
100
AcDbLinetypeTableRecord
  2
DOT
 70
    0
  3
Dot . . . . . . . . . . . . . . . . . . . . . .
 72
   65
 73
    2
 40
6.35
 49
0
 74
    0
 49
-6.35
 74
    0
  0
LTYPE
  5
33
330
5
100
AcDbSymbolTableRecord
100
AcDbLinetypeTableRecord
  2
DOTTINY
 70
    0
  3
Dot (.15x) .....................................
 72
   65
 73
    2
 40
0.9525
 49
0
 74
    0
 49
-0.9525
 74
    0
  0
LTYPE
  5
34
330
5
100
AcDbSymbolTableRecord
100
AcDbLinetypeTableRecord
  2
DOT2
 70
    0
  3
Dot (.5x) .....................................
 72
   65
 73
    2
 40
3.175
 49
0
 74
    0
 49
-3.175
 74
    0
  0
LTYPE
  5
35
330
5
100
AcDbSymbolTableRecord
100
AcDbLinetypeTableRecord
  2
DOTX2
 70
    0
  3
Dot (2x) .  .  .  .  .  .  .  .  .  .  .  .  .
 72
   65
 73
    2
 40
12.7
 49
0
 74
    0
 49
-12.7
 74
    0
  0
LTYPE
  5
36
330
5
100
AcDbSymbolTableRecord
100
AcDbLinetypeTableRecord
  2
DASHED
 70
    0
  3
Dashed _ _ _ _ _ _ _ _ _ _ _ _ _ _ _ _ _
 72
   65
 73
    2
 40
19.05
 49
12.7
 74
    0
 49
-6.35
 74
    0
  0
LTYPE
  5
37
330
5
100
AcDbSymbolTableRecord
100
AcDbLinetypeTableRecord
  2
DASHEDTINY
 70
    0
  3
Dashed (.15x) _ _ _ _ _ _ _ _ _ _ _ _ _ _ _ _ _
 72
   65
 73
    2
 40
2.8575
 49
1.905
 74
    0
 49
-0.9525
 74
    0
  0
LTYPE
  5
38
330
5
100
AcDbSymbolTableRecord
100
AcDbLinetypeTableRecord
  2
DASHED2
 70
    0
  3
Dashed (.5x) _ _ _ _ _ _ _ _ _ _ _ _ _ _ _ _ _
 72
   65
 73
    2
 40
9.524999999999999
 49
6.35
 74
    0
 49
-3.175
 74
    0
  0
LTYPE
  5
39
330
5
100
AcDbSymbolTableRecord
100
AcDbLinetypeTableRecord
  2
DASHEDX2
 70
    0
  3
Dashed (2x) ____  ____  ____  ____  ____  ___
 72
   65
 73
    2
 40
38.09999999999999
 49
25.4
 74
    0
 49
-12.7
 74
    0
  0
LTYPE
  5
3A
330
5
100
AcDbSymbolTableRecord
100
AcDbLinetypeTableRecord
  2
DASHDOT
 70
    0
  3
Dash dot __ . __ . __ . __ . __ . __ . __ . __
 72
   65
 73
    4
 40
25.4
 49
12.7
 74
    0
 49
-6.35
 74
    0
 49
0
 74
    0
 49
-6.35
 74
    0
  0
LTYPE
  5
3B
330
5
100
AcDbSymbolTableRecord
100
AcDbLinetypeTableRecord
  2
DASHDOTTINY
 70
    0
  3
Dash dot (.15x) _._._._._._._._._._._._._._._.
 72
   65
 73
    4
 40
3.81
 49
1.905
 74
    0
 49
-0.9525
 74
    0
 49
0
 74
    0
 49
-0.9525
 74
    0
  0
LTYPE
  5
3C
330
5
100
AcDbSymbolTableRecord
100
AcDbLinetypeTableRecord
  2
DASHDOT2
 70
    0
  3
Dash dot (.5x) _._._._._._._._._._._._._._._.
 72
   65
 73
    4
 40
12.7
 49
6.35
 74
    0
 49
-3.175
 74
    0
 49
0
 74
    0
 49
-3.175
 74
    0
  0
LTYPE
  5
3D
330
5
100
AcDbSymbolTableRecord
100
AcDbLinetypeTableRecord
  2
DASHDOTX2
 70
    0
  3
Dash dot (2x) ____  .  ____  .  ____  .  ___
 72
   65
 73
    4
 40
50.8
 49
25.4
 74
    0
 49
-12.7
 74
    0
 49
0
 74
    0
 49
-12.7
 74
    0
  0
LTYPE
  5
3E
330
5
100
AcDbSymbolTableRecord
100
AcDbLinetypeTableRecord
  2
DIVIDE
 70
    0
  3
Divide ____ . . ____ . . ____ . . ____ . . ____
 72
   65
 73
    6
 40
31.75
 49
12.7
 74
    0
 49
-6.35
 74
    0
 49
0
 74
    0
 49
-6.35
 74
    0
 49
0
 74
    0
 49
-6.35
 74
    0
  0
LTYPE
  5
3F
330
5
100
AcDbSymbolTableRecord
100
AcDbLinetypeTableRecord
  2
DIVIDETINY
 70
    0
  3
Divide (.15x) __..__..__..__..__..__..__..__.._
 72
   65
 73
    6
 40
4.7625
 49
1.905
 74
    0
 49
-0.9525
 74
    0
 49
0
 74
    0
 49
-0.9525
 74
    0
 49
0
 74
    0
 49
-0.9525
 74
    0
  0
LTYPE
  5
40
330
5
100
AcDbSymbolTableRecord
100
AcDbLinetypeTableRecord
  2
DIVIDE2
 70
    0
  3
Divide (.5x) __..__..__..__..__..__..__..__.._
 72
   65
 73
    6
 40
15.875
 49
6.35
 74
    0
 49
-3.175
 74
    0
 49
0
 74
    0
 49
-3.175
 74
    0
 49
0
 74
    0
 49
-3.175
 74
    0
  0
LTYPE
  5
41
330
5
100
AcDbSymbolTableRecord
100
AcDbLinetypeTableRecord
  2
DIVIDEX2
 70
    0
  3
Divide (2x) ________  .  .  ________  .  .  _
 72
   65
 73
    6
 40
63.5
 49
25.4
 74
    0
 49
-12.7
 74
    0
 49
0
 74
    0
 49
-12.7
 74
    0
 49
0
 74
    0
 49
-12.7
 74
    0
  0
LTYPE
  5
42
330
5
100
AcDbSymbolTableRecord
100
AcDbLinetypeTableRecord
  2
BORDER
 70
    0
  3
Border __ __ . __ __ . __ __ . __ __ . __ __ .
 72
   65
 73
    6
 40
44.45
 49
12.7
 74
    0
 49
-6.35
 74
    0
 49
12.7
 74
    0
 49
-6.35
 74
    0
 49
0
 74
    0
 49
-6.35
 74
    0
  0
LTYPE
  5
43
330
5
100
AcDbSymbolTableRecord
100
AcDbLinetypeTableRecord
  2
BORDERTINY
 70
    0
  3
Border (.15x) __.__.__.__.__.__.__.__.__.__.__.
 72
   65
 73
    6
 40
6.6675
 49
1.905
 74
    0
 49
-0.9525
 74
    0
 49
1.905
 74
    0
 49
-0.9525
 74
    0
 49
0
 74
    0
 49
-0.9525
 74
    0
  0
LTYPE
  5
44
330
5
100
AcDbSymbolTableRecord
100
AcDbLinetypeTableRecord
  2
BORDER2
 70
    0
  3
Border (.5x) __.__.__.__.__.__.__.__.__.__.__.
 72
   65
 73
    6
 40
22.225
 49
6.35
 74
    0
 49
-3.175
 74
    0
 49
6.35
 74
    0
 49
-3.175
 74
    0
 49
0
 74
    0
 49
-3.175
 74
    0
  0
LTYPE
  5
45
330
5
100
AcDbSymbolTableRecord
100
AcDbLinetypeTableRecord
  2
BORDERX2
 70
    0
  3
Border (2x) ____  ____  .  ____  ____  .  ___
 72
   65
 73
    6
 40
88.89999999999999
 49
25.4
 74
    0
 49
-12.7
 74
    0
 49
25.4
 74
    0
 49
-12.7
 74
    0
 49
0
 74
    0
 49
-12.7
 74
    0
  0
LTYPE
  5
46
330
5
100
AcDbSymbolTableRecord
100
AcDbLinetypeTableRecord
  2
CENTER
 70
    0
  3
Center ____ _ ____ _ ____ _ ____ _ ____ _ ____
 72
   65
 73
    4
 40
50.8
 49
31.75
 74
    0
 49
-6.35
 74
    0
 49
6.35
 74
    0
 49
-6.35
 74
    0
  0
LTYPE
  5
47
330
5
100
AcDbSymbolTableRecord
100
AcDbLinetypeTableRecord
  2
CENTERTINY
 70
    0
  3
Center (.15x) ___ _ ___ _ ___ _ ___ _ ___ _ ___
 72
   65
 73
    4
 40
7.619999999999999
 49
4.7625
 74
    0
 49
-0.9525
 74
    0
 49
0.9525
 74
    0
 49
-0.9525
 74
    0
  0
LTYPE
  5
48
330
5
100
AcDbSymbolTableRecord
100
AcDbLinetypeTableRecord
  2
CENTER2
 70
    0
  3
Center (.5x) ___ _ ___ _ ___ _ ___ _ ___ _ ___
 72
   65
 73
    4
 40
28.575
 49
19.05
 74
    0
 49
-3.175
 74
    0
 49
3.175
 74
    0
 49
-3.175
 74
    0
  0
LTYPE
  5
49
330
5
100
AcDbSymbolTableRecord
100
AcDbLinetypeTableRecord
  2
CENTERX2
 70
    0
  3
Center (2x) ________  __  ________  __  _____
 72
   65
 73
    4
 40
101.6
 49
63.5
 74
    0
 49
-12.7
 74
    0
 49
12.7
 74
    0
 49
-12.7
 74
    0
  0
ENDTAB
  0
TABLE
  2
LAYER
  5
2
330
0
100
AcDbSymbolTable
 70
    1
  0
LAYER
  5
10
330
2
100
AcDbSymbolTableRecord
100
AcDbLayerTableRecord
  2
0
 70
    1
 62
    4
  6
CONTINUOUS
290
0
370
    0
390
F
1001
LibreCad
1070
    1
  0
LAYER
  5
4A
330
2
100
AcDbSymbolTableRecord
100
AcDbLayerTableRecord
  2
alu
 70
    0
 62
    7
  6
CONTINUOUS
370
    0
390
F
  0
LAYER
  5
4B
330
2
100
AcDbSymbolTableRecord
100
AcDbLayerTableRecord
  2
centre-gravite
 70
    1
 62
    1
  6
CONTINUOUS
370
    0
390
F
1001
LibreCad
1070
    1
  0
LAYER
  5
4C
330
2
100
AcDbSymbolTableRecord
100
AcDbLayerTableRecord
  2
cornière
 70
    0
 62
    7
  6
CONTINUOUS
370
    0
390
F
  0
LAYER
  5
4D
330
2
100
AcDbSymbolTableRecord
100
AcDbLayerTableRecord
  2
epaisseurs
 70
    0
 62
    7
  6
CONTINUOUS
370
    0
390
F
  0
LAYER
  5
4E
330
2
100
AcDbSymbolTableRecord
100
AcDbLayerTableRecord
  2
legende
 70
    0
 62
    7
  6
CONTINUOUS
370
    0
390
F
  0
LAYER
  5
4F
330
2
100
AcDbSymbolTableRecord
100
AcDbLayerTableRecord
  2
miroir
 70
    1
 62
    7
  6
CONTINUOUS
370
    0
390
F
  0
LAYER
  5
50
330
2
100
AcDbSymbolTableRecord
100
AcDbLayerTableRecord
  2
noms
 70
    0
 62
    7
  6
CONTINUOUS
370
    0
390
F
  0
LAYER
  5
51
330
2
100
AcDbSymbolTableRecord
100
AcDbLayerTableRecord
  2
simplifié
 70
    0
 62
    6
  6
CONTINUOUS
370
    0
390
F
  0
LAYER
  5
52
330
2
100
AcDbSymbolTableRecord
100
AcDbLayerTableRecord
  2
trous
 70
    0
 62
    7
  6
DOTTINY
370
    0
390
F
  0
LAYER
  5
53
330
2
100
AcDbSymbolTableRecord
100
AcDbLayerTableRecord
  2
tube
 70
    0
 62
    7
  6
CONTINUOUS
370
    0
390
F
  0
LAYER
  5
54
330
2
100
AcDbSymbolTableRecord
100
AcDbLayerTableRecord
  2
vis
 70
    0
 62
  253
420
10526884
  6
CONTINUOUS
370
    0
390
F
  0
ENDTAB
  0
TABLE
  2
STYLE
  5
3
330
0
100
AcDbSymbolTable
 70
    3
  0
STYLE
  5
55
330
2
100
AcDbSymbolTableRecord
100
AcDbTextStyleTableRecord
  2
standard
 70
    0
 40
0
 41
1
 50
0
 71
    0
 42
1
  3
standard
  4

  0
ENDTAB
  0
TABLE
  2
VIEW
  5
6
330
0
100
AcDbSymbolTable
 70
    0
  0
ENDTAB
  0
TABLE
  2
UCS
  5
7
330
0
100
AcDbSymbolTable
 70
    0
  0
ENDTAB
  0
TABLE
  2
APPID
  5
9
330
0
100
AcDbSymbolTable
 70
    1
  0
APPID
  5
12
330
9
100
AcDbSymbolTableRecord
100
AcDbRegAppTableRecord
  2
ACAD
 70
    0
  0
APPID
  5
56
330
9
100
AcDbSymbolTableRecord
100
AcDbRegAppTableRecord
  2
LibreCad
 70
    0
  0
ENDTAB
  0
TABLE
  2
DIMSTYLE
  5
A
330
0
100
AcDbSymbolTable
 70
    1
100
AcDbDimStyleTable
 71
    1
  0
DIMSTYLE
105
57
330
A
100
AcDbSymbolTableRecord
100
AcDbDimStyleTableRecord
  2
Standard
 70
    0
 40
2.5
 41
10
 42
0.625
 43
0.38
 44
1.25
 45
0
 46
0
 47
0
 48
0
 49
1
140
5
141
0.09
142
0
143
25.4
144
1
145
0
146
1
147
0.625
148
0
 71
    0
 72
    0
 73
    0
 74
    1
 75
    0
 76
    0
 77
    0
 78
    8
 79
    0
170
    0
171
    2
172
    0
173
    0
174
    0
175
    0
176
  253
177
  253
178
    0
179
    0
271
    0
272
    4
273
    2
274
    2
275
    0
276
    0
277
    2
278
   44
279
    0
280
    0
281
    0
282
    0
283
    1
284
    0
285
    0
286
    0
288
    0
289
    3
340
standard
341

371
   -1
372
   -2
  0
ENDTAB
  0
TABLE
  2
BLOCK_RECORD
  5
1
330
0
100
AcDbSymbolTable
 70
    2
  0
BLOCK_RECORD
  5
1F
330
1
100
AcDbSymbolTableRecord
100
AcDbBlockTableRecord
  2
*Model_Space
 70
    0
280
    1
281
    0
  0
BLOCK_RECORD
  5
1E
330
1
100
AcDbSymbolTableRecord
100
AcDbBlockTableRecord
  2
*Paper_Space
 70
    0
280
    1
281
    0
  0
BLOCK_RECORD
  5
58
330
1
100
AcDbSymbolTableRecord
100
AcDbBlockTableRecord
  2
*D42
 70
    0
280
    1
281
    0
  0
BLOCK_RECORD
  5
5B
330
1
100
AcDbSymbolTableRecord
100
AcDbBlockTableRecord
  2
*D14
 70
    0
280
    1
281
    0
  0
BLOCK_RECORD
  5
5E
330
1
100
AcDbSymbolTableRecord
100
AcDbBlockTableRecord
  2
*D34
 70
    0
280
    1
281
    0
  0
BLOCK_RECORD
  5
61
330
1
100
AcDbSymbolTableRecord
100
AcDbBlockTableRecord
  2
*D46
 70
    0
280
    1
281
    0
  0
BLOCK_RECORD
  5
64
330
1
100
AcDbSymbolTableRecord
100
AcDbBlockTableRecord
  2
*D40
 70
    0
280
    1
281
    0
  0
BLOCK_RECORD
  5
67
330
1
100
AcDbSymbolTableRecord
100
AcDbBlockTableRecord
  2
*D5
 70
    0
280
    1
281
    0
  0
BLOCK_RECORD
  5
6A
330
1
100
AcDbSymbolTableRecord
100
AcDbBlockTableRecord
  2
*D63
 70
    0
280
    1
281
    0
  0
BLOCK_RECORD
  5
6D
330
1
100
AcDbSymbolTableRecord
100
AcDbBlockTableRecord
  2
*D55
 70
    0
280
    1
281
    0
  0
BLOCK_RECORD
  5
70
330
1
100
AcDbSymbolTableRecord
100
AcDbBlockTableRecord
  2
*D81
 70
    0
280
    1
281
    0
  0
BLOCK_RECORD
  5
73
330
1
100
AcDbSymbolTableRecord
100
AcDbBlockTableRecord
  2
*D38
 70
    0
280
    1
281
    0
  0
BLOCK_RECORD
  5
76
330
1
100
AcDbSymbolTableRecord
100
AcDbBlockTableRecord
  2
*D51
 70
    0
280
    1
281
    0
  0
BLOCK_RECORD
  5
79
330
1
100
AcDbSymbolTableRecord
100
AcDbBlockTableRecord
  2
*D73
 70
    0
280
    1
281
    0
  0
BLOCK_RECORD
  5
7C
330
1
100
AcDbSymbolTableRecord
100
AcDbBlockTableRecord
  2
*D13
 70
    0
280
    1
281
    0
  0
BLOCK_RECORD
  5
7F
330
1
100
AcDbSymbolTableRecord
100
AcDbBlockTableRecord
  2
*D62
 70
    0
280
    1
281
    0
  0
BLOCK_RECORD
  5
82
330
1
100
AcDbSymbolTableRecord
100
AcDbBlockTableRecord
  2
*D9
 70
    0
280
    1
281
    0
  0
BLOCK_RECORD
  5
85
330
1
100
AcDbSymbolTableRecord
100
AcDbBlockTableRecord
  2
*D71
 70
    0
280
    1
281
    0
  0
BLOCK_RECORD
  5
88
330
1
100
AcDbSymbolTableRecord
100
AcDbBlockTableRecord
  2
*D36
 70
    0
280
    1
281
    0
  0
BLOCK_RECORD
  5
8B
330
1
100
AcDbSymbolTableRecord
100
AcDbBlockTableRecord
  2
*D19
 70
    0
280
    1
281
    0
  0
BLOCK_RECORD
  5
8E
330
1
100
AcDbSymbolTableRecord
100
AcDbBlockTableRecord
  2
*D59
 70
    0
280
    1
281
    0
  0
BLOCK_RECORD
  5
91
330
1
100
AcDbSymbolTableRecord
100
AcDbBlockTableRecord
  2
*D69
 70
    0
280
    1
281
    0
  0
BLOCK_RECORD
  5
94
330
1
100
AcDbSymbolTableRecord
100
AcDbBlockTableRecord
  2
*D30
 70
    0
280
    1
281
    0
  0
BLOCK_RECORD
  5
97
330
1
100
AcDbSymbolTableRecord
100
AcDbBlockTableRecord
  2
*D16
 70
    0
280
    1
281
    0
  0
BLOCK_RECORD
  5
9A
330
1
100
AcDbSymbolTableRecord
100
AcDbBlockTableRecord
  2
*D76
 70
    0
280
    1
281
    0
  0
BLOCK_RECORD
  5
9D
330
1
100
AcDbSymbolTableRecord
100
AcDbBlockTableRecord
  2
*D29
 70
    0
280
    1
281
    0
  0
BLOCK_RECORD
  5
A0
330
1
100
AcDbSymbolTableRecord
100
AcDbBlockTableRecord
  2
*D12
 70
    0
280
    1
281
    0
  0
BLOCK_RECORD
  5
A3
330
1
100
AcDbSymbolTableRecord
100
AcDbBlockTableRecord
  2
*D10
 70
    0
280
    1
281
    0
  0
BLOCK_RECORD
  5
A6
330
1
100
AcDbSymbolTableRecord
100
AcDbBlockTableRecord
  2
*D77
 70
    0
280
    1
281
    0
  0
BLOCK_RECORD
  5
A9
330
1
100
AcDbSymbolTableRecord
100
AcDbBlockTableRecord
  2
*D65
 70
    0
280
    1
281
    0
  0
BLOCK_RECORD
  5
AC
330
1
100
AcDbSymbolTableRecord
100
AcDbBlockTableRecord
  2
*D6
 70
    0
280
    1
281
    0
  0
BLOCK_RECORD
  5
AF
330
1
100
AcDbSymbolTableRecord
100
AcDbBlockTableRecord
  2
*D31
 70
    0
280
    1
281
    0
  0
BLOCK_RECORD
  5
B2
330
1
100
AcDbSymbolTableRecord
100
AcDbBlockTableRecord
  2
*D25
 70
    0
280
    1
281
    0
  0
BLOCK_RECORD
  5
B5
330
1
100
AcDbSymbolTableRecord
100
AcDbBlockTableRecord
  2
*D21
 70
    0
280
    1
281
    0
  0
BLOCK_RECORD
  5
B8
330
1
100
AcDbSymbolTableRecord
100
AcDbBlockTableRecord
  2
*D4
 70
    0
280
    1
281
    0
  0
BLOCK_RECORD
  5
BB
330
1
100
AcDbSymbolTableRecord
100
AcDbBlockTableRecord
  2
*D8
 70
    0
280
    1
281
    0
  0
BLOCK_RECORD
  5
BE
330
1
100
AcDbSymbolTableRecord
100
AcDbBlockTableRecord
  2
*D37
 70
    0
280
    1
281
    0
  0
BLOCK_RECORD
  5
C1
330
1
100
AcDbSymbolTableRecord
100
AcDbBlockTableRecord
  2
*D53
 70
    0
280
    1
281
    0
  0
BLOCK_RECORD
  5
C4
330
1
100
AcDbSymbolTableRecord
100
AcDbBlockTableRecord
  2
*D7
 70
    0
280
    1
281
    0
  0
BLOCK_RECORD
  5
C7
330
1
100
AcDbSymbolTableRecord
100
AcDbBlockTableRecord
  2
*D64
 70
    0
280
    1
281
    0
  0
BLOCK_RECORD
  5
CA
330
1
100
AcDbSymbolTableRecord
100
AcDbBlockTableRecord
  2
*D52
 70
    0
280
    1
281
    0
  0
BLOCK_RECORD
  5
CD
330
1
100
AcDbSymbolTableRecord
100
AcDbBlockTableRecord
  2
*D70
 70
    0
280
    1
281
    0
  0
BLOCK_RECORD
  5
D0
330
1
100
AcDbSymbolTableRecord
100
AcDbBlockTableRecord
  2
*D45
 70
    0
280
    1
281
    0
  0
BLOCK_RECORD
  5
D3
330
1
100
AcDbSymbolTableRecord
100
AcDbBlockTableRecord
  2
*D74
 70
    0
280
    1
281
    0
  0
BLOCK_RECORD
  5
D6
330
1
100
AcDbSymbolTableRecord
100
AcDbBlockTableRecord
  2
*D23
 70
    0
280
    1
281
    0
  0
BLOCK_RECORD
  5
D9
330
1
100
AcDbSymbolTableRecord
100
AcDbBlockTableRecord
  2
*D22
 70
    0
280
    1
281
    0
  0
BLOCK_RECORD
  5
DC
330
1
100
AcDbSymbolTableRecord
100
AcDbBlockTableRecord
  2
*D39
 70
    0
280
    1
281
    0
  0
BLOCK_RECORD
  5
DF
330
1
100
AcDbSymbolTableRecord
100
AcDbBlockTableRecord
  2
*D56
 70
    0
280
    1
281
    0
  0
BLOCK_RECORD
  5
E2
330
1
100
AcDbSymbolTableRecord
100
AcDbBlockTableRecord
  2
*D15
 70
    0
280
    1
281
    0
  0
BLOCK_RECORD
  5
E5
330
1
100
AcDbSymbolTableRecord
100
AcDbBlockTableRecord
  2
*D80
 70
    0
280
    1
281
    0
  0
BLOCK_RECORD
  5
E8
330
1
100
AcDbSymbolTableRecord
100
AcDbBlockTableRecord
  2
*D61
 70
    0
280
    1
281
    0
  0
BLOCK_RECORD
  5
EB
330
1
100
AcDbSymbolTableRecord
100
AcDbBlockTableRecord
  2
*D49
 70
    0
280
    1
281
    0
  0
BLOCK_RECORD
  5
EE
330
1
100
AcDbSymbolTableRecord
100
AcDbBlockTableRecord
  2
*D1
 70
    0
280
    1
281
    0
  0
BLOCK_RECORD
  5
F1
330
1
100
AcDbSymbolTableRecord
100
AcDbBlockTableRecord
  2
*D72
 70
    0
280
    1
281
    0
  0
BLOCK_RECORD
  5
F4
330
1
100
AcDbSymbolTableRecord
100
AcDbBlockTableRecord
  2
*D18
 70
    0
280
    1
281
    0
  0
BLOCK_RECORD
  5
F7
330
1
100
AcDbSymbolTableRecord
100
AcDbBlockTableRecord
  2
*D67
 70
    0
280
    1
281
    0
  0
BLOCK_RECORD
  5
FA
330
1
100
AcDbSymbolTableRecord
100
AcDbBlockTableRecord
  2
*D60
 70
    0
280
    1
281
    0
  0
BLOCK_RECORD
  5
FD
330
1
100
AcDbSymbolTableRecord
100
AcDbBlockTableRecord
  2
*D32
 70
    0
280
    1
281
    0
  0
BLOCK_RECORD
  5
100
330
1
100
AcDbSymbolTableRecord
100
AcDbBlockTableRecord
  2
*D26
 70
    0
280
    1
281
    0
  0
BLOCK_RECORD
  5
103
330
1
100
AcDbSymbolTableRecord
100
AcDbBlockTableRecord
  2
*D27
 70
    0
280
    1
281
    0
  0
BLOCK_RECORD
  5
106
330
1
100
AcDbSymbolTableRecord
100
AcDbBlockTableRecord
  2
*D79
 70
    0
280
    1
281
    0
  0
BLOCK_RECORD
  5
109
330
1
100
AcDbSymbolTableRecord
100
AcDbBlockTableRecord
  2
*D50
 70
    0
280
    1
281
    0
  0
BLOCK_RECORD
  5
10C
330
1
100
AcDbSymbolTableRecord
100
AcDbBlockTableRecord
  2
*D24
 70
    0
280
    1
281
    0
  0
BLOCK_RECORD
  5
10F
330
1
100
AcDbSymbolTableRecord
100
AcDbBlockTableRecord
  2
*D54
 70
    0
280
    1
281
    0
  0
BLOCK_RECORD
  5
112
330
1
100
AcDbSymbolTableRecord
100
AcDbBlockTableRecord
  2
*D78
 70
    0
280
    1
281
    0
  0
BLOCK_RECORD
  5
115
330
1
100
AcDbSymbolTableRecord
100
AcDbBlockTableRecord
  2
*D2
 70
    0
280
    1
281
    0
  0
BLOCK_RECORD
  5
118
330
1
100
AcDbSymbolTableRecord
100
AcDbBlockTableRecord
  2
*D43
 70
    0
280
    1
281
    0
  0
BLOCK_RECORD
  5
11B
330
1
100
AcDbSymbolTableRecord
100
AcDbBlockTableRecord
  2
*D68
 70
    0
280
    1
281
    0
  0
BLOCK_RECORD
  5
11E
330
1
100
AcDbSymbolTableRecord
100
AcDbBlockTableRecord
  2
*D75
 70
    0
280
    1
281
    0
  0
BLOCK_RECORD
  5
121
330
1
100
AcDbSymbolTableRecord
100
AcDbBlockTableRecord
  2
*D17
 70
    0
280
    1
281
    0
  0
BLOCK_RECORD
  5
124
330
1
100
AcDbSymbolTableRecord
100
AcDbBlockTableRecord
  2
*D66
 70
    0
280
    1
281
    0
  0
BLOCK_RECORD
  5
127
330
1
100
AcDbSymbolTableRecord
100
AcDbBlockTableRecord
  2
*D33
 70
    0
280
    1
281
    0
  0
BLOCK_RECORD
  5
12A
330
1
100
AcDbSymbolTableRecord
100
AcDbBlockTableRecord
  2
*D41
 70
    0
280
    1
281
    0
  0
BLOCK_RECORD
  5
12D
330
1
100
AcDbSymbolTableRecord
100
AcDbBlockTableRecord
  2
*D35
 70
    0
280
    1
281
    0
  0
BLOCK_RECORD
  5
130
330
1
100
AcDbSymbolTableRecord
100
AcDbBlockTableRecord
  2
*D58
 70
    0
280
    1
281
    0
  0
BLOCK_RECORD
  5
133
330
1
100
AcDbSymbolTableRecord
100
AcDbBlockTableRecord
  2
*D20
 70
    0
280
    1
281
    0
  0
BLOCK_RECORD
  5
136
330
1
100
AcDbSymbolTableRecord
100
AcDbBlockTableRecord
  2
*D48
 70
    0
280
    1
281
    0
  0
BLOCK_RECORD
  5
139
330
1
100
AcDbSymbolTableRecord
100
AcDbBlockTableRecord
  2
*D28
 70
    0
280
    1
281
    0
  0
BLOCK_RECORD
  5
13C
330
1
100
AcDbSymbolTableRecord
100
AcDbBlockTableRecord
  2
*D47
 70
    0
280
    1
281
    0
  0
BLOCK_RECORD
  5
13F
330
1
100
AcDbSymbolTableRecord
100
AcDbBlockTableRecord
  2
*D3
 70
    0
280
    1
281
    0
  0
BLOCK_RECORD
  5
142
330
1
100
AcDbSymbolTableRecord
100
AcDbBlockTableRecord
  2
*D44
 70
    0
280
    1
281
    0
  0
BLOCK_RECORD
  5
145
330
1
100
AcDbSymbolTableRecord
100
AcDbBlockTableRecord
  2
*D11
 70
    0
280
    1
281
    0
  0
BLOCK_RECORD
  5
148
330
1
100
AcDbSymbolTableRecord
100
AcDbBlockTableRecord
  2
*D57
 70
    0
280
    1
281
    0
  0
ENDTAB
  0
ENDSEC
  0
SECTION
  2
BLOCKS
  0
BLOCK
  5
20
330
1F
100
AcDbEntity
  8
0
100
AcDbBlockBegin
  2
*Model_Space
 70
    0
 10
0
 20
0
 30
0
  3
*Model_Space
  1

  0
ENDBLK
  5
21
330
1F
100
AcDbEntity
  8
0
100
AcDbBlockEnd
  0
BLOCK
  5
1C
330
1B
100
AcDbEntity
  8
0
100
AcDbBlockBegin
  2
*Paper_Space
 70
    0
 10
0
 20
0
 30
0
  3
*Paper_Space
  1

  0
ENDBLK
  5
1D
330
1F
100
AcDbEntity
  8
0
100
AcDbBlockEnd
  0
BLOCK
  5
59
330
58
100
AcDbEntity
  8
0
100
AcDbBlockBegin
  2
*D42
 70
    1
 10
0
 20
0
  3
*D42
  1

  0
LINE
  5
14B
100
AcDbEntity
  8
legende
  6
ByBlock
 62
  253
370
   -1
100
AcDbLine
 10
250
 20
-1170
 11
0
 21
-1170
  0
MTEXT
  5
14C
100
AcDbEntity
  8
legende
  6
CONTINUOUS
 62
    0
370
   -2
100
AcDbMText
 10
125
 20
-1162.1875
 30
0
 40
12.5
 41
25.00000000000077
 71
    5
 72
    1
  1
250
  7
standard
210
0
220
0
230
1
 50
0
 73
    2
 44
1
  0
SOLID
  5
14D
100
AcDbEntity
  8
legende
  6
ByBlock
 62
  253
370
   -1
100
AcDbTrace
 10
250
 20
-1170
 30
0
 11
225
 21
-1174.162846577728
 31
0
 12
225
 22
-1165.837153422272
 32
0
 13
225
 23
-1165.837153422272
 33
0
  0
SOLID
  5
14E
100
AcDbEntity
  8
legende
  6
ByBlock
 62
  253
370
   -1
100
AcDbTrace
 10
0
 20
-1170
 30
0
 11
25
 21
-1165.837153422272
 31
0
 12
25
 22
-1174.162846577728
 32
0
 13
25
 23
-1174.162846577728
 33
0
  0
LINE
  5
14F
100
AcDbEntity
  8
legende
  6
ByBlock
 62
  253
370
   -2
100
AcDbLine
 10
250
 20
-1131.5625
 11
250
 21
-1173.125
  0
LINE
  5
150
100
AcDbEntity
  8
legende
  6
ByBlock
 62
  253
370
   -2
100
AcDbLine
 10
-2.870265935501609e-16
 20
-1131.5625
 11
-5.740531871003218e-16
 21
-1173.125
  0
ENDBLK
  5
5A
330
58
100
AcDbEntity
  8
0
100
AcDbBlockEnd
  0
BLOCK
  5
5C
330
5B
100
AcDbEntity
  8
0
100
AcDbBlockBegin
  2
*D14
 70
    1
 10
0
 20
0
  3
*D14
  1

  0
ARC
  5
151
100
AcDbEntity
  8
legende
  6
ByBlock
 62
  253
370
   -1
100
AcDbCircle
 10
0
 20
-1000
 40
31.62277660168379
100
AcDbArc
 50
311.7775101582704
 51
0
  0
SOLID
  5
152
100
AcDbEntity
  8
legende
  6
ByBlock
 62
  253
370
   -1
100
AcDbTrace
 10
21.0683524641194
 20
-1023.582292603724
 30
0
 11
5.198367280315788
 21
-1043.342678781518
 31
0
 12
-0.3485408902314724
 22
-1037.133896592848
 32
0
 13
-0.3485408902314724
 23
-1037.133896592848
 33
0
  0
SOLID
  5
153
100
AcDbEntity
  8
legende
  6
ByBlock
 62
  253
370
   -1
100
AcDbTrace
 10
31.62277660168379
 20
-1000
 30
0
 11
27.45993002395539
 21
-975
 31
0
 12
35.7856231794122
 22
-975
 32
0
 13
35.7856231794122
 23
-975
 33
0
  0
MTEXT
  5
154
100
AcDbEntity
  8
legende
  6
CONTINUOUS
 62
    0
370
   -2
100
AcDbMText
 10
27.43763832108748
 20
-1012.279911755828
 30
0
 40
12.5
 41
25
 71
    8
 72
    1
  1
48%%D
  7
standard
210
0
220
0
230
1
 50
65.88875507913521
 73
    2
 44
1
  0
ENDBLK
  5
5D
330
5B
100
AcDbEntity
  8
0
100
AcDbBlockEnd
  0
BLOCK
  5
5F
330
5E
100
AcDbEntity
  8
0
100
AcDbBlockBegin
  2
*D34
 70
    1
 10
0
 20
0
  3
*D34
  1

  0
LINE
  5
155
100
AcDbEntity
  8
legende
  6
ByBlock
 62
  253
370
   -1
100
AcDbLine
 10
1532.825566692899
 20
-1860
 11
1689.838442030082
 21
-1860
  0
MTEXT
  5
156
100
AcDbEntity
  8
legende
  6
CONTINUOUS
 62
    0
370
   -2
100
AcDbMText
 10
1611.33200436149
 20
-1852.1875
 30
0
 40
12.5
 41
15.27777777777855
 71
    5
 72
    1
  1
57
  7
standard
210
0
220
0
230
1
 50
0
 73
    2
 44
1
  0
SOLID
  5
157
100
AcDbEntity
  8
legende
  6
ByBlock
 62
  253
370
   -1
100
AcDbTrace
 10
1582.825566692899
 20
-1860
 30
0
 11
1557.825566692899
 21
-1864.162846577728
 31
0
 12
1557.825566692899
 22
-1855.837153422272
 32
0
 13
1557.825566692899
 23
-1855.837153422272
 33
0
  0
SOLID
  5
158
100
AcDbEntity
  8
legende
  6
ByBlock
 62
  253
370
   -1
100
AcDbTrace
 10
1639.838442030082
 20
-1860
 30
0
 11
1664.838442030082
 21
-1855.837153422272
 31
0
 12
1664.838442030082
 22
-1864.162846577728
 32
0
 13
1664.838442030082
 23
-1864.162846577728
 33
0
  0
LINE
  5
159
100
AcDbEntity
  8
legende
  6
ByBlock
 62
  253
370
   -2
100
AcDbLine
 10
1582.825566692899
 20
-1817.563827521417
 11
1582.825566692899
 21
-1863.125
  0
LINE
  5
15A
100
AcDbEntity
  8
legende
  6
ByBlock
 62
  253
370
   -2
100
AcDbLine
 10
1639.838442030082
 20
-1841.564025224678
 11
1639.838442030082
 21
-1863.125
  0
ENDBLK
  5
60
330
5E
100
AcDbEntity
  8
0
100
AcDbBlockEnd
  0
BLOCK
  5
62
330
61
100
AcDbEntity
  8
0
100
AcDbBlockBegin
  2
*D46
 70
    1
 10
0
 20
0
  3
*D46
  1

  0
LINE
  5
15B
100
AcDbEntity
  8
legende
  6
ByBlock
 62
  253
370
   -1
100
AcDbLine
 10
-50
 20
-1270
 11
55.01295856214438
 21
-1270
  0
MTEXT
  5
15C
100
AcDbEntity
  8
legende
  6
CONTINUOUS
 62
    0
370
   -2
100
AcDbMText
 10
9.353236339922542
 20
-1262.1875
 30
0
 40
12.5
 41
5.555555555556331
 71
    5
 72
    1
  1
5
  7
standard
210
0
220
0
230
1
 50
0
 73
    2
 44
1
  0
SOLID
  5
15D
100
AcDbEntity
  8
legende
  6
ByBlock
 62
  253
370
   -1
100
AcDbTrace
 10
0
 20
-1270
 30
0
 11
-25
 21
-1274.162846577728
 31
0
 12
-25
 22
-1265.837153422272
 32
0
 13
-25
 23
-1265.837153422272
 33
0
  0
SOLID
  5
15E
100
AcDbEntity
  8
legende
  6
ByBlock
 62
  253
370
   -1
100
AcDbTrace
 10
5.012958562144377
 20
-1270
 30
0
 11
30.01295856214438
 21
-1265.837153422272
 31
0
 12
30.01295856214438
 22
-1274.162846577728
 32
0
 13
30.01295856214438
 23
-1274.162846577728
 33
0
  0
LINE
  5
15F
100
AcDbEntity
  8
legende
  6
ByBlock
 62
  253
370
   -2
100
AcDbLine
 10
-2.870265935501609e-16
 20
-1201.5625
 11
-5.740531871003218e-16
 21
-1273.125
  0
LINE
  5
160
100
AcDbEntity
  8
legende
  6
ByBlock
 62
  253
370
   -2
100
AcDbLine
 10
5.012958562144377
 20
-1231.5625
 11
5.012958562144376
 21
-1273.125
  0
ENDBLK
  5
63
330
61
100
AcDbEntity
  8
0
100
AcDbBlockEnd
  0
BLOCK
  5
65
330
64
100
AcDbEntity
  8
0
100
AcDbBlockBegin
  2
*D40
 70
    1
 10
0
 20
0
  3
*D40
  1

  0
LINE
  5
161
100
AcDbEntity
  8
legende
  6
ByBlock
 62
  253
370
   -1
100
AcDbLine
 10
60
 20
-1150
 11
190
 21
-1150
  0
MTEXT
  5
162
100
AcDbEntity
  8
legende
  6
CONTINUOUS
 62
    0
370
   -2
100
AcDbMText
 10
125
 20
-1142.1875
 30
0
 40
12.5
 41
22.222222222223
 71
    5
 72
    1
  1
130
  7
standard
210
0
220
0
230
1
 50
0
 73
    2
 44
1
  0
SOLID
  5
163
100
AcDbEntity
  8
legende
  6
ByBlock
 62
  253
370
   -1
100
AcDbTrace
 10
60
 20
-1150
 30
0
 11
85
 21
-1145.837153422272
 31
0
 12
85
 22
-1154.162846577728
 32
0
 13
85
 23
-1154.162846577728
 33
0
  0
SOLID
  5
164
100
AcDbEntity
  8
legende
  6
ByBlock
 62
  253
370
   -1
100
AcDbTrace
 10
190
 20
-1150
 30
0
 11
165
 21
-1154.162846577728
 31
0
 12
165
 22
-1145.837153422272
 32
0
 13
165
 23
-1145.837153422272
 33
0
  0
LINE
  5
165
100
AcDbEntity
  8
legende
  6
ByBlock
 62
  253
370
   -2
100
AcDbLine
 10
60
 20
-1131.5625
 11
60
 21
-1153.125
  0
LINE
  5
166
100
AcDbEntity
  8
legende
  6
ByBlock
 62
  253
370
   -2
100
AcDbLine
 10
190
 20
-1131.5625
 11
190
 21
-1153.125
  0
ENDBLK
  5
66
330
64
100
AcDbEntity
  8
0
100
AcDbBlockEnd
  0
BLOCK
  5
68
330
67
100
AcDbEntity
  8
0
100
AcDbBlockBegin
  2
*D5
 70
    1
 10
0
 20
0
  3
*D5
  1

  0
LINE
  5
167
100
AcDbEntity
  8
alu
  6
ByBlock
 62
  253
370
   -2
100
AcDbLine
 10
1144
 20
-158.4375
 11
1144
 21
-116.875
  0
LINE
  5
168
100
AcDbEntity
  8
alu
  6
ByBlock
 62
  253
370
   -2
100
AcDbLine
 10
1141
 20
-158.4375
 11
1141
 21
-116.875
  0
LINE
  5
169
100
AcDbEntity
  8
alu
  6
ByBlock
 62
  253
370
   -1
100
AcDbLine
 10
1194
 20
-120
 11
1091
 21
-120
  0
MTEXT
  5
16A
100
AcDbEntity
  8
alu
  6
CONTINUOUS
 62
    0
370
   -2
100
AcDbMText
 10
1148.340277777778
 20
-112.1875
 30
0
 40
12.5
 41
5.555555555556331
 71
    5
 72
    1
  1
3
  7
standard
210
0
220
0
230
1
 50
0
 73
    2
 44
1
  0
SOLID
  5
16B
100
AcDbEntity
  8
alu
  6
ByBlock
 62
  253
370
   -1
100
AcDbTrace
 10
1144
 20
-120
 30
0
 11
1169
 21
-115.8371534222716
 31
0
 12
1169
 22
-124.1628465777284
 32
0
 13
1169
 23
-124.1628465777284
 33
0
  0
SOLID
  5
16C
100
AcDbEntity
  8
alu
  6
ByBlock
 62
  253
370
   -1
100
AcDbTrace
 10
1141
 20
-120
 30
0
 11
1116
 21
-124.1628465777284
 31
0
 12
1116
 22
-115.8371534222716
 32
0
 13
1116
 23
-115.8371534222716
 33
0
  0
ENDBLK
  5
69
330
67
100
AcDbEntity
  8
0
100
AcDbBlockEnd
  0
BLOCK
  5
6B
330
6A
100
AcDbEntity
  8
0
100
AcDbBlockBegin
  2
*D63
 70
    1
 10
0
 20
0
  3
*D63
  1

  0
LINE
  5
16D
100
AcDbEntity
  8
legende
  6
ByBlock
 62
  253
370
   -1
100
AcDbLine
 10
678.1046666271526
 20
-1650
 11
768.9485677233897
 21
-1650
  0
MTEXT
  5
16E
100
AcDbEntity
  8
legende
  6
CONTINUOUS
 62
    0
370
   -2
100
AcDbMText
 10
723.5266171752712
 20
-1642.1875
 30
0
 40
12.5
 41
12.50000000000077
 71
    5
 72
    1
  1
91
  7
standard
210
0
220
0
230
1
 50
0
 73
    2
 44
1
  0
SOLID
  5
16F
100
AcDbEntity
  8
legende
  6
ByBlock
 62
  253
370
   -1
100
AcDbTrace
 10
678.1046666271526
 20
-1650
 30
0
 11
703.1046666271526
 21
-1645.837153422272
 31
0
 12
703.1046666271526
 22
-1654.162846577728
 32
0
 13
703.1046666271526
 23
-1654.162846577728
 33
0
  0
SOLID
  5
170
100
AcDbEntity
  8
legende
  6
ByBlock
 62
  253
370
   -1
100
AcDbTrace
 10
768.9485677233897
 20
-1650
 30
0
 11
743.9485677233897
 21
-1654.162846577728
 31
0
 12
743.9485677233897
 22
-1645.837153422272
 32
0
 13
743.9485677233897
 23
-1645.837153422272
 33
0
  0
LINE
  5
171
100
AcDbEntity
  8
legende
  6
ByBlock
 62
  253
370
   -2
100
AcDbLine
 10
678.1046666271526
 20
-1616.564851458511
 11
678.1046666271526
 21
-1653.125
  0
LINE
  5
172
100
AcDbEntity
  8
legende
  6
ByBlock
 62
  253
370
   -2
100
AcDbLine
 10
768.9485677233897
 20
-1601.56516647713
 11
768.9485677233897
 21
-1653.125
  0
ENDBLK
  5
6C
330
6A
100
AcDbEntity
  8
0
100
AcDbBlockEnd
  0
BLOCK
  5
6E
330
6D
100
AcDbEntity
  8
0
100
AcDbBlockBegin
  2
*D55
 70
    1
 10
0
 20
0
  3
*D55
  1

  0
LINE
  5
173
100
AcDbEntity
  8
legende
  6
ByBlock
 62
  253
370
   -1
100
AcDbLine
 10
184.5779183512477
 20
-1750
 11
323.0514031501927
 21
-1750
  0
MTEXT
  5
174
100
AcDbEntity
  8
legende
  6
CONTINUOUS
 62
    0
370
   -2
100
AcDbMText
 10
253.8146607507202
 20
-1742.1875
 30
0
 40
12.5
 41
15.27777777777855
 71
    5
 72
    1
  1
38
  7
standard
210
0
220
0
230
1
 50
0
 73
    2
 44
1
  0
SOLID
  5
175
100
AcDbEntity
  8
legende
  6
ByBlock
 62
  253
370
   -1
100
AcDbTrace
 10
234.5779183512477
 20
-1750
 30
0
 11
209.5779183512477
 21
-1754.162846577728
 31
0
 12
209.5779183512477
 22
-1745.837153422272
 32
0
 13
209.5779183512477
 23
-1745.837153422272
 33
0
  0
SOLID
  5
176
100
AcDbEntity
  8
legende
  6
ByBlock
 62
  253
370
   -1
100
AcDbTrace
 10
273.0514031501927
 20
-1750
 30
0
 11
298.0514031501927
 21
-1745.837153422272
 31
0
 12
298.0514031501927
 22
-1754.162846577728
 32
0
 13
298.0514031501927
 23
-1754.162846577728
 33
0
  0
LINE
  5
177
100
AcDbEntity
  8
legende
  6
ByBlock
 62
  253
370
   -2
100
AcDbLine
 10
234.5779183512477
 20
-1731.562505387333
 11
234.5779183512477
 21
-1753.125
  0
LINE
  5
178
100
AcDbEntity
  8
legende
  6
ByBlock
 62
  253
370
   -2
100
AcDbLine
 10
273.0514031501927
 20
-1701.562506270918
 11
273.0514031501927
 21
-1753.125
  0
ENDBLK
  5
6F
330
6D
100
AcDbEntity
  8
0
100
AcDbBlockEnd
  0
BLOCK
  5
71
330
70
100
AcDbEntity
  8
0
100
AcDbBlockBegin
  2
*D81
 70
    1
 10
0
 20
0
  3
*D81
  1

  0
LINE
  5
179
100
AcDbEntity
  8
legende
  6
ByBlock
 62
  253
370
   -1
100
AcDbLine
 10
268.8256228672617
 20
-1450
 11
394.8256228672622
 21
-1450
  0
MTEXT
  5
17A
100
AcDbEntity
  8
legende
  6
CONTINUOUS
 62
    0
370
   -2
100
AcDbMText
 10
331.8256228672619
 20
-1442.1875
 30
0
 40
12.5
 41
22.222222222223
 71
    5
 72
    1
  1
126
  7
standard
210
0
220
0
230
1
 50
0
 73
    2
 44
1
  0
SOLID
  5
17B
100
AcDbEntity
  8
legende
  6
ByBlock
 62
  253
370
   -1
100
AcDbTrace
 10
268.8256228672617
 20
-1450
 30
0
 11
293.8256228672617
 21
-1445.837153422272
 31
0
 12
293.8256228672617
 22
-1454.162846577728
 32
0
 13
293.8256228672617
 23
-1454.162846577728
 33
0
  0
SOLID
  5
17C
100
AcDbEntity
  8
legende
  6
ByBlock
 62
  253
370
   -1
100
AcDbTrace
 10
394.8256228672622
 20
-1450
 30
0
 11
369.8256228672622
 21
-1454.162846577728
 31
0
 12
369.8256228672622
 22
-1445.837153422272
 32
0
 13
369.8256228672622
 23
-1445.837153422272
 33
0
  0
LINE
  5
17D
100
AcDbEntity
  8
legende
  6
ByBlock
 62
  253
370
   -2
100
AcDbLine
 10
268.8256228672617
 20
-1431.562506311665
 11
268.8256228672617
 21
-1453.125
  0
LINE
  5
17E
100
AcDbEntity
  8
legende
  6
ByBlock
 62
  253
370
   -2
100
AcDbLine
 10
394.8256228672622
 20
-1431.562508654203
 11
394.8256228672622
 21
-1453.125
  0
ENDBLK
  5
72
330
70
100
AcDbEntity
  8
0
100
AcDbBlockEnd
  0
BLOCK
  5
74
330
73
100
AcDbEntity
  8
0
100
AcDbBlockBegin
  2
*D38
 70
    1
 10
0
 20
0
  3
*D38
  1

  0
LINE
  5
17F
100
AcDbEntity
  8
tube
  6
ByBlock
 62
  253
370
   -1
100
AcDbLine
 10
1540
 20
-1165
 11
1540
 21
-1270
  0
MTEXT
  5
180
100
AcDbEntity
  8
tube
  6
CONTINUOUS
 62
    0
370
   -2
100
AcDbMText
 10
1532.1875
 20
-1210.659722222222
 30
0
 40
12.5
 41
5.555555555556331
 71
    5
 72
    1
  1
5
  7
standard
210
0
220
0
230
1
 50
90
 73
    2
 44
1
  0
SOLID
  5
181
100
AcDbEntity
  8
tube
  6
ByBlock
 62
  253
370
   -1
100
AcDbTrace
 10
1540
 20
-1215
 30
0
 11
1535.837153422272
 21
-1190
 31
0
 12
1544.162846577728
 22
-1190
 32
0
 13
1544.162846577728
 23
-1190
 33
0
  0
SOLID
  5
182
100
AcDbEntity
  8
tube
  6
ByBlock
 62
  253
370
   -1
100
AcDbTrace
 10
1540
 20
-1220
 30
0
 11
1544.162846577728
 21
-1245
 31
0
 12
1535.837153422272
 22
-1245
 32
0
 13
1535.837153422272
 23
-1245
 33
0
  0
LINE
  5
183
100
AcDbEntity
  8
tube
  6
ByBlock
 62
  253
370
   -2
100
AcDbLine
 10
1261.5625
 20
-1215
 11
1543.125
 21
-1215
  0
LINE
  5
184
100
AcDbEntity
  8
tube
  6
ByBlock
 62
  253
370
   -2
100
AcDbLine
 10
1451.5625
 20
-1220
 11
1543.125
 21
-1220
  0
ENDBLK
  5
75
330
73
100
AcDbEntity
  8
0
100
AcDbBlockEnd
  0
BLOCK
  5
77
330
76
100
AcDbEntity
  8
0
100
AcDbBlockBegin
  2
*D51
 70
    1
 10
0
 20
0
  3
*D51
  1

  0
LINE
  5
185
100
AcDbEntity
  8
legende
  6
ByBlock
 62
  253
370
   -1
100
AcDbLine
 10
0
 20
-1650
 11
87.26076553391886
 21
-1650
  0
MTEXT
  5
186
100
AcDbEntity
  8
legende
  6
CONTINUOUS
 62
    0
370
   -2
100
AcDbMText
 10
43.63038276695943
 20
-1642.1875
 30
0
 40
12.5
 41
15.27777777777778
 71
    5
 72
    1
  1
87
  7
standard
210
0
220
0
230
1
 50
0
 73
    2
 44
1
  0
SOLID
  5
187
100
AcDbEntity
  8
legende
  6
ByBlock
 62
  253
370
   -1
100
AcDbTrace
 10
0
 20
-1650
 30
0
 11
25
 21
-1645.837153422272
 31
0
 12
25
 22
-1654.162846577728
 32
0
 13
25
 23
-1654.162846577728
 33
0
  0
SOLID
  5
188
100
AcDbEntity
  8
legende
  6
ByBlock
 62
  253
370
   -1
100
AcDbTrace
 10
87.26076553391886
 20
-1650
 30
0
 11
62.26076553391886
 21
-1654.162846577728
 31
0
 12
62.26076553391886
 22
-1645.837153422272
 32
0
 13
62.26076553391886
 23
-1645.837153422272
 33
0
  0
LINE
  5
189
100
AcDbEntity
  8
legende
  6
ByBlock
 62
  253
370
   -2
100
AcDbLine
 10
-2.870265935501609e-16
 20
-1601.5625
 11
-5.740531871003218e-16
 21
-1653.125
  0
LINE
  5
18A
100
AcDbEntity
  8
legende
  6
ByBlock
 62
  253
370
   -2
100
AcDbLine
 10
87.26076553391886
 20
-1631.562802593677
 11
87.26076553391886
 21
-1653.125
  0
ENDBLK
  5
78
330
76
100
AcDbEntity
  8
0
100
AcDbBlockEnd
  0
BLOCK
  5
7A
330
79
100
AcDbEntity
  8
0
100
AcDbBlockBegin
  2
*D73
 70
    1
 10
0
 20
0
  3
*D73
  1

  0
LINE
  5
18B
100
AcDbEntity
  8
legende
  6
ByBlock
 62
  253
370
   -1
100
AcDbLine
 10
1264.065494441667
 20
-1790
 11
1390.065516980983
 21
-1790
  0
MTEXT
  5
18C
100
AcDbEntity
  8
legende
  6
CONTINUOUS
 62
    0
370
   -2
100
AcDbMText
 10
1327.065505711325
 20
-1782.1875
 30
0
 40
12.5
 41
22.222222222223
 71
    5
 72
    1
  1
126
  7
standard
210
0
220
0
230
1
 50
0
 73
    2
 44
1
  0
SOLID
  5
18D
100
AcDbEntity
  8
legende
  6
ByBlock
 62
  253
370
   -1
100
AcDbTrace
 10
1264.065494441667
 20
-1790
 30
0
 11
1289.065494441667
 21
-1785.837153422272
 31
0
 12
1289.065494441667
 22
-1794.162846577728
 32
0
 13
1289.065494441667
 23
-1794.162846577728
 33
0
  0
SOLID
  5
18E
100
AcDbEntity
  8
legende
  6
ByBlock
 62
  253
370
   -1
100
AcDbTrace
 10
1390.065516980983
 20
-1790
 30
0
 11
1365.065516980983
 21
-1794.162846577728
 31
0
 12
1365.065516980983
 22
-1785.837153422272
 32
0
 13
1365.065516980983
 23
-1785.837153422272
 33
0
  0
LINE
  5
18F
100
AcDbEntity
  8
legende
  6
ByBlock
 62
  253
370
   -2
100
AcDbLine
 10
1264.065494441667
 20
-1803.437711756563
 11
1264.065494441667
 21
-1786.875
  0
LINE
  5
190
100
AcDbEntity
  8
legende
  6
ByBlock
 62
  253
370
   -2
100
AcDbLine
 10
1390.065516980983
 20
-1803.438148685678
 11
1390.065516980983
 21
-1786.875
  0
ENDBLK
  5
7B
330
79
100
AcDbEntity
  8
0
100
AcDbBlockEnd
  0
BLOCK
  5
7D
330
7C
100
AcDbEntity
  8
0
100
AcDbBlockBegin
  2
*D13
 70
    1
 10
0
 20
0
  3
*D13
  1

  0
LINE
  5
191
100
AcDbEntity
  8
legende
  6
ByBlock
 62
  253
370
   -1
100
AcDbLine
 10
0
 20
-1080
 11
986.135185185185
 21
-1080
  0
MTEXT
  5
192
100
AcDbEntity
  8
legende
  6
CONTINUOUS
 62
    0
370
   -2
100
AcDbMText
 10
493.0675925925925
 20
-1072.1875
 30
0
 40
12.5
 41
25.00000000000155
 71
    5
 72
    1
  1
986
  7
standard
210
0
220
0
230
1
 50
0
 73
    2
 44
1
  0
SOLID
  5
193
100
AcDbEntity
  8
legende
  6
ByBlock
 62
  253
370
   -1
100
AcDbTrace
 10
0
 20
-1080
 30
0
 11
25
 21
-1075.837153422272
 31
0
 12
25
 22
-1084.162846577728
 32
0
 13
25
 23
-1084.162846577728
 33
0
  0
SOLID
  5
194
100
AcDbEntity
  8
legende
  6
ByBlock
 62
  253
370
   -1
100
AcDbTrace
 10
986.135185185185
 20
-1080
 30
0
 11
961.135185185185
 21
-1084.162846577728
 31
0
 12
961.135185185185
 22
-1075.837153422272
 32
0
 13
961.135185185185
 23
-1075.837153422272
 33
0
  0
LINE
  5
195
100
AcDbEntity
  8
legende
  6
ByBlock
 62
  253
370
   -2
100
AcDbLine
 10
-2.870265935501609e-16
 20
-1001.5625
 11
-5.740531871003218e-16
 21
-1083.125
  0
LINE
  5
196
100
AcDbEntity
  8
legende
  6
ByBlock
 62
  253
370
   -2
100
AcDbLine
 10
986.135185185185
 20
-1001.5625
 11
986.135185185185
 21
-1083.125
  0
ENDBLK
  5
7E
330
7C
100
AcDbEntity
  8
0
100
AcDbBlockEnd
  0
BLOCK
  5
80
330
7F
100
AcDbEntity
  8
0
100
AcDbBlockBegin
  2
*D62
 70
    1
 10
0
 20
0
  3
*D62
  1

  0
LINE
  5
197
100
AcDbEntity
  8
legende
  6
ByBlock
 62
  253
370
   -1
100
AcDbLine
 10
428.1046666286554
 20
-1650
 11
678.1046666271526
 21
-1650
  0
MTEXT
  5
198
100
AcDbEntity
  8
legende
  6
CONTINUOUS
 62
    0
370
   -2
100
AcDbMText
 10
553.104666627904
 20
-1642.1875
 30
0
 40
12.5
 41
25.00000000000077
 71
    5
 72
    1
  1
250
  7
standard
210
0
220
0
230
1
 50
0
 73
    2
 44
1
  0
SOLID
  5
199
100
AcDbEntity
  8
legende
  6
ByBlock
 62
  253
370
   -1
100
AcDbTrace
 10
428.1046666286554
 20
-1650
 30
0
 11
453.1046666286554
 21
-1645.837153422272
 31
0
 12
453.1046666286554
 22
-1654.162846577728
 32
0
 13
453.1046666286554
 23
-1654.162846577728
 33
0
  0
SOLID
  5
19A
100
AcDbEntity
  8
legende
  6
ByBlock
 62
  253
370
   -1
100
AcDbTrace
 10
678.1046666271526
 20
-1650
 30
0
 11
653.1046666271526
 21
-1654.162846577728
 31
0
 12
653.1046666271526
 22
-1645.837153422272
 32
0
 13
653.1046666271526
 23
-1645.837153422272
 33
0
  0
LINE
  5
19B
100
AcDbEntity
  8
legende
  6
ByBlock
 62
  253
370
   -2
100
AcDbLine
 10
428.1046666286554
 20
-1616.563984535403
 11
428.1046666286554
 21
-1653.125
  0
LINE
  5
19C
100
AcDbEntity
  8
legende
  6
ByBlock
 62
  253
370
   -2
100
AcDbLine
 10
678.1046666271526
 20
-1616.564851458511
 11
678.1046666271526
 21
-1653.125
  0
ENDBLK
  5
81
330
7F
100
AcDbEntity
  8
0
100
AcDbBlockEnd
  0
BLOCK
  5
83
330
82
100
AcDbEntity
  8
0
100
AcDbBlockBegin
  2
*D9
 70
    1
 10
0
 20
0
  3
*D9
  1

  0
LINE
  5
19D
100
AcDbEntity
  8
legende
  6
ByBlock
 62
  253
370
   -1
100
AcDbLine
 10
477.0786634460546
 20
-1050
 11
926.135185185185
 21
-1050
  0
MTEXT
  5
19E
100
AcDbEntity
  8
legende
  6
CONTINUOUS
 62
    0
370
   -2
100
AcDbMText
 10
701.6069243156198
 20
-1042.1875
 30
0
 40
12.5
 41
27.77777777777778
 71
    5
 72
    1
  1
449
  7
standard
210
0
220
0
230
1
 50
0
 73
    2
 44
1
  0
SOLID
  5
19F
100
AcDbEntity
  8
legende
  6
ByBlock
 62
  253
370
   -1
100
AcDbTrace
 10
477.0786634460546
 20
-1050
 30
0
 11
502.0786634460546
 21
-1045.837153422272
 31
0
 12
502.0786634460546
 22
-1054.162846577728
 32
0
 13
502.0786634460546
 23
-1054.162846577728
 33
0
  0
SOLID
  5
1A0
100
AcDbEntity
  8
legende
  6
ByBlock
 62
  253
370
   -1
100
AcDbTrace
 10
926.135185185185
 20
-1050
 30
0
 11
901.135185185185
 21
-1054.162846577728
 31
0
 12
901.135185185185
 22
-1045.837153422272
 32
0
 13
901.135185185185
 23
-1045.837153422272
 33
0
  0
LINE
  5
1A1
100
AcDbEntity
  8
legende
  6
ByBlock
 62
  253
370
   -2
100
AcDbLine
 10
477.0786634460546
 20
-1031.5625
 11
477.0786634460546
 21
-1053.125
  0
LINE
  5
1A2
100
AcDbEntity
  8
legende
  6
ByBlock
 62
  253
370
   -2
100
AcDbLine
 10
926.135185185185
 20
-1031.5625
 11
926.135185185185
 21
-1053.125
  0
ENDBLK
  5
84
330
82
100
AcDbEntity
  8
0
100
AcDbBlockEnd
  0
BLOCK
  5
86
330
85
100
AcDbEntity
  8
0
100
AcDbBlockBegin
  2
*D71
 70
    1
 10
0
 20
0
  3
*D71
  1

  0
LINE
  5
1A3
100
AcDbEntity
  8
legende
  6
ByBlock
 62
  253
370
   -1
100
AcDbLine
 10
0
 20
-1380
 11
440
 21
-1380
  0
MTEXT
  5
1A4
100
AcDbEntity
  8
legende
  6
CONTINUOUS
 62
    0
370
   -2
100
AcDbMText
 10
220
 20
-1372.1875
 30
0
 40
12.5
 41
27.77777777777778
 71
    5
 72
    1
  1
440
  7
standard
210
0
220
0
230
1
 50
0
 73
    2
 44
1
  0
SOLID
  5
1A5
100
AcDbEntity
  8
legende
  6
ByBlock
 62
  253
370
   -1
100
AcDbTrace
 10
0
 20
-1380
 30
0
 11
25
 21
-1375.837153422272
 31
0
 12
25
 22
-1384.162846577728
 32
0
 13
25
 23
-1384.162846577728
 33
0
  0
SOLID
  5
1A6
100
AcDbEntity
  8
legende
  6
ByBlock
 62
  253
370
   -1
100
AcDbTrace
 10
440
 20
-1380
 30
0
 11
415
 21
-1384.162846577728
 31
0
 12
415
 22
-1375.837153422272
 32
0
 13
415
 23
-1375.837153422272
 33
0
  0
LINE
  5
1A7
100
AcDbEntity
  8
legende
  6
ByBlock
 62
  253
370
   -2
100
AcDbLine
 10
-2.870265935501609e-16
 20
-1331.5625
 11
-5.740531871003218e-16
 21
-1383.125
  0
LINE
  5
1A8
100
AcDbEntity
  8
legende
  6
ByBlock
 62
  253
370
   -2
100
AcDbLine
 10
440
 20
-1331.5625
 11
440
 21
-1383.125
  0
ENDBLK
  5
87
330
85
100
AcDbEntity
  8
0
100
AcDbBlockEnd
  0
BLOCK
  5
89
330
88
100
AcDbEntity
  8
0
100
AcDbBlockBegin
  2
*D36
 70
    1
 10
0
 20
0
  3
*D36
  1

  0
LINE
  5
1A9
100
AcDbEntity
  8
tube
  6
ByBlock
 62
  253
370
   -1
100
AcDbLine
 10
2270
 20
-1070
 11
2270
 21
-965
  0
MTEXT
  5
1AA
100
AcDbEntity
  8
tube
  6
CONTINUOUS
 62
    0
370
   -2
100
AcDbMText
 10
2262.1875
 20
-1010.659722222222
 30
0
 40
12.5
 41
5.555555555556331
 71
    5
 72
    1
  1
5
  7
standard
210
0
220
0
230
1
 50
90
 73
    2
 44
1
  0
SOLID
  5
1AB
100
AcDbEntity
  8
tube
  6
ByBlock
 62
  253
370
   -1
100
AcDbTrace
 10
2270
 20
-1020
 30
0
 11
2274.162846577728
 21
-1045
 31
0
 12
2265.837153422272
 22
-1045
 32
0
 13
2265.837153422272
 23
-1045
 33
0
  0
SOLID
  5
1AC
100
AcDbEntity
  8
tube
  6
ByBlock
 62
  253
370
   -1
100
AcDbTrace
 10
2270
 20
-1015
 30
0
 11
2265.837153422272
 21
-990
 31
0
 12
2274.162846577728
 22
-990
 32
0
 13
2274.162846577728
 23
-990
 33
0
  0
LINE
  5
1AD
100
AcDbEntity
  8
tube
  6
ByBlock
 62
  253
370
   -2
100
AcDbLine
 10
1267.5625
 20
-1020
 11
2273.125
 21
-1020
  0
LINE
  5
1AE
100
AcDbEntity
  8
tube
  6
ByBlock
 62
  253
370
   -2
100
AcDbLine
 10
1261.5625
 20
-1015
 11
2273.125
 21
-1015
  0
ENDBLK
  5
8A
330
88
100
AcDbEntity
  8
0
100
AcDbBlockEnd
  0
BLOCK
  5
8C
330
8B
100
AcDbEntity
  8
0
100
AcDbBlockBegin
  2
*D19
 70
    1
 10
0
 20
0
  3
*D19
  1

  0
LINE
  5
1AF
100
AcDbEntity
  8
legende
  6
ByBlock
 62
  253
370
   -1
100
AcDbLine
 10
2076.135185185185
 20
-1040
 11
2236.135185185185
 21
-1040
  0
MTEXT
  5
1B0
100
AcDbEntity
  8
legende
  6
CONTINUOUS
 62
    0
370
   -2
100
AcDbMText
 10
2156.135185185185
 20
-1032.1875
 30
0
 40
12.5
 41
15.27777777777855
 71
    5
 72
    1
  1
60
  7
standard
210
0
220
0
230
1
 50
0
 73
    2
 44
1
  0
SOLID
  5
1B1
100
AcDbEntity
  8
legende
  6
ByBlock
 62
  253
370
   -1
100
AcDbTrace
 10
2126.135185185185
 20
-1040
 30
0
 11
2101.135185185185
 21
-1044.162846577728
 31
0
 12
2101.135185185185
 22
-1035.837153422272
 32
0
 13
2101.135185185185
 23
-1035.837153422272
 33
0
  0
SOLID
  5
1B2
100
AcDbEntity
  8
legende
  6
ByBlock
 62
  253
370
   -1
100
AcDbTrace
 10
2186.135185185185
 20
-1040
 30
0
 11
2211.135185185185
 21
-1035.837153422272
 31
0
 12
2211.135185185185
 22
-1044.162846577728
 32
0
 13
2211.135185185185
 23
-1044.162846577728
 33
0
  0
LINE
  5
1B3
100
AcDbEntity
  8
legende
  6
ByBlock
 62
  253
370
   -2
100
AcDbLine
 10
2126.135185185185
 20
-1016.5625
 11
2126.135185185185
 21
-1043.125
  0
LINE
  5
1B4
100
AcDbEntity
  8
legende
  6
ByBlock
 62
  253
370
   -2
100
AcDbLine
 10
2186.135185185185
 20
-1016.628753118262
 11
2186.135185185185
 21
-1043.125
  0
ENDBLK
  5
8D
330
8B
100
AcDbEntity
  8
0
100
AcDbBlockEnd
  0
BLOCK
  5
8F
330
8E
100
AcDbEntity
  8
0
100
AcDbBlockBegin
  2
*D59
 70
    1
 10
0
 20
0
  3
*D59
  1

  0
LINE
  5
1B5
100
AcDbEntity
  8
legende
  6
ByBlock
 62
  253
370
   -1
100
AcDbLine
 10
-50.00000000000045
 20
-1850
 11
88.47348479894518
 21
-1850
  0
MTEXT
  5
1B6
100
AcDbEntity
  8
legende
  6
CONTINUOUS
 62
    0
370
   -2
100
AcDbMText
 10
19.23674239947236
 20
-1842.1875
 30
0
 40
12.5
 41
15.27777777777855
 71
    5
 72
    1
  1
38
  7
standard
210
0
220
0
230
1
 50
0
 73
    2
 44
1
  0
SOLID
  5
1B7
100
AcDbEntity
  8
legende
  6
ByBlock
 62
  253
370
   -1
100
AcDbTrace
 10
-4.547473508864641e-13
 20
-1850
 30
0
 11
-25.00000000000045
 21
-1854.162846577728
 31
0
 12
-25.00000000000045
 22
-1845.837153422272
 32
0
 13
-25.00000000000045
 23
-1845.837153422272
 33
0
  0
SOLID
  5
1B8
100
AcDbEntity
  8
legende
  6
ByBlock
 62
  253
370
   -1
100
AcDbTrace
 10
38.47348479894518
 20
-1850
 30
0
 11
63.47348479894518
 21
-1845.837153422272
 31
0
 12
63.47348479894518
 22
-1854.162846577728
 32
0
 13
63.47348479894518
 23
-1854.162846577728
 33
0
  0
LINE
  5
1B9
100
AcDbEntity
  8
legende
  6
ByBlock
 62
  253
370
   -2
100
AcDbLine
 10
-4.550343774800142e-13
 20
-1831.5625
 11
-4.553214040735644e-13
 21
-1853.125
  0
LINE
  5
1BA
100
AcDbEntity
  8
legende
  6
ByBlock
 62
  253
370
   -2
100
AcDbLine
 10
38.47348479894518
 20
-1801.562500883585
 11
38.47348479894518
 21
-1853.125
  0
ENDBLK
  5
90
330
8E
100
AcDbEntity
  8
0
100
AcDbBlockEnd
  0
BLOCK
  5
92
330
91
100
AcDbEntity
  8
0
100
AcDbBlockBegin
  2
*D69
 70
    1
 10
0
 20
0
  3
*D69
  1

  0
LINE
  5
1BB
100
AcDbEntity
  8
legende
  6
ByBlock
 62
  253
370
   -1
100
AcDbLine
 10
384.8256228672617
 20
-1370
 11
489.8385807404238
 21
-1370
  0
MTEXT
  5
1BC
100
AcDbEntity
  8
legende
  6
CONTINUOUS
 62
    0
370
   -2
100
AcDbMText
 10
444.178858518202
 20
-1362.1875
 30
0
 40
12.5
 41
5.555555555556331
 71
    5
 72
    1
  1
5
  7
standard
210
0
220
0
230
1
 50
0
 73
    2
 44
1
  0
SOLID
  5
1BD
100
AcDbEntity
  8
legende
  6
ByBlock
 62
  253
370
   -1
100
AcDbTrace
 10
434.8256228672617
 20
-1370
 30
0
 11
409.8256228672617
 21
-1374.162846577728
 31
0
 12
409.8256228672617
 22
-1365.837153422272
 32
0
 13
409.8256228672617
 23
-1365.837153422272
 33
0
  0
SOLID
  5
1BE
100
AcDbEntity
  8
legende
  6
ByBlock
 62
  253
370
   -1
100
AcDbTrace
 10
439.8385807404238
 20
-1370
 30
0
 11
464.8385807404238
 21
-1365.837153422272
 31
0
 12
464.8385807404238
 22
-1374.162846577728
 32
0
 13
464.8385807404238
 23
-1374.162846577728
 33
0
  0
LINE
  5
1BF
100
AcDbEntity
  8
legende
  6
ByBlock
 62
  253
370
   -2
100
AcDbLine
 10
434.8256228672617
 20
-1301.562509986236
 11
434.8256228672617
 21
-1373.125
  0
LINE
  5
1C0
100
AcDbEntity
  8
legende
  6
ByBlock
 62
  253
370
   -2
100
AcDbLine
 10
439.8385807404238
 20
-1331.562510101364
 11
439.8385807404238
 21
-1373.125
  0
ENDBLK
  5
93
330
91
100
AcDbEntity
  8
0
100
AcDbBlockEnd
  0
BLOCK
  5
95
330
94
100
AcDbEntity
  8
0
100
AcDbBlockBegin
  2
*D30
 70
    1
 10
0
 20
0
  3
*D30
  1

  0
LINE
  5
1C1
100
AcDbEntity
  8
legende
  6
ByBlock
 62
  253
370
   -1
100
AcDbLine
 10
1200
 20
-1860
 11
1276.065516981596
 21
-1860
  0
MTEXT
  5
1C2
100
AcDbEntity
  8
legende
  6
CONTINUOUS
 62
    0
370
   -2
100
AcDbMText
 10
1238.032758490798
 20
-1852.1875
 30
0
 40
12.5
 41
15.27777777777855
 71
    5
 72
    1
  1
76
  7
standard
210
0
220
0
230
1
 50
0
 73
    2
 44
1
  0
SOLID
  5
1C3
100
AcDbEntity
  8
legende
  6
ByBlock
 62
  253
370
   -1
100
AcDbTrace
 10
1200
 20
-1860
 30
0
 11
1225
 21
-1855.837153422272
 31
0
 12
1225
 22
-1864.162846577728
 32
0
 13
1225
 23
-1864.162846577728
 33
0
  0
SOLID
  5
1C4
100
AcDbEntity
  8
legende
  6
ByBlock
 62
  253
370
   -1
100
AcDbTrace
 10
1276.065516981596
 20
-1860
 30
0
 11
1251.065516981596
 21
-1864.162846577728
 31
0
 12
1251.065516981596
 22
-1855.837153422272
 32
0
 13
1251.065516981596
 23
-1855.837153422272
 33
0
  0
LINE
  5
1C5
100
AcDbEntity
  8
legende
  6
ByBlock
 62
  253
370
   -2
100
AcDbLine
 10
1200
 20
-1841.5625
 11
1200
 21
-1863.125
  0
LINE
  5
1C6
100
AcDbEntity
  8
legende
  6
ByBlock
 62
  253
370
   -2
100
AcDbLine
 10
1276.065516981596
 20
-1817.562763771914
 11
1276.065516981596
 21
-1863.125
  0
ENDBLK
  5
96
330
94
100
AcDbEntity
  8
0
100
AcDbBlockEnd
  0
BLOCK
  5
98
330
97
100
AcDbEntity
  8
0
100
AcDbBlockBegin
  2
*D16
 70
    1
 10
0
 20
0
  3
*D16
  1

  0
LINE
  5
1C7
100
AcDbEntity
  8
legende
  6
ByBlock
 62
  253
370
   -1
100
AcDbLine
 10
1260
 20
-1040
 11
1677.078663446055
 21
-1040
  0
MTEXT
  5
1C8
100
AcDbEntity
  8
legende
  6
CONTINUOUS
 62
    0
370
   -2
100
AcDbMText
 10
1468.539331723028
 20
-1032.1875
 30
0
 40
12.5
 41
23.61111111111111
 71
    5
 72
    1
  1
417
  7
standard
210
0
220
0
230
1
 50
0
 73
    2
 44
1
  0
SOLID
  5
1C9
100
AcDbEntity
  8
legende
  6
ByBlock
 62
  253
370
   -1
100
AcDbTrace
 10
1260
 20
-1040
 30
0
 11
1285
 21
-1035.837153422272
 31
0
 12
1285
 22
-1044.162846577728
 32
0
 13
1285
 23
-1044.162846577728
 33
0
  0
SOLID
  5
1CA
100
AcDbEntity
  8
legende
  6
ByBlock
 62
  253
370
   -1
100
AcDbTrace
 10
1677.078663446055
 20
-1040
 30
0
 11
1652.078663446055
 21
-1044.162846577728
 31
0
 12
1652.078663446055
 22
-1035.837153422272
 32
0
 13
1652.078663446055
 23
-1035.837153422272
 33
0
  0
LINE
  5
1CB
100
AcDbEntity
  8
legende
  6
ByBlock
 62
  253
370
   -2
100
AcDbLine
 10
1260
 20
-1041.5625
 11
1260
 21
-1043.125
  0
LINE
  5
1CC
100
AcDbEntity
  8
legende
  6
ByBlock
 62
  253
370
   -2
100
AcDbLine
 10
1677.078663446055
 20
-1016.5625
 11
1677.078663446055
 21
-1043.125
  0
ENDBLK
  5
99
330
97
100
AcDbEntity
  8
0
100
AcDbBlockEnd
  0
BLOCK
  5
9B
330
9A
100
AcDbEntity
  8
0
100
AcDbBlockBegin
  2
*D76
 70
    1
 10
0
 20
0
  3
*D76
  1

  0
LINE
  5
1CD
100
AcDbEntity
  8
legende
  6
ByBlock
 62
  253
370
   -1
100
AcDbLine
 10
1468.825544153583
 20
-1790
 11
1594.825566692899
 21
-1790
  0
MTEXT
  5
1CE
100
AcDbEntity
  8
legende
  6
CONTINUOUS
 62
    0
370
   -2
100
AcDbMText
 10
1531.825555423241
 20
-1782.1875
 30
0
 40
12.5
 41
22.222222222223
 71
    5
 72
    1
  1
126
  7
standard
210
0
220
0
230
1
 50
0
 73
    2
 44
1
  0
SOLID
  5
1CF
100
AcDbEntity
  8
legende
  6
ByBlock
 62
  253
370
   -1
100
AcDbTrace
 10
1468.825544153583
 20
-1790
 30
0
 11
1493.825544153583
 21
-1785.837153422272
 31
0
 12
1493.825544153583
 22
-1794.162846577728
 32
0
 13
1493.825544153583
 23
-1794.162846577728
 33
0
  0
SOLID
  5
1D0
100
AcDbEntity
  8
legende
  6
ByBlock
 62
  253
370
   -1
100
AcDbTrace
 10
1594.825566692899
 20
-1790
 30
0
 11
1569.825566692899
 21
-1794.162846577728
 31
0
 12
1569.825566692899
 22
-1785.837153422272
 32
0
 13
1569.825566692899
 23
-1785.837153422272
 33
0
  0
LINE
  5
1D1
100
AcDbEntity
  8
legende
  6
ByBlock
 62
  253
370
   -2
100
AcDbLine
 10
1468.825544153583
 20
-1803.438421801438
 11
1468.825544153583
 21
-1786.875
  0
LINE
  5
1D2
100
AcDbEntity
  8
legende
  6
ByBlock
 62
  253
370
   -2
100
AcDbLine
 10
1594.825566692899
 20
-1803.438858730553
 11
1594.825566692899
 21
-1786.875
  0
ENDBLK
  5
9C
330
9A
100
AcDbEntity
  8
0
100
AcDbBlockEnd
  0
BLOCK
  5
9E
330
9D
100
AcDbEntity
  8
0
100
AcDbBlockBegin
  2
*D29
 70
    1
 10
0
 20
0
  3
*D29
  1

  0
LINE
  5
1D3
100
AcDbEntity
  8
legende
  6
ByBlock
 62
  253
370
   -1
100
AcDbLine
 10
1200
 20
-1460
 11
1270
 21
-1460
  0
MTEXT
  5
1D4
100
AcDbEntity
  8
legende
  6
CONTINUOUS
 62
    0
370
   -2
100
AcDbMText
 10
1235
 20
-1452.1875
 30
0
 40
12.5
 41
15.27777777777778
 71
    5
 72
    1
  1
70
  7
standard
210
0
220
0
230
1
 50
0
 73
    2
 44
1
  0
SOLID
  5
1D5
100
AcDbEntity
  8
legende
  6
ByBlock
 62
  253
370
   -1
100
AcDbTrace
 10
1200
 20
-1460
 30
0
 11
1225
 21
-1455.837153422272
 31
0
 12
1225
 22
-1464.162846577728
 32
0
 13
1225
 23
-1464.162846577728
 33
0
  0
SOLID
  5
1D6
100
AcDbEntity
  8
legende
  6
ByBlock
 62
  253
370
   -1
100
AcDbTrace
 10
1270
 20
-1460
 30
0
 11
1245
 21
-1464.162846577728
 31
0
 12
1245
 22
-1455.837153422272
 32
0
 13
1245
 23
-1455.837153422272
 33
0
  0
LINE
  5
1D7
100
AcDbEntity
  8
legende
  6
ByBlock
 62
  253
370
   -2
100
AcDbLine
 10
1200
 20
-1426.5625
 11
1200
 21
-1463.125
  0
LINE
  5
1D8
100
AcDbEntity
  8
legende
  6
ByBlock
 62
  253
370
   -2
100
AcDbLine
 10
1270
 20
-1426.5625
 11
1270
 21
-1463.125
  0
ENDBLK
  5
9F
330
9D
100
AcDbEntity
  8
0
100
AcDbBlockEnd
  0
BLOCK
  5
A1
330
A0
100
AcDbEntity
  8
0
100
AcDbBlockBegin
  2
*D12
 70
    1
 10
0
 20
0
  3
*D12
  1

  0
LINE
  5
1D9
100
AcDbEntity
  8
legende
  6
ByBlock
 62
  253
370
   -1
100
AcDbLine
 10
-50
 20
-1070
 11
76.80191381493523
 21
-1070
  0
MTEXT
  5
1DA
100
AcDbEntity
  8
legende
  6
CONTINUOUS
 62
    0
370
   -2
100
AcDbMText
 10
13.40095690746761
 20
-1062.1875
 30
0
 40
12.5
 41
15.27777777777778
 71
    5
 72
    1
  1
27
  7
standard
210
0
220
0
230
1
 50
0
 73
    2
 44
1
  0
SOLID
  5
1DB
100
AcDbEntity
  8
legende
  6
ByBlock
 62
  253
370
   -1
100
AcDbTrace
 10
0
 20
-1070
 30
0
 11
-25
 21
-1074.162846577728
 31
0
 12
-25
 22
-1065.837153422272
 32
0
 13
-25
 23
-1065.837153422272
 33
0
  0
SOLID
  5
1DC
100
AcDbEntity
  8
legende
  6
ByBlock
 62
  253
370
   -1
100
AcDbTrace
 10
26.80191381493523
 20
-1070
 30
0
 11
51.80191381493523
 21
-1065.837153422272
 31
0
 12
51.80191381493523
 22
-1074.162846577728
 32
0
 13
51.80191381493523
 23
-1074.162846577728
 33
0
  0
LINE
  5
1DD
100
AcDbEntity
  8
legende
  6
ByBlock
 62
  253
370
   -2
100
AcDbLine
 10
-2.870265935501609e-16
 20
-1001.5625
 11
-5.740531871003218e-16
 21
-1073.125
  0
LINE
  5
1DE
100
AcDbEntity
  8
legende
  6
ByBlock
 62
  253
370
   -2
100
AcDbLine
 10
26.80191381493523
 20
-1031.5625
 11
26.80191381493523
 21
-1073.125
  0
ENDBLK
  5
A2
330
A0
100
AcDbEntity
  8
0
100
AcDbBlockEnd
  0
BLOCK
  5
A4
330
A3
100
AcDbEntity
  8
0
100
AcDbBlockBegin
  2
*D10
 70
    1
 10
0
 20
0
  3
*D10
  1

  0
LINE
  5
1DF
100
AcDbEntity
  8
legende
  6
ByBlock
 62
  253
370
   -2
100
AcDbLine
 10
946.135185185185
 20
-1031.5625
 11
946.135185185185
 21
-1053.125
  0
LINE
  5
1E0
100
AcDbEntity
  8
legende
  6
ByBlock
 62
  253
370
   -2
100
AcDbLine
 10
986.135185185185
 20
-1031.5625
 11
986.135185185185
 21
-1053.125
  0
LINE
  5
1E1
100
AcDbEntity
  8
legende
  6
ByBlock
 62
  253
370
   -1
100
AcDbLine
 10
896.135185185185
 20
-1050
 11
1036.135185185185
 21
-1050
  0
MTEXT
  5
1E2
100
AcDbEntity
  8
legende
  6
CONTINUOUS
 62
    0
370
   -2
100
AcDbMText
 10
966.135185185185
 20
-1042.1875
 30
0
 40
12.5
 41
16.66666666666666
 71
    5
 72
    1
  1
40
  7
standard
210
0
220
0
230
1
 50
0
 73
    2
 44
1
  0
SOLID
  5
1E3
100
AcDbEntity
  8
legende
  6
ByBlock
 62
  253
370
   -1
100
AcDbTrace
 10
946.135185185185
 20
-1050
 30
0
 11
921.135185185185
 21
-1054.162846577728
 31
0
 12
921.135185185185
 22
-1045.837153422272
 32
0
 13
921.135185185185
 23
-1045.837153422272
 33
0
  0
SOLID
  5
1E4
100
AcDbEntity
  8
legende
  6
ByBlock
 62
  253
370
   -1
100
AcDbTrace
 10
986.135185185185
 20
-1050
 30
0
 11
1011.135185185185
 21
-1045.837153422272
 31
0
 12
1011.135185185185
 22
-1054.162846577728
 32
0
 13
1011.135185185185
 23
-1054.162846577728
 33
0
  0
ENDBLK
  5
A5
330
A3
100
AcDbEntity
  8
0
100
AcDbBlockEnd
  0
BLOCK
  5
A7
330
A6
100
AcDbEntity
  8
0
100
AcDbBlockBegin
  2
*D77
 70
    1
 10
0
 20
0
  3
*D77
  1

  0
LINE
  5
1E5
100
AcDbEntity
  8
legende
  6
ByBlock
 62
  253
370
   -1
100
AcDbLine
 10
1544.825566692899
 20
-1790
 11
1689.838563399317
 21
-1790
  0
MTEXT
  5
1E6
100
AcDbEntity
  8
legende
  6
CONTINUOUS
 62
    0
370
   -2
100
AcDbMText
 10
1617.332065046108
 20
-1782.1875
 30
0
 40
12.5
 41
16.66666666666744
 71
    5
 72
    1
  1
45
  7
standard
210
0
220
0
230
1
 50
0
 73
    2
 44
1
  0
SOLID
  5
1E7
100
AcDbEntity
  8
legende
  6
ByBlock
 62
  253
370
   -1
100
AcDbTrace
 10
1594.825566692899
 20
-1790
 30
0
 11
1569.825566692899
 21
-1794.162846577728
 31
0
 12
1569.825566692899
 22
-1785.837153422272
 32
0
 13
1569.825566692899
 23
-1785.837153422272
 33
0
  0
SOLID
  5
1E8
100
AcDbEntity
  8
legende
  6
ByBlock
 62
  253
370
   -1
100
AcDbTrace
 10
1639.838563399317
 20
-1790
 30
0
 11
1664.838563399317
 21
-1785.837153422272
 31
0
 12
1664.838563399317
 22
-1794.162846577728
 32
0
 13
1664.838563399317
 23
-1794.162846577728
 33
0
  0
LINE
  5
1E9
100
AcDbEntity
  8
legende
  6
ByBlock
 62
  253
370
   -2
100
AcDbLine
 10
1594.825566692899
 20
-1803.438858730553
 11
1594.825566692899
 21
-1786.875
  0
LINE
  5
1EA
100
AcDbEntity
  8
legende
  6
ByBlock
 62
  253
370
   -2
100
AcDbLine
 10
1639.838563399317
 20
-1803.439025224858
 11
1639.838563399317
 21
-1786.875
  0
ENDBLK
  5
A8
330
A6
100
AcDbEntity
  8
0
100
AcDbBlockEnd
  0
BLOCK
  5
AA
330
A9
100
AcDbEntity
  8
0
100
AcDbBlockBegin
  2
*D65
 70
    1
 10
0
 20
0
  3
*D65
  1

  0
LINE
  5
1EB
100
AcDbEntity
  8
legende
  6
ByBlock
 62
  253
370
   -1
100
AcDbLine
 10
76.0655731541151
 20
-1350
 11
178.0655731541151
 21
-1350
  0
MTEXT
  5
1EC
100
AcDbEntity
  8
legende
  6
CONTINUOUS
 62
    0
370
   -2
100
AcDbMText
 10
127.0655731541151
 20
-1342.1875
 30
0
 40
12.5
 41
22.22222222222222
 71
    5
 72
    1
  1
102
  7
standard
210
0
220
0
230
1
 50
0
 73
    2
 44
1
  0
SOLID
  5
1ED
100
AcDbEntity
  8
legende
  6
ByBlock
 62
  253
370
   -1
100
AcDbTrace
 10
76.0655731541151
 20
-1350
 30
0
 11
101.0655731541151
 21
-1345.837153422272
 31
0
 12
101.0655731541151
 22
-1354.162846577728
 32
0
 13
101.0655731541151
 23
-1354.162846577728
 33
0
  0
SOLID
  5
1EE
100
AcDbEntity
  8
legende
  6
ByBlock
 62
  253
370
   -1
100
AcDbTrace
 10
178.0655731541151
 20
-1350
 30
0
 11
153.0655731541151
 21
-1354.162846577728
 31
0
 12
153.0655731541151
 22
-1345.837153422272
 32
0
 13
153.0655731541151
 23
-1345.837153422272
 33
0
  0
LINE
  5
1EF
100
AcDbEntity
  8
legende
  6
ByBlock
 62
  253
370
   -2
100
AcDbLine
 10
76.0655731541151
 20
-1331.562501609131
 11
76.0655731541151
 21
-1353.125
  0
LINE
  5
1F0
100
AcDbEntity
  8
legende
  6
ByBlock
 62
  253
370
   -2
100
AcDbLine
 10
178.0655731541151
 20
-1331.56250395167
 11
178.0655731541151
 21
-1353.125
  0
ENDBLK
  5
AB
330
A9
100
AcDbEntity
  8
0
100
AcDbBlockEnd
  0
BLOCK
  5
AD
330
AC
100
AcDbEntity
  8
0
100
AcDbBlockBegin
  2
*D6
 70
    1
 10
0
 20
0
  3
*D6
  1

  0
LINE
  5
1F1
100
AcDbEntity
  8
alu
  6
ByBlock
 62
  253
370
   -2
100
AcDbLine
 10
1141
 20
-158.4375
 11
1141
 21
-96.875
  0
LINE
  5
1F2
100
AcDbEntity
  8
alu
  6
ByBlock
 62
  253
370
   -2
100
AcDbLine
 10
1111
 20
-158.4375
 11
1111
 21
-96.875
  0
LINE
  5
1F3
100
AcDbEntity
  8
alu
  6
ByBlock
 62
  253
370
   -1
100
AcDbLine
 10
1191
 20
-100
 11
1061
 21
-100
  0
MTEXT
  5
1F4
100
AcDbEntity
  8
alu
  6
CONTINUOUS
 62
    0
370
   -2
100
AcDbMText
 10
1126
 20
-92.1875
 30
0
 40
12.5
 41
15.27777777777855
 71
    5
 72
    1
  1
30
  7
standard
210
0
220
0
230
1
 50
0
 73
    2
 44
1
  0
SOLID
  5
1F5
100
AcDbEntity
  8
alu
  6
ByBlock
 62
  253
370
   -1
100
AcDbTrace
 10
1141
 20
-100
 30
0
 11
1166
 21
-95.8371534222716
 31
0
 12
1166
 22
-104.1628465777284
 32
0
 13
1166
 23
-104.1628465777284
 33
0
  0
SOLID
  5
1F6
100
AcDbEntity
  8
alu
  6
ByBlock
 62
  253
370
   -1
100
AcDbTrace
 10
1111
 20
-100
 30
0
 11
1086
 21
-104.1628465777284
 31
0
 12
1086
 22
-95.8371534222716
 32
0
 13
1086
 23
-95.8371534222716
 33
0
  0
ENDBLK
  5
AE
330
AC
100
AcDbEntity
  8
0
100
AcDbBlockEnd
  0
BLOCK
  5
B0
330
AF
100
AcDbEntity
  8
0
100
AcDbBlockBegin
  2
*D31
 70
    1
 10
0
 20
0
  3
*D31
  1

  0
LINE
  5
1F7
100
AcDbEntity
  8
legende
  6
ByBlock
 62
  253
370
   -1
100
AcDbLine
 10
1276.065516981596
 20
-1860
 11
1378.065516980983
 21
-1860
  0
MTEXT
  5
1F8
100
AcDbEntity
  8
legende
  6
CONTINUOUS
 62
    0
370
   -2
100
AcDbMText
 10
1327.065516981289
 20
-1852.1875
 30
0
 40
12.5
 41
22.22222222222222
 71
    5
 72
    1
  1
102
  7
standard
210
0
220
0
230
1
 50
0
 73
    2
 44
1
  0
SOLID
  5
1F9
100
AcDbEntity
  8
legende
  6
ByBlock
 62
  253
370
   -1
100
AcDbTrace
 10
1276.065516981596
 20
-1860
 30
0
 11
1301.065516981596
 21
-1855.837153422272
 31
0
 12
1301.065516981596
 22
-1864.162846577728
 32
0
 13
1301.065516981596
 23
-1864.162846577728
 33
0
  0
SOLID
  5
1FA
100
AcDbEntity
  8
legende
  6
ByBlock
 62
  253
370
   -1
100
AcDbTrace
 10
1378.065516980983
 20
-1860
 30
0
 11
1353.065516980983
 21
-1864.162846577728
 31
0
 12
1353.065516980983
 22
-1855.837153422272
 32
0
 13
1353.065516980983
 23
-1855.837153422272
 33
0
  0
LINE
  5
1FB
100
AcDbEntity
  8
legende
  6
ByBlock
 62
  253
370
   -2
100
AcDbLine
 10
1276.065516981596
 20
-1817.562763771914
 11
1276.065516981596
 21
-1863.125
  0
LINE
  5
1FC
100
AcDbEntity
  8
legende
  6
ByBlock
 62
  253
370
   -2
100
AcDbLine
 10
1378.065516980983
 20
-1817.563117476542
 11
1378.065516980983
 21
-1863.125
  0
ENDBLK
  5
B1
330
AF
100
AcDbEntity
  8
0
100
AcDbBlockEnd
  0
BLOCK
  5
B3
330
B2
100
AcDbEntity
  8
0
100
AcDbBlockBegin
  2
*D25
 70
    1
 10
0
 20
0
  3
*D25
  1

  0
LINE
  5
1FD
100
AcDbEntity
  8
legende
  6
ByBlock
 62
  253
370
   -1
100
AcDbLine
 10
1150
 20
-1240
 11
1310
 21
-1240
  0
MTEXT
  5
1FE
100
AcDbEntity
  8
legende
  6
CONTINUOUS
 62
    0
370
   -2
100
AcDbMText
 10
1230
 20
-1232.1875
 30
0
 40
12.5
 41
15.27777777777855
 71
    5
 72
    1
  1
60
  7
standard
210
0
220
0
230
1
 50
0
 73
    2
 44
1
  0
SOLID
  5
1FF
100
AcDbEntity
  8
legende
  6
ByBlock
 62
  253
370
   -1
100
AcDbTrace
 10
1200
 20
-1240
 30
0
 11
1175
 21
-1244.162846577728
 31
0
 12
1175
 22
-1235.837153422272
 32
0
 13
1175
 23
-1235.837153422272
 33
0
  0
SOLID
  5
200
100
AcDbEntity
  8
legende
  6
ByBlock
 62
  253
370
   -1
100
AcDbTrace
 10
1260
 20
-1240
 30
0
 11
1285
 21
-1235.837153422272
 31
0
 12
1285
 22
-1244.162846577728
 32
0
 13
1285
 23
-1244.162846577728
 33
0
  0
LINE
  5
201
100
AcDbEntity
  8
legende
  6
ByBlock
 62
  253
370
   -2
100
AcDbLine
 10
1200
 20
-1221.5625
 11
1200
 21
-1243.125
  0
LINE
  5
202
100
AcDbEntity
  8
legende
  6
ByBlock
 62
  253
370
   -2
100
AcDbLine
 10
1260
 20
-1216.5625
 11
1260
 21
-1243.125
  0
ENDBLK
  5
B4
330
B2
100
AcDbEntity
  8
0
100
AcDbBlockEnd
  0
BLOCK
  5
B6
330
B5
100
AcDbEntity
  8
0
100
AcDbBlockBegin
  2
*D21
 70
    1
 10
0
 20
0
  3
*D21
  1

  0
LINE
  5
203
100
AcDbEntity
  8
legende
  6
ByBlock
 62
  253
370
   -1
100
AcDbLine
 10
1150
 20
-1140
 11
1310
 21
-1140
  0
MTEXT
  5
204
100
AcDbEntity
  8
legende
  6
CONTINUOUS
 62
    0
370
   -2
100
AcDbMText
 10
1230
 20
-1132.1875
 30
0
 40
12.5
 41
15.27777777777855
 71
    5
 72
    1
  1
60
  7
standard
210
0
220
0
230
1
 50
0
 73
    2
 44
1
  0
SOLID
  5
205
100
AcDbEntity
  8
legende
  6
ByBlock
 62
  253
370
   -1
100
AcDbTrace
 10
1200
 20
-1140
 30
0
 11
1175
 21
-1144.162846577728
 31
0
 12
1175
 22
-1135.837153422272
 32
0
 13
1175
 23
-1135.837153422272
 33
0
  0
SOLID
  5
206
100
AcDbEntity
  8
legende
  6
ByBlock
 62
  253
370
   -1
100
AcDbTrace
 10
1260
 20
-1140
 30
0
 11
1285
 21
-1135.837153422272
 31
0
 12
1285
 22
-1144.162846577728
 32
0
 13
1285
 23
-1144.162846577728
 33
0
  0
LINE
  5
207
100
AcDbEntity
  8
legende
  6
ByBlock
 62
  253
370
   -2
100
AcDbLine
 10
1200
 20
-1121.5625
 11
1200
 21
-1143.125
  0
LINE
  5
208
100
AcDbEntity
  8
legende
  6
ByBlock
 62
  253
370
   -2
100
AcDbLine
 10
1260
 20
-1116.5625
 11
1260
 21
-1143.125
  0
ENDBLK
  5
B7
330
B5
100
AcDbEntity
  8
0
100
AcDbBlockEnd
  0
BLOCK
  5
B9
330
B8
100
AcDbEntity
  8
0
100
AcDbBlockBegin
  2
*D4
 70
    1
 10
0
 20
0
  3
*D4
  1

  0
LINE
  5
209
100
AcDbEntity
  8
alu
  6
ByBlock
 62
  253
370
   -2
100
AcDbLine
 10
1150
 20
-158.4375
 11
1150
 21
-136.875
  0
LINE
  5
20A
100
AcDbEntity
  8
alu
  6
ByBlock
 62
  253
370
   -2
100
AcDbLine
 10
1144
 20
-158.4375
 11
1144
 21
-136.875
  0
LINE
  5
20B
100
AcDbEntity
  8
alu
  6
ByBlock
 62
  253
370
   -1
100
AcDbLine
 10
1200
 20
-140
 11
1094
 21
-140
  0
MTEXT
  5
20C
100
AcDbEntity
  8
alu
  6
CONTINUOUS
 62
    0
370
   -2
100
AcDbMText
 10
1147
 20
-132.1875
 30
0
 40
12.5
 41
5.555555555556331
 71
    5
 72
    1
  1
6
  7
standard
210
0
220
0
230
1
 50
0
 73
    2
 44
1
  0
SOLID
  5
20D
100
AcDbEntity
  8
alu
  6
ByBlock
 62
  253
370
   -1
100
AcDbTrace
 10
1150
 20
-140
 30
0
 11
1175
 21
-135.8371534222716
 31
0
 12
1175
 22
-144.1628465777284
 32
0
 13
1175
 23
-144.1628465777284
 33
0
  0
SOLID
  5
20E
100
AcDbEntity
  8
alu
  6
ByBlock
 62
  253
370
   -1
100
AcDbTrace
 10
1144
 20
-140
 30
0
 11
1119
 21
-144.1628465777284
 31
0
 12
1119
 22
-135.8371534222716
 32
0
 13
1119
 23
-135.8371534222716
 33
0
  0
ENDBLK
  5
BA
330
B8
100
AcDbEntity
  8
0
100
AcDbBlockEnd
  0
BLOCK
  5
BC
330
BB
100
AcDbEntity
  8
0
100
AcDbBlockBegin
  2
*D8
 70
    1
 10
0
 20
0
  3
*D8
  1

  0
LINE
  5
20F
100
AcDbEntity
  8
legende
  6
ByBlock
 62
  253
370
   -1
100
AcDbLine
 10
60
 20
-1050
 11
477.0786634460546
 21
-1050
  0
MTEXT
  5
210
100
AcDbEntity
  8
legende
  6
CONTINUOUS
 62
    0
370
   -2
100
AcDbMText
 10
268.5393317230273
 20
-1042.1875
 30
0
 40
12.5
 41
23.61111111111111
 71
    5
 72
    1
  1
417
  7
standard
210
0
220
0
230
1
 50
0
 73
    2
 44
1
  0
SOLID
  5
211
100
AcDbEntity
  8
legende
  6
ByBlock
 62
  253
370
   -1
100
AcDbTrace
 10
60
 20
-1050
 30
0
 11
85
 21
-1045.837153422272
 31
0
 12
85
 22
-1054.162846577728
 32
0
 13
85
 23
-1054.162846577728
 33
0
  0
SOLID
  5
212
100
AcDbEntity
  8
legende
  6
ByBlock
 62
  253
370
   -1
100
AcDbTrace
 10
477.0786634460546
 20
-1050
 30
0
 11
452.0786634460546
 21
-1054.162846577728
 31
0
 12
452.0786634460546
 22
-1045.837153422272
 32
0
 13
452.0786634460546
 23
-1045.837153422272
 33
0
  0
LINE
  5
213
100
AcDbEntity
  8
legende
  6
ByBlock
 62
  253
370
   -2
100
AcDbLine
 10
60
 20
-1031.5625
 11
60
 21
-1053.125
  0
LINE
  5
214
100
AcDbEntity
  8
legende
  6
ByBlock
 62
  253
370
   -2
100
AcDbLine
 10
477.0786634460546
 20
-1031.5625
 11
477.0786634460546
 21
-1053.125
  0
ENDBLK
  5
BD
330
BB
100
AcDbEntity
  8
0
100
AcDbBlockEnd
  0
BLOCK
  5
BF
330
BE
100
AcDbEntity
  8
0
100
AcDbBlockBegin
  2
*D37
 70
    1
 10
0
 20
0
  3
*D37
  1

  0
LINE
  5
215
100
AcDbEntity
  8
tube
  6
ByBlock
 62
  253
370
   -1
100
AcDbLine
 10
1860
 20
-1065
 11
1860
 21
-1170
  0
MTEXT
  5
216
100
AcDbEntity
  8
tube
  6
CONTINUOUS
 62
    0
370
   -2
100
AcDbMText
 10
1852.1875
 20
-1110.659722222222
 30
0
 40
12.5
 41
5.555555555556331
 71
    5
 72
    1
  1
5
  7
standard
210
0
220
0
230
1
 50
90
 73
    2
 44
1
  0
SOLID
  5
217
100
AcDbEntity
  8
tube
  6
ByBlock
 62
  253
370
   -1
100
AcDbTrace
 10
1860
 20
-1115
 30
0
 11
1855.837153422272
 21
-1090
 31
0
 12
1864.162846577728
 22
-1090
 32
0
 13
1864.162846577728
 23
-1090
 33
0
  0
SOLID
  5
218
100
AcDbEntity
  8
tube
  6
ByBlock
 62
  253
370
   -1
100
AcDbTrace
 10
1860
 20
-1120
 30
0
 11
1864.162846577728
 21
-1145
 31
0
 12
1855.837153422272
 22
-1145
 32
0
 13
1855.837153422272
 23
-1145
 33
0
  0
LINE
  5
219
100
AcDbEntity
  8
tube
  6
ByBlock
 62
  253
370
   -2
100
AcDbLine
 10
1261.5625
 20
-1115
 11
1863.125
 21
-1115
  0
LINE
  5
21A
100
AcDbEntity
  8
tube
  6
ByBlock
 62
  253
370
   -2
100
AcDbLine
 10
1261.5625
 20
-1120
 11
1863.125
 21
-1120
  0
ENDBLK
  5
C0
330
BE
100
AcDbEntity
  8
0
100
AcDbBlockEnd
  0
BLOCK
  5
C2
330
C1
100
AcDbEntity
  8
0
100
AcDbBlockBegin
  2
*D53
 70
    1
 10
0
 20
0
  3
*D53
  1

  0
LINE
  5
21B
100
AcDbEntity
  8
legende
  6
ByBlock
 62
  253
370
   -1
100
AcDbLine
 10
768.9485677233904
 20
-1650
 11
856.2093332573104
 21
-1650
  0
MTEXT
  5
21C
100
AcDbEntity
  8
legende
  6
CONTINUOUS
 62
    0
370
   -2
100
AcDbMText
 10
812.5789504903504
 20
-1642.1875
 30
0
 40
12.5
 41
15.27777777777778
 71
    5
 72
    1
  1
87
  7
standard
210
0
220
0
230
1
 50
0
 73
    2
 44
1
  0
SOLID
  5
21D
100
AcDbEntity
  8
legende
  6
ByBlock
 62
  253
370
   -1
100
AcDbTrace
 10
768.9485677233904
 20
-1650
 30
0
 11
793.9485677233904
 21
-1645.837153422272
 31
0
 12
793.9485677233904
 22
-1654.162846577728
 32
0
 13
793.9485677233904
 23
-1654.162846577728
 33
0
  0
SOLID
  5
21E
100
AcDbEntity
  8
legende
  6
ByBlock
 62
  253
370
   -1
100
AcDbTrace
 10
856.2093332573104
 20
-1650
 30
0
 11
831.2093332573104
 21
-1654.162846577728
 31
0
 12
831.2093332573104
 22
-1645.837153422272
 32
0
 13
831.2093332573104
 23
-1645.837153422272
 33
0
  0
LINE
  5
21F
100
AcDbEntity
  8
legende
  6
ByBlock
 62
  253
370
   -2
100
AcDbLine
 10
768.9485677233904
 20
-1601.56516647713
 11
768.9485677233904
 21
-1653.125
  0
LINE
  5
220
100
AcDbEntity
  8
legende
  6
ByBlock
 62
  253
370
   -2
100
AcDbLine
 10
856.2093332573104
 20
-1631.565469070807
 11
856.2093332573104
 21
-1653.125
  0
ENDBLK
  5
C3
330
C1
100
AcDbEntity
  8
0
100
AcDbBlockEnd
  0
BLOCK
  5
C5
330
C4
100
AcDbEntity
  8
0
100
AcDbBlockBegin
  2
*D7
 70
    1
 10
0
 20
0
  3
*D7
  1

  0
LINE
  5
221
100
AcDbEntity
  8
legende
  6
ByBlock
 62
  253
370
   -1
100
AcDbLine
 10
-50
 20
-1050
 11
110
 21
-1050
  0
MTEXT
  5
222
100
AcDbEntity
  8
legende
  6
CONTINUOUS
 62
    0
370
   -2
100
AcDbMText
 10
30
 20
-1042.1875
 30
0
 40
12.5
 41
15.27777777777855
 71
    5
 72
    1
  1
60
  7
standard
210
0
220
0
230
1
 50
0
 73
    2
 44
1
  0
SOLID
  5
223
100
AcDbEntity
  8
legende
  6
ByBlock
 62
  253
370
   -1
100
AcDbTrace
 10
0
 20
-1050
 30
0
 11
-25
 21
-1054.162846577728
 31
0
 12
-25
 22
-1045.837153422272
 32
0
 13
-25
 23
-1045.837153422272
 33
0
  0
SOLID
  5
224
100
AcDbEntity
  8
legende
  6
ByBlock
 62
  253
370
   -1
100
AcDbTrace
 10
60
 20
-1050
 30
0
 11
85
 21
-1045.837153422272
 31
0
 12
85
 22
-1054.162846577728
 32
0
 13
85
 23
-1054.162846577728
 33
0
  0
LINE
  5
225
100
AcDbEntity
  8
legende
  6
ByBlock
 62
  253
370
   -2
100
AcDbLine
 10
-2.870265935501609e-16
 20
-1031.5625
 11
-5.740531871003218e-16
 21
-1053.125
  0
LINE
  5
226
100
AcDbEntity
  8
legende
  6
ByBlock
 62
  253
370
   -2
100
AcDbLine
 10
60
 20
-1031.5625
 11
60
 21
-1053.125
  0
ENDBLK
  5
C6
330
C4
100
AcDbEntity
  8
0
100
AcDbBlockEnd
  0
BLOCK
  5
C8
330
C7
100
AcDbEntity
  8
0
100
AcDbBlockBegin
  2
*D64
 70
    1
 10
0
 20
0
  3
*D64
  1

  0
LINE
  5
227
100
AcDbEntity
  8
legende
  6
ByBlock
 62
  253
370
   -1
100
AcDbLine
 10
0
 20
-1350
 11
76.0655731541151
 21
-1350
  0
MTEXT
  5
228
100
AcDbEntity
  8
legende
  6
CONTINUOUS
 62
    0
370
   -2
100
AcDbMText
 10
38.03278657705755
 20
-1342.1875
 30
0
 40
12.5
 41
15.27777777777855
 71
    5
 72
    1
  1
76
  7
standard
210
0
220
0
230
1
 50
0
 73
    2
 44
1
  0
SOLID
  5
229
100
AcDbEntity
  8
legende
  6
ByBlock
 62
  253
370
   -1
100
AcDbTrace
 10
0
 20
-1350
 30
0
 11
25
 21
-1345.837153422272
 31
0
 12
25
 22
-1354.162846577728
 32
0
 13
25
 23
-1354.162846577728
 33
0
  0
SOLID
  5
22A
100
AcDbEntity
  8
legende
  6
ByBlock
 62
  253
370
   -1
100
AcDbTrace
 10
76.0655731541151
 20
-1350
 30
0
 11
51.0655731541151
 21
-1354.162846577728
 31
0
 12
51.0655731541151
 22
-1345.837153422272
 32
0
 13
51.0655731541151
 23
-1345.837153422272
 33
0
  0
LINE
  5
22B
100
AcDbEntity
  8
legende
  6
ByBlock
 62
  253
370
   -2
100
AcDbLine
 10
-2.870265935501609e-16
 20
-1331.5625
 11
-5.740531871003218e-16
 21
-1353.125
  0
LINE
  5
22C
100
AcDbEntity
  8
legende
  6
ByBlock
 62
  253
370
   -2
100
AcDbLine
 10
76.0655731541151
 20
-1331.562501609131
 11
76.0655731541151
 21
-1353.125
  0
ENDBLK
  5
C9
330
C7
100
AcDbEntity
  8
0
100
AcDbBlockEnd
  0
BLOCK
  5
CB
330
CA
100
AcDbEntity
  8
0
100
AcDbBlockBegin
  2
*D52
 70
    1
 10
0
 20
0
  3
*D52
  1

  0
LINE
  5
22D
100
AcDbEntity
  8
legende
  6
ByBlock
 62
  253
370
   -1
100
AcDbLine
 10
1.13686837721616e-13
 20
-1670
 11
856.2093332573104
 21
-1670
  0
MTEXT
  5
22E
100
AcDbEntity
  8
legende
  6
CONTINUOUS
 62
    0
370
   -2
100
AcDbMText
 10
428.1046666286553
 20
-1662.1875
 30
0
 40
12.5
 41
25.00000000000155
 71
    5
 72
    1
  1
856
  7
standard
210
0
220
0
230
1
 50
0
 73
    2
 44
1
  0
SOLID
  5
22F
100
AcDbEntity
  8
legende
  6
ByBlock
 62
  253
370
   -1
100
AcDbTrace
 10
1.13686837721616e-13
 20
-1670
 30
0
 11
25.00000000000011
 21
-1665.837153422272
 31
0
 12
25.00000000000011
 22
-1674.162846577728
 32
0
 13
25.00000000000011
 23
-1674.162846577728
 33
0
  0
SOLID
  5
230
100
AcDbEntity
  8
legende
  6
ByBlock
 62
  253
370
   -1
100
AcDbTrace
 10
856.2093332573104
 20
-1670
 30
0
 11
831.2093332573104
 21
-1674.162846577728
 31
0
 12
831.2093332573104
 22
-1665.837153422272
 32
0
 13
831.2093332573104
 23
-1665.837153422272
 33
0
  0
LINE
  5
231
100
AcDbEntity
  8
legende
  6
ByBlock
 62
  253
370
   -2
100
AcDbLine
 10
2.48853096801273e-15
 20
-1601.5625
 11
1.186638996576415e-13
 21
-1673.125
  0
LINE
  5
232
100
AcDbEntity
  8
legende
  6
ByBlock
 62
  253
370
   -2
100
AcDbLine
 10
856.2093332573104
 20
-1631.565469070807
 11
856.2093332573104
 21
-1673.125
  0
ENDBLK
  5
CC
330
CA
100
AcDbEntity
  8
0
100
AcDbBlockEnd
  0
BLOCK
  5
CE
330
CD
100
AcDbEntity
  8
0
100
AcDbBlockBegin
  2
*D70
 70
    1
 10
0
 20
0
  3
*D70
  1

  0
LINE
  5
233
100
AcDbEntity
  8
legende
  6
ByBlock
 62
  253
370
   -1
100
AcDbLine
 10
74.0655731541151
 20
-1370
 11
-50
 21
-1370
  0
MTEXT
  5
234
100
AcDbEntity
  8
legende
  6
CONTINUOUS
 62
    0
370
   -2
100
AcDbMText
 10
12.03278657705755
 20
-1362.1875
 30
0
 40
12.5
 41
16.66666666666666
 71
    5
 72
    1
  1
24
  7
standard
210
0
220
0
230
1
 50
0
 73
    2
 44
1
  0
SOLID
  5
235
100
AcDbEntity
  8
legende
  6
ByBlock
 62
  253
370
   -1
100
AcDbTrace
 10
24.0655731541151
 20
-1370
 30
0
 11
49.0655731541151
 21
-1365.837153422272
 31
0
 12
49.0655731541151
 22
-1374.162846577728
 32
0
 13
49.0655731541151
 23
-1374.162846577728
 33
0
  0
SOLID
  5
236
100
AcDbEntity
  8
legende
  6
ByBlock
 62
  253
370
   -1
100
AcDbTrace
 10
0
 20
-1370
 30
0
 11
-25
 21
-1374.162846577728
 31
0
 12
-25
 22
-1365.837153422272
 32
0
 13
-25
 23
-1365.837153422272
 33
0
  0
LINE
  5
237
100
AcDbEntity
  8
legende
  6
ByBlock
 62
  253
370
   -2
100
AcDbLine
 10
24.0655731541151
 20
-1301.562500552692
 11
24.0655731541151
 21
-1373.125
  0
LINE
  5
238
100
AcDbEntity
  8
legende
  6
ByBlock
 62
  253
370
   -2
100
AcDbLine
 10
-2.870265935501609e-16
 20
-1331.5625
 11
-5.740531871003218e-16
 21
-1373.125
  0
ENDBLK
  5
CF
330
CD
100
AcDbEntity
  8
0
100
AcDbBlockEnd
  0
BLOCK
  5
D1
330
D0
100
AcDbEntity
  8
0
100
AcDbBlockBegin
  2
*D45
 70
    1
 10
0
 20
0
  3
*D45
  1

  0
LINE
  5
239
100
AcDbEntity
  8
legende
  6
ByBlock
 62
  253
370
   -1
100
AcDbLine
 10
589.0565217391304
 20
-1280
 11
0
 21
-1280
  0
MTEXT
  5
23A
100
AcDbEntity
  8
legende
  6
CONTINUOUS
 62
    0
370
   -2
100
AcDbMText
 10
294.5282608695652
 20
-1272.1875
 30
0
 40
12.5
 41
25.00000000000077
 71
    5
 72
    1
  1
589
  7
standard
210
0
220
0
230
1
 50
0
 73
    2
 44
1
  0
SOLID
  5
23B
100
AcDbEntity
  8
legende
  6
ByBlock
 62
  253
370
   -1
100
AcDbTrace
 10
589.0565217391304
 20
-1280
 30
0
 11
564.0565217391304
 21
-1284.162846577728
 31
0
 12
564.0565217391304
 22
-1275.837153422272
 32
0
 13
564.0565217391304
 23
-1275.837153422272
 33
0
  0
SOLID
  5
23C
100
AcDbEntity
  8
legende
  6
ByBlock
 62
  253
370
   -1
100
AcDbTrace
 10
0
 20
-1280
 30
0
 11
25
 21
-1275.837153422272
 31
0
 12
25
 22
-1284.162846577728
 32
0
 13
25
 23
-1284.162846577728
 33
0
  0
LINE
  5
23D
100
AcDbEntity
  8
legende
  6
ByBlock
 62
  253
370
   -2
100
AcDbLine
 10
589.0565217391304
 20
-1231.5625
 11
589.0565217391304
 21
-1283.125
  0
LINE
  5
23E
100
AcDbEntity
  8
legende
  6
ByBlock
 62
  253
370
   -2
100
AcDbLine
 10
-2.870265935501609e-16
 20
-1201.5625
 11
-5.740531871003218e-16
 21
-1283.125
  0
ENDBLK
  5
D2
330
D0
100
AcDbEntity
  8
0
100
AcDbBlockEnd
  0
BLOCK
  5
D4
330
D3
100
AcDbEntity
  8
0
100
AcDbBlockBegin
  2
*D74
 70
    1
 10
0
 20
0
  3
*D74
  1

  0
LINE
  5
23F
100
AcDbEntity
  8
legende
  6
ByBlock
 62
  253
370
   -1
100
AcDbLine
 10
1264.065494441667
 20
-1790
 11
1199.999982661538
 21
-1790
  0
MTEXT
  5
240
100
AcDbEntity
  8
legende
  6
CONTINUOUS
 62
    0
370
   -2
100
AcDbMText
 10
1232.032738551603
 20
-1782.1875
 30
0
 40
12.5
 41
16.66666666666744
 71
    5
 72
    1
  1
64
  7
standard
210
0
220
0
230
1
 50
0
 73
    2
 44
1
  0
SOLID
  5
241
100
AcDbEntity
  8
legende
  6
ByBlock
 62
  253
370
   -1
100
AcDbTrace
 10
1264.065494441667
 20
-1790
 30
0
 11
1239.065494441667
 21
-1794.162846577728
 31
0
 12
1239.065494441667
 22
-1785.837153422272
 32
0
 13
1239.065494441667
 23
-1785.837153422272
 33
0
  0
SOLID
  5
242
100
AcDbEntity
  8
legende
  6
ByBlock
 62
  253
370
   -1
100
AcDbTrace
 10
1199.999982661538
 20
-1790
 30
0
 11
1224.999982661538
 21
-1785.837153422272
 31
0
 12
1224.999982661538
 22
-1794.162846577728
 32
0
 13
1224.999982661538
 23
-1794.162846577728
 33
0
  0
LINE
  5
243
100
AcDbEntity
  8
legende
  6
ByBlock
 62
  253
370
   -2
100
AcDbLine
 10
1264.065494441667
 20
-1803.437711756563
 11
1264.065494441667
 21
-1786.875
  0
LINE
  5
244
100
AcDbEntity
  8
legende
  6
ByBlock
 62
  253
370
   -2
100
AcDbLine
 10
1199.999982661538
 20
-1803.43749999994
 11
1199.999982661538
 21
-1786.875
  0
ENDBLK
  5
D5
330
D3
100
AcDbEntity
  8
0
100
AcDbBlockEnd
  0
BLOCK
  5
D7
330
D6
100
AcDbEntity
  8
0
100
AcDbBlockBegin
  2
*D23
 70
    1
 10
0
 20
0
  3
*D23
  1

  0
LINE
  5
245
100
AcDbEntity
  8
legende
  6
ByBlock
 62
  253
370
   -1
100
AcDbLine
 10
1659.05652173913
 20
-1140
 11
1819.05652173913
 21
-1140
  0
MTEXT
  5
246
100
AcDbEntity
  8
legende
  6
CONTINUOUS
 62
    0
370
   -2
100
AcDbMText
 10
1739.05652173913
 20
-1132.1875
 30
0
 40
12.5
 41
15.27777777777855
 71
    5
 72
    1
  1
60
  7
standard
210
0
220
0
230
1
 50
0
 73
    2
 44
1
  0
SOLID
  5
247
100
AcDbEntity
  8
legende
  6
ByBlock
 62
  253
370
   -1
100
AcDbTrace
 10
1709.05652173913
 20
-1140
 30
0
 11
1684.05652173913
 21
-1144.162846577728
 31
0
 12
1684.05652173913
 22
-1135.837153422272
 32
0
 13
1684.05652173913
 23
-1135.837153422272
 33
0
  0
SOLID
  5
248
100
AcDbEntity
  8
legende
  6
ByBlock
 62
  253
370
   -1
100
AcDbTrace
 10
1769.05652173913
 20
-1140
 30
0
 11
1794.05652173913
 21
-1135.837153422272
 31
0
 12
1794.05652173913
 22
-1144.162846577728
 32
0
 13
1794.05652173913
 23
-1144.162846577728
 33
0
  0
LINE
  5
249
100
AcDbEntity
  8
legende
  6
ByBlock
 62
  253
370
   -2
100
AcDbLine
 10
1709.05652173913
 20
-1116.5625
 11
1709.05652173913
 21
-1143.125
  0
LINE
  5
24A
100
AcDbEntity
  8
legende
  6
ByBlock
 62
  253
370
   -2
100
AcDbLine
 10
1769.05652173913
 20
-1121.5625
 11
1769.05652173913
 21
-1143.125
  0
ENDBLK
  5
D8
330
D6
100
AcDbEntity
  8
0
100
AcDbBlockEnd
  0
BLOCK
  5
DA
330
D9
100
AcDbEntity
  8
0
100
AcDbBlockBegin
  2
*D22
 70
    1
 10
0
 20
0
  3
*D22
  1

  0
LINE
  5
24B
100
AcDbEntity
  8
legende
  6
ByBlock
 62
  253
370
   -1
100
AcDbLine
 10
1260
 20
-1140
 11
1709.05652173913
 21
-1140
  0
MTEXT
  5
24C
100
AcDbEntity
  8
legende
  6
CONTINUOUS
 62
    0
370
   -2
100
AcDbMText
 10
1484.528260869565
 20
-1132.1875
 30
0
 40
12.5
 41
27.77777777777778
 71
    5
 72
    1
  1
449
  7
standard
210
0
220
0
230
1
 50
0
 73
    2
 44
1
  0
SOLID
  5
24D
100
AcDbEntity
  8
legende
  6
ByBlock
 62
  253
370
   -1
100
AcDbTrace
 10
1260
 20
-1140
 30
0
 11
1285
 21
-1135.837153422272
 31
0
 12
1285
 22
-1144.162846577728
 32
0
 13
1285
 23
-1144.162846577728
 33
0
  0
SOLID
  5
24E
100
AcDbEntity
  8
legende
  6
ByBlock
 62
  253
370
   -1
100
AcDbTrace
 10
1709.05652173913
 20
-1140
 30
0
 11
1684.05652173913
 21
-1144.162846577728
 31
0
 12
1684.05652173913
 22
-1135.837153422272
 32
0
 13
1684.05652173913
 23
-1135.837153422272
 33
0
  0
LINE
  5
24F
100
AcDbEntity
  8
legende
  6
ByBlock
 62
  253
370
   -2
100
AcDbLine
 10
1260
 20
-1116.5625
 11
1260
 21
-1143.125
  0
LINE
  5
250
100
AcDbEntity
  8
legende
  6
ByBlock
 62
  253
370
   -2
100
AcDbLine
 10
1709.05652173913
 20
-1116.5625
 11
1709.05652173913
 21
-1143.125
  0
ENDBLK
  5
DB
330
D9
100
AcDbEntity
  8
0
100
AcDbBlockEnd
  0
BLOCK
  5
DD
330
DC
100
AcDbEntity
  8
0
100
AcDbBlockBegin
  2
*D39
 70
    1
 10
0
 20
0
  3
*D39
  1

  0
LINE
  5
251
100
AcDbEntity
  8
legende
  6
ByBlock
 62
  253
370
   -1
100
AcDbLine
 10
-50
 20
-1150
 11
110
 21
-1150
  0
MTEXT
  5
252
100
AcDbEntity
  8
legende
  6
CONTINUOUS
 62
    0
370
   -2
100
AcDbMText
 10
30
 20
-1142.1875
 30
0
 40
12.5
 41
15.27777777777855
 71
    5
 72
    1
  1
60
  7
standard
210
0
220
0
230
1
 50
0
 73
    2
 44
1
  0
SOLID
  5
253
100
AcDbEntity
  8
legende
  6
ByBlock
 62
  253
370
   -1
100
AcDbTrace
 10
0
 20
-1150
 30
0
 11
-25
 21
-1154.162846577728
 31
0
 12
-25
 22
-1145.837153422272
 32
0
 13
-25
 23
-1145.837153422272
 33
0
  0
SOLID
  5
254
100
AcDbEntity
  8
legende
  6
ByBlock
 62
  253
370
   -1
100
AcDbTrace
 10
60
 20
-1150
 30
0
 11
85
 21
-1145.837153422272
 31
0
 12
85
 22
-1154.162846577728
 32
0
 13
85
 23
-1154.162846577728
 33
0
  0
LINE
  5
255
100
AcDbEntity
  8
legende
  6
ByBlock
 62
  253
370
   -2
100
AcDbLine
 10
-2.870265935501609e-16
 20
-1131.5625
 11
-5.740531871003218e-16
 21
-1153.125
  0
LINE
  5
256
100
AcDbEntity
  8
legende
  6
ByBlock
 62
  253
370
   -2
100
AcDbLine
 10
60
 20
-1131.5625
 11
60
 21
-1153.125
  0
ENDBLK
  5
DE
330
DC
100
AcDbEntity
  8
0
100
AcDbBlockEnd
  0
BLOCK
  5
E0
330
DF
100
AcDbEntity
  8
0
100
AcDbBlockBegin
  2
*D56
 70
    1
 10
0
 20
0
  3
*D56
  1

  0
LINE
  5
257
100
AcDbEntity
  8
legende
  6
ByBlock
 62
  253
370
   -1
100
AcDbLine
 10
0
 20
-1770
 11
273.0514031501927
 21
-1770
  0
MTEXT
  5
258
100
AcDbEntity
  8
legende
  6
CONTINUOUS
 62
    0
370
   -2
100
AcDbMText
 10
136.5257015750963
 20
-1762.1875
 30
0
 40
12.5
 41
25.00000000000077
 71
    5
 72
    1
  1
273
  7
standard
210
0
220
0
230
1
 50
0
 73
    2
 44
1
  0
SOLID
  5
259
100
AcDbEntity
  8
legende
  6
ByBlock
 62
  253
370
   -1
100
AcDbTrace
 10
0
 20
-1770
 30
0
 11
25
 21
-1765.837153422272
 31
0
 12
25
 22
-1774.162846577728
 32
0
 13
25
 23
-1774.162846577728
 33
0
  0
SOLID
  5
25A
100
AcDbEntity
  8
legende
  6
ByBlock
 62
  253
370
   -1
100
AcDbTrace
 10
273.0514031501927
 20
-1770
 30
0
 11
248.0514031501927
 21
-1774.162846577728
 31
0
 12
248.0514031501927
 22
-1765.837153422272
 32
0
 13
248.0514031501927
 23
-1765.837153422272
 33
0
  0
LINE
  5
25B
100
AcDbEntity
  8
legende
  6
ByBlock
 62
  253
370
   -2
100
AcDbLine
 10
-2.870265935501609e-16
 20
-1731.5625
 11
-5.740531871003218e-16
 21
-1773.125
  0
LINE
  5
25C
100
AcDbEntity
  8
legende
  6
ByBlock
 62
  253
370
   -2
100
AcDbLine
 10
273.0514031501927
 20
-1701.562506270918
 11
273.0514031501927
 21
-1773.125
  0
ENDBLK
  5
E1
330
DF
100
AcDbEntity
  8
0
100
AcDbBlockEnd
  0
BLOCK
  5
E3
330
E2
100
AcDbEntity
  8
0
100
AcDbBlockBegin
  2
*D15
 70
    1
 10
0
 20
0
  3
*D15
  1

  0
LINE
  5
25D
100
AcDbEntity
  8
legende
  6
ByBlock
 62
  253
370
   -1
100
AcDbLine
 10
1150
 20
-1040
 11
1310
 21
-1040
  0
MTEXT
  5
25E
100
AcDbEntity
  8
legende
  6
CONTINUOUS
 62
    0
370
   -2
100
AcDbMText
 10
1230
 20
-1032.1875
 30
0
 40
12.5
 41
15.27777777777855
 71
    5
 72
    1
  1
60
  7
standard
210
0
220
0
230
1
 50
0
 73
    2
 44
1
  0
SOLID
  5
25F
100
AcDbEntity
  8
legende
  6
ByBlock
 62
  253
370
   -1
100
AcDbTrace
 10
1200
 20
-1040
 30
0
 11
1175
 21
-1044.162846577728
 31
0
 12
1175
 22
-1035.837153422272
 32
0
 13
1175
 23
-1035.837153422272
 33
0
  0
SOLID
  5
260
100
AcDbEntity
  8
legende
  6
ByBlock
 62
  253
370
   -1
100
AcDbTrace
 10
1260
 20
-1040
 30
0
 11
1285
 21
-1035.837153422272
 31
0
 12
1285
 22
-1044.162846577728
 32
0
 13
1285
 23
-1044.162846577728
 33
0
  0
LINE
  5
261
100
AcDbEntity
  8
legende
  6
ByBlock
 62
  253
370
   -2
100
AcDbLine
 10
1200
 20
-1021.5625
 11
1200
 21
-1043.125
  0
LINE
  5
262
100
AcDbEntity
  8
legende
  6
ByBlock
 62
  253
370
   -2
100
AcDbLine
 10
1260
 20
-1016.5625
 11
1260
 21
-1043.125
  0
ENDBLK
  5
E4
330
E2
100
AcDbEntity
  8
0
100
AcDbBlockEnd
  0
BLOCK
  5
E6
330
E5
100
AcDbEntity
  8
0
100
AcDbBlockBegin
  2
*D80
 70
    1
 10
0
 20
0
  3
*D80
  1

  0
LINE
  5
263
100
AcDbEntity
  8
legende
  6
ByBlock
 62
  253
370
   -1
100
AcDbLine
 10
64.0655731541151
 20
-1450
 11
190
 21
-1450
  0
MTEXT
  5
264
100
AcDbEntity
  8
legende
  6
CONTINUOUS
 62
    0
370
   -2
100
AcDbMText
 10
127.0327865770575
 20
-1442.1875
 30
0
 40
12.5
 41
22.222222222223
 71
    5
 72
    1
  1
126
  7
standard
210
0
220
0
230
1
 50
0
 73
    2
 44
1
  0
SOLID
  5
265
100
AcDbEntity
  8
legende
  6
ByBlock
 62
  253
370
   -1
100
AcDbTrace
 10
64.0655731541151
 20
-1450
 30
0
 11
89.0655731541151
 21
-1445.837153422272
 31
0
 12
89.0655731541151
 22
-1454.162846577728
 32
0
 13
89.0655731541151
 23
-1454.162846577728
 33
0
  0
SOLID
  5
266
100
AcDbEntity
  8
legende
  6
ByBlock
 62
  253
370
   -1
100
AcDbTrace
 10
190
 20
-1450
 30
0
 11
165
 21
-1454.162846577728
 31
0
 12
165
 22
-1445.837153422272
 32
0
 13
165
 23
-1445.837153422272
 33
0
  0
LINE
  5
267
100
AcDbEntity
  8
legende
  6
ByBlock
 62
  253
370
   -2
100
AcDbLine
 10
64.0655731541151
 20
-1431.562501609131
 11
64.0655731541151
 21
-1453.125
  0
LINE
  5
268
100
AcDbEntity
  8
legende
  6
ByBlock
 62
  253
370
   -2
100
AcDbLine
 10
190
 20
-1431.5625
 11
190
 21
-1453.125
  0
ENDBLK
  5
E7
330
E5
100
AcDbEntity
  8
0
100
AcDbBlockEnd
  0
BLOCK
  5
E9
330
E8
100
AcDbEntity
  8
0
100
AcDbBlockBegin
  2
*D61
 70
    1
 10
0
 20
0
  3
*D61
  1

  0
LINE
  5
269
100
AcDbEntity
  8
legende
  6
ByBlock
 62
  253
370
   -1
100
AcDbLine
 10
178.1046666301587
 20
-1650
 11
428.1046666286554
 21
-1650
  0
MTEXT
  5
26A
100
AcDbEntity
  8
legende
  6
CONTINUOUS
 62
    0
370
   -2
100
AcDbMText
 10
303.1046666294071
 20
-1642.1875
 30
0
 40
12.5
 41
25.00000000000077
 71
    5
 72
    1
  1
250
  7
standard
210
0
220
0
230
1
 50
0
 73
    2
 44
1
  0
SOLID
  5
26B
100
AcDbEntity
  8
legende
  6
ByBlock
 62
  253
370
   -1
100
AcDbTrace
 10
178.1046666301587
 20
-1650
 30
0
 11
203.1046666301587
 21
-1645.837153422272
 31
0
 12
203.1046666301587
 22
-1654.162846577728
 32
0
 13
203.1046666301587
 23
-1654.162846577728
 33
0
  0
SOLID
  5
26C
100
AcDbEntity
  8
legende
  6
ByBlock
 62
  253
370
   -1
100
AcDbTrace
 10
428.1046666286554
 20
-1650
 30
0
 11
403.1046666286554
 21
-1654.162846577728
 31
0
 12
403.1046666286554
 22
-1645.837153422272
 32
0
 13
403.1046666286554
 23
-1645.837153422272
 33
0
  0
LINE
  5
26D
100
AcDbEntity
  8
legende
  6
ByBlock
 62
  253
370
   -2
100
AcDbLine
 10
178.1046666301587
 20
-1616.563117612295
 11
178.1046666301587
 21
-1653.125
  0
LINE
  5
26E
100
AcDbEntity
  8
legende
  6
ByBlock
 62
  253
370
   -2
100
AcDbLine
 10
428.1046666286554
 20
-1616.563984535403
 11
428.1046666286554
 21
-1653.125
  0
ENDBLK
  5
EA
330
E8
100
AcDbEntity
  8
0
100
AcDbBlockEnd
  0
BLOCK
  5
EC
330
EB
100
AcDbEntity
  8
0
100
AcDbBlockBegin
  2
*D49
 70
    1
 10
0
 20
0
  3
*D49
  1

  0
LINE
  5
26F
100
AcDbEntity
  8
legende
  6
ByBlock
 62
  253
370
   -1
100
AcDbLine
 10
93.99665666748569
 20
-1550
 11
218.0621350504612
 21
-1550
  0
MTEXT
  5
270
100
AcDbEntity
  8
legende
  6
CONTINUOUS
 62
    0
370
   -2
100
AcDbMText
 10
156.0293958589734
 20
-1542.1875
 30
0
 40
12.5
 41
16.66666666666666
 71
    5
 72
    1
  1
24
  7
standard
210
0
220
0
230
1
 50
0
 73
    2
 44
1
  0
SOLID
  5
271
100
AcDbEntity
  8
legende
  6
ByBlock
 62
  253
370
   -1
100
AcDbTrace
 10
143.9966566674857
 20
-1550
 30
0
 11
118.9966566674857
 21
-1554.162846577728
 31
0
 12
118.9966566674857
 22
-1545.837153422272
 32
0
 13
118.9966566674857
 23
-1545.837153422272
 33
0
  0
SOLID
  5
272
100
AcDbEntity
  8
legende
  6
ByBlock
 62
  253
370
   -1
100
AcDbTrace
 10
168.0621350504612
 20
-1550
 30
0
 11
193.0621350504612
 21
-1545.837153422272
 31
0
 12
193.0621350504612
 22
-1554.162846577728
 32
0
 13
193.0621350504612
 23
-1554.162846577728
 33
0
  0
LINE
  5
273
100
AcDbEntity
  8
legende
  6
ByBlock
 62
  253
370
   -2
100
AcDbLine
 10
143.9966566674857
 20
-1501.562951583155
 11
143.9966566674857
 21
-1553.125
  0
LINE
  5
274
100
AcDbEntity
  8
legende
  6
ByBlock
 62
  253
370
   -2
100
AcDbLine
 10
168.0621350504612
 20
-1531.563027054279
 11
168.0621350504612
 21
-1553.125
  0
ENDBLK
  5
ED
330
EB
100
AcDbEntity
  8
0
100
AcDbBlockEnd
  0
BLOCK
  5
EF
330
EE
100
AcDbEntity
  8
0
100
AcDbBlockBegin
  2
*D1
 70
    1
 10
0
 20
0
  3
*D1
  1

  0
LINE
  5
275
100
AcDbEntity
  8
alu
  6
CONTINUOUS
 62
    7
370
    0
100
AcDbLine
 10
1212
 20
-223
 11
1248
 21
-223
  0
SOLID
  5
276
100
AcDbEntity
  8
alu
  6
CONTINUOUS
 62
    7
370
    0
100
AcDbTrace
 10
1212
 20
-223
 30
0
 11
1237
 21
-218.8371534222716
 31
0
 12
1237
 22
-227.1628465777284
 32
0
 13
1237
 23
-227.1628465777284
 33
0
  0
ENDBLK
  5
F0
330
EE
100
AcDbEntity
  8
0
100
AcDbBlockEnd
  0
BLOCK
  5
F2
330
F1
100
AcDbEntity
  8
0
100
AcDbBlockBegin
  2
*D72
 70
    1
 10
0
 20
0
  3
*D72
  1

  0
LINE
  5
277
100
AcDbEntity
  8
legende
  6
ByBlock
 62
  253
370
   -1
100
AcDbLine
 10
1710
 20
-1890
 11
1710
 21
-1766.001327521417
  0
MTEXT
  5
278
100
AcDbEntity
  8
legende
  6
CONTINUOUS
 62
    0
370
   -2
100
AcDbMText
 10
1702.1875
 20
-1828.000663760708
 30
0
 40
12.5
 41
16.66666666666666
 71
    5
 72
    1
  1
24
  7
standard
210
0
220
0
230
1
 50
90
 73
    2
 44
1
  0
SOLID
  5
279
100
AcDbEntity
  8
legende
  6
ByBlock
 62
  253
370
   -1
100
AcDbTrace
 10
1710
 20
-1840
 30
0
 11
1714.162846577728
 21
-1865
 31
0
 12
1705.837153422272
 22
-1865
 32
0
 13
1705.837153422272
 23
-1865
 33
0
  0
SOLID
  5
27A
100
AcDbEntity
  8
legende
  6
ByBlock
 62
  253
370
   -1
100
AcDbTrace
 10
1710
 20
-1816.001327521417
 30
0
 11
1705.837153422272
 21
-1791.001327521417
 31
0
 12
1714.162846577728
 22
-1791.001327521417
 32
0
 13
1714.162846577728
 23
-1791.001327521417
 33
0
  0
LINE
  5
27B
100
AcDbEntity
  8
legende
  6
ByBlock
 62
  253
370
   -2
100
AcDbLine
 10
1641.5625
 20
-1840
 11
1713.125
 21
-1840
  0
LINE
  5
27C
100
AcDbEntity
  8
legende
  6
ByBlock
 62
  253
370
   -2
100
AcDbLine
 10
1584.388066692899
 20
-1816.001327521417
 11
1713.125
 21
-1816.001327521417
  0
ENDBLK
  5
F3
330
F1
100
AcDbEntity
  8
0
100
AcDbBlockEnd
  0
BLOCK
  5
F5
330
F4
100
AcDbEntity
  8
0
100
AcDbBlockBegin
  2
*D18
 70
    1
 10
0
 20
0
  3
*D18
  1

  0
LINE
  5
27D
100
AcDbEntity
  8
legende
  6
ByBlock
 62
  253
370
   -1
100
AcDbLine
 10
1709.05652173913
 20
-1040
 11
2126.135185185185
 21
-1040
  0
MTEXT
  5
27E
100
AcDbEntity
  8
legende
  6
CONTINUOUS
 62
    0
370
   -2
100
AcDbMText
 10
1917.595853462157
 20
-1032.1875
 30
0
 40
12.5
 41
23.61111111111111
 71
    5
 72
    1
  1
417
  7
standard
210
0
220
0
230
1
 50
0
 73
    2
 44
1
  0
SOLID
  5
27F
100
AcDbEntity
  8
legende
  6
ByBlock
 62
  253
370
   -1
100
AcDbTrace
 10
1709.05652173913
 20
-1040
 30
0
 11
1734.05652173913
 21
-1035.837153422272
 31
0
 12
1734.05652173913
 22
-1044.162846577728
 32
0
 13
1734.05652173913
 23
-1044.162846577728
 33
0
  0
SOLID
  5
280
100
AcDbEntity
  8
legende
  6
ByBlock
 62
  253
370
   -1
100
AcDbTrace
 10
2126.135185185185
 20
-1040
 30
0
 11
2101.135185185185
 21
-1044.162846577728
 31
0
 12
2101.135185185185
 22
-1035.837153422272
 32
0
 13
2101.135185185185
 23
-1035.837153422272
 33
0
  0
LINE
  5
281
100
AcDbEntity
  8
legende
  6
ByBlock
 62
  253
370
   -2
100
AcDbLine
 10
1709.05652173913
 20
-1016.5625
 11
1709.05652173913
 21
-1043.125
  0
LINE
  5
282
100
AcDbEntity
  8
legende
  6
ByBlock
 62
  253
370
   -2
100
AcDbLine
 10
2126.135185185185
 20
-1016.5625
 11
2126.135185185185
 21
-1043.125
  0
ENDBLK
  5
F6
330
F4
100
AcDbEntity
  8
0
100
AcDbBlockEnd
  0
BLOCK
  5
F8
330
F7
100
AcDbEntity
  8
0
100
AcDbBlockBegin
  2
*D67
 70
    1
 10
0
 20
0
  3
*D67
  1

  0
LINE
  5
283
100
AcDbEntity
  8
legende
  6
ByBlock
 62
  253
370
   -1
100
AcDbLine
 10
280.8256228672617
 20
-1350
 11
382.8256228672622
 21
-1350
  0
MTEXT
  5
284
100
AcDbEntity
  8
legende
  6
CONTINUOUS
 62
    0
370
   -2
100
AcDbMText
 10
331.8256228672619
 20
-1342.1875
 30
0
 40
12.5
 41
22.22222222222222
 71
    5
 72
    1
  1
102
  7
standard
210
0
220
0
230
1
 50
0
 73
    2
 44
1
  0
SOLID
  5
285
100
AcDbEntity
  8
legende
  6
ByBlock
 62
  253
370
   -1
100
AcDbTrace
 10
280.8256228672617
 20
-1350
 30
0
 11
305.8256228672617
 21
-1345.837153422272
 31
0
 12
305.8256228672617
 22
-1354.162846577728
 32
0
 13
305.8256228672617
 23
-1354.162846577728
 33
0
  0
SOLID
  5
286
100
AcDbEntity
  8
legende
  6
ByBlock
 62
  253
370
   -1
100
AcDbTrace
 10
382.8256228672622
 20
-1350
 30
0
 11
357.8256228672622
 21
-1354.162846577728
 31
0
 12
357.8256228672622
 22
-1345.837153422272
 32
0
 13
357.8256228672622
 23
-1345.837153422272
 33
0
  0
LINE
  5
287
100
AcDbEntity
  8
legende
  6
ByBlock
 62
  253
370
   -2
100
AcDbLine
 10
280.8256228672617
 20
-1331.562506311665
 11
280.8256228672617
 21
-1353.125
  0
LINE
  5
288
100
AcDbEntity
  8
legende
  6
ByBlock
 62
  253
370
   -2
100
AcDbLine
 10
382.8256228672622
 20
-1331.562508654203
 11
382.8256228672622
 21
-1353.125
  0
ENDBLK
  5
F9
330
F7
100
AcDbEntity
  8
0
100
AcDbBlockEnd
  0
BLOCK
  5
FB
330
FA
100
AcDbEntity
  8
0
100
AcDbBlockBegin
  2
*D60
 70
    1
 10
0
 20
0
  3
*D60
  1

  0
LINE
  5
289
100
AcDbEntity
  8
legende
  6
ByBlock
 62
  253
370
   -1
100
AcDbLine
 10
87.26076553391887
 20
-1650
 11
178.1046666301587
 21
-1650
  0
MTEXT
  5
28A
100
AcDbEntity
  8
legende
  6
CONTINUOUS
 62
    0
370
   -2
100
AcDbMText
 10
132.6827160820388
 20
-1642.1875
 30
0
 40
12.5
 41
12.50000000000077
 71
    5
 72
    1
  1
91
  7
standard
210
0
220
0
230
1
 50
0
 73
    2
 44
1
  0
SOLID
  5
28B
100
AcDbEntity
  8
legende
  6
ByBlock
 62
  253
370
   -1
100
AcDbTrace
 10
87.26076553391887
 20
-1650
 30
0
 11
112.2607655339189
 21
-1645.837153422272
 31
0
 12
112.2607655339189
 22
-1654.162846577728
 32
0
 13
112.2607655339189
 23
-1654.162846577728
 33
0
  0
SOLID
  5
28C
100
AcDbEntity
  8
legende
  6
ByBlock
 62
  253
370
   -1
100
AcDbTrace
 10
178.1046666301587
 20
-1650
 30
0
 11
153.1046666301587
 21
-1654.162846577728
 31
0
 12
153.1046666301587
 22
-1645.837153422272
 32
0
 13
153.1046666301587
 23
-1645.837153422272
 33
0
  0
LINE
  5
28D
100
AcDbEntity
  8
legende
  6
ByBlock
 62
  253
370
   -2
100
AcDbLine
 10
87.26076553391886
 20
-1631.562802593677
 11
87.26076553391887
 21
-1653.125
  0
LINE
  5
28E
100
AcDbEntity
  8
legende
  6
ByBlock
 62
  253
370
   -2
100
AcDbLine
 10
178.1046666301587
 20
-1616.563117612295
 11
178.1046666301587
 21
-1653.125
  0
ENDBLK
  5
FC
330
FA
100
AcDbEntity
  8
0
100
AcDbBlockEnd
  0
BLOCK
  5
FE
330
FD
100
AcDbEntity
  8
0
100
AcDbBlockBegin
  2
*D32
 70
    1
 10
0
 20
0
  3
*D32
  1

  0
LINE
  5
28F
100
AcDbEntity
  8
legende
  6
ByBlock
 62
  253
370
   -1
100
AcDbLine
 10
1378.065516980983
 20
-1860
 11
1480.825566693512
 21
-1860
  0
MTEXT
  5
290
100
AcDbEntity
  8
legende
  6
CONTINUOUS
 62
    0
370
   -2
100
AcDbMText
 10
1429.445541837247
 20
-1852.1875
 30
0
 40
12.5
 41
22.222222222223
 71
    5
 72
    1
  1
103
  7
standard
210
0
220
0
230
1
 50
0
 73
    2
 44
1
  0
SOLID
  5
291
100
AcDbEntity
  8
legende
  6
ByBlock
 62
  253
370
   -1
100
AcDbTrace
 10
1378.065516980983
 20
-1860
 30
0
 11
1403.065516980983
 21
-1855.837153422272
 31
0
 12
1403.065516980983
 22
-1864.162846577728
 32
0
 13
1403.065516980983
 23
-1864.162846577728
 33
0
  0
SOLID
  5
292
100
AcDbEntity
  8
legende
  6
ByBlock
 62
  253
370
   -1
100
AcDbTrace
 10
1480.825566693512
 20
-1860
 30
0
 11
1455.825566693512
 21
-1864.162846577728
 31
0
 12
1455.825566693512
 22
-1855.837153422272
 32
0
 13
1455.825566693512
 23
-1855.837153422272
 33
0
  0
LINE
  5
293
100
AcDbEntity
  8
legende
  6
ByBlock
 62
  253
370
   -2
100
AcDbLine
 10
1378.065516980983
 20
-1817.563117476542
 11
1378.065516980983
 21
-1863.125
  0
LINE
  5
294
100
AcDbEntity
  8
legende
  6
ByBlock
 62
  253
370
   -2
100
AcDbLine
 10
1480.825566693512
 20
-1817.563473816789
 11
1480.825566693512
 21
-1863.125
  0
ENDBLK
  5
FF
330
FD
100
AcDbEntity
  8
0
100
AcDbBlockEnd
  0
BLOCK
  5
101
330
100
100
AcDbEntity
  8
0
100
AcDbBlockBegin
  2
*D26
 70
    1
 10
0
 20
0
  3
*D26
  1

  0
LINE
  5
295
100
AcDbEntity
  8
legende
  6
ByBlock
 62
  253
370
   -1
100
AcDbLine
 10
1260
 20
-1240
 11
1390
 21
-1240
  0
MTEXT
  5
296
100
AcDbEntity
  8
legende
  6
CONTINUOUS
 62
    0
370
   -2
100
AcDbMText
 10
1325
 20
-1232.1875
 30
0
 40
12.5
 41
22.222222222223
 71
    5
 72
    1
  1
130
  7
standard
210
0
220
0
230
1
 50
0
 73
    2
 44
1
  0
SOLID
  5
297
100
AcDbEntity
  8
legende
  6
ByBlock
 62
  253
370
   -1
100
AcDbTrace
 10
1260
 20
-1240
 30
0
 11
1285
 21
-1235.837153422272
 31
0
 12
1285
 22
-1244.162846577728
 32
0
 13
1285
 23
-1244.162846577728
 33
0
  0
SOLID
  5
298
100
AcDbEntity
  8
legende
  6
ByBlock
 62
  253
370
   -1
100
AcDbTrace
 10
1390
 20
-1240
 30
0
 11
1365
 21
-1244.162846577728
 31
0
 12
1365
 22
-1235.837153422272
 32
0
 13
1365
 23
-1235.837153422272
 33
0
  0
LINE
  5
299
100
AcDbEntity
  8
legende
  6
ByBlock
 62
  253
370
   -2
100
AcDbLine
 10
1260
 20
-1216.5625
 11
1260
 21
-1243.125
  0
LINE
  5
29A
100
AcDbEntity
  8
legende
  6
ByBlock
 62
  253
370
   -2
100
AcDbLine
 10
1390
 20
-1216.5625
 11
1390
 21
-1243.125
  0
ENDBLK
  5
102
330
100
100
AcDbEntity
  8
0
100
AcDbBlockEnd
  0
BLOCK
  5
104
330
103
100
AcDbEntity
  8
0
100
AcDbBlockBegin
  2
*D27
 70
    1
 10
0
 20
0
  3
*D27
  1

  0
LINE
  5
29B
100
AcDbEntity
  8
legende
  6
ByBlock
 62
  253
370
   -1
100
AcDbLine
 10
1340
 20
-1240
 11
1500
 21
-1240
  0
MTEXT
  5
29C
100
AcDbEntity
  8
legende
  6
CONTINUOUS
 62
    0
370
   -2
100
AcDbMText
 10
1420
 20
-1232.1875
 30
0
 40
12.5
 41
15.27777777777855
 71
    5
 72
    1
  1
60
  7
standard
210
0
220
0
230
1
 50
0
 73
    2
 44
1
  0
SOLID
  5
29D
100
AcDbEntity
  8
legende
  6
ByBlock
 62
  253
370
   -1
100
AcDbTrace
 10
1390
 20
-1240
 30
0
 11
1365
 21
-1244.162846577728
 31
0
 12
1365
 22
-1235.837153422272
 32
0
 13
1365
 23
-1235.837153422272
 33
0
  0
SOLID
  5
29E
100
AcDbEntity
  8
legende
  6
ByBlock
 62
  253
370
   -1
100
AcDbTrace
 10
1450
 20
-1240
 30
0
 11
1475
 21
-1235.837153422272
 31
0
 12
1475
 22
-1244.162846577728
 32
0
 13
1475
 23
-1244.162846577728
 33
0
  0
LINE
  5
29F
100
AcDbEntity
  8
legende
  6
ByBlock
 62
  253
370
   -2
100
AcDbLine
 10
1390
 20
-1216.5625
 11
1390
 21
-1243.125
  0
LINE
  5
2A0
100
AcDbEntity
  8
legende
  6
ByBlock
 62
  253
370
   -2
100
AcDbLine
 10
1450
 20
-1221.5625
 11
1450
 21
-1243.125
  0
ENDBLK
  5
105
330
103
100
AcDbEntity
  8
0
100
AcDbBlockEnd
  0
BLOCK
  5
107
330
106
100
AcDbEntity
  8
0
100
AcDbBlockBegin
  2
*D79
 70
    1
 10
0
 20
0
  3
*D79
  1

  0
LINE
  5
2A1
100
AcDbEntity
  8
legende
  6
ByBlock
 62
  253
370
   -1
100
AcDbLine
 10
0
 20
-1450
 11
64.0655731541151
 21
-1450
  0
MTEXT
  5
2A2
100
AcDbEntity
  8
legende
  6
CONTINUOUS
 62
    0
370
   -2
100
AcDbMText
 10
32.03278657705755
 20
-1442.1875
 30
0
 40
12.5
 41
16.66666666666744
 71
    5
 72
    1
  1
64
  7
standard
210
0
220
0
230
1
 50
0
 73
    2
 44
1
  0
SOLID
  5
2A3
100
AcDbEntity
  8
legende
  6
ByBlock
 62
  253
370
   -1
100
AcDbTrace
 10
0
 20
-1450
 30
0
 11
25
 21
-1445.837153422272
 31
0
 12
25
 22
-1454.162846577728
 32
0
 13
25
 23
-1454.162846577728
 33
0
  0
SOLID
  5
2A4
100
AcDbEntity
  8
legende
  6
ByBlock
 62
  253
370
   -1
100
AcDbTrace
 10
64.0655731541151
 20
-1450
 30
0
 11
39.0655731541151
 21
-1454.162846577728
 31
0
 12
39.0655731541151
 22
-1445.837153422272
 32
0
 13
39.0655731541151
 23
-1445.837153422272
 33
0
  0
LINE
  5
2A5
100
AcDbEntity
  8
legende
  6
ByBlock
 62
  253
370
   -2
100
AcDbLine
 10
-2.870265935501609e-16
 20
-1431.5625
 11
-5.740531871003218e-16
 21
-1453.125
  0
LINE
  5
2A6
100
AcDbEntity
  8
legende
  6
ByBlock
 62
  253
370
   -2
100
AcDbLine
 10
64.0655731541151
 20
-1431.562501609131
 11
64.0655731541151
 21
-1453.125
  0
ENDBLK
  5
108
330
106
100
AcDbEntity
  8
0
100
AcDbBlockEnd
  0
BLOCK
  5
10A
330
109
100
AcDbEntity
  8
0
100
AcDbBlockBegin
  2
*D50
 70
    1
 10
0
 20
0
  3
*D50
  1

  0
LINE
  5
2A7
100
AcDbEntity
  8
legende
  6
ByBlock
 62
  253
370
   -1
100
AcDbLine
 10
0
 20
-1570
 11
168.0621350504612
 21
-1570
  0
MTEXT
  5
2A8
100
AcDbEntity
  8
legende
  6
CONTINUOUS
 62
    0
370
   -2
100
AcDbMText
 10
84.0310675252306
 20
-1562.1875
 30
0
 40
12.5
 41
22.222222222223
 71
    5
 72
    1
  1
168
  7
standard
210
0
220
0
230
1
 50
0
 73
    2
 44
1
  0
SOLID
  5
2A9
100
AcDbEntity
  8
legende
  6
ByBlock
 62
  253
370
   -1
100
AcDbTrace
 10
0
 20
-1570
 30
0
 11
25
 21
-1565.837153422272
 31
0
 12
25
 22
-1574.162846577728
 32
0
 13
25
 23
-1574.162846577728
 33
0
  0
SOLID
  5
2AA
100
AcDbEntity
  8
legende
  6
ByBlock
 62
  253
370
   -1
100
AcDbTrace
 10
168.0621350504612
 20
-1570
 30
0
 11
143.0621350504612
 21
-1574.162846577728
 31
0
 12
143.0621350504612
 22
-1565.837153422272
 32
0
 13
143.0621350504612
 23
-1565.837153422272
 33
0
  0
LINE
  5
2AB
100
AcDbEntity
  8
legende
  6
ByBlock
 62
  253
370
   -2
100
AcDbLine
 10
-2.870265935501609e-16
 20
-1531.5625
 11
-5.740531871003218e-16
 21
-1573.125
  0
LINE
  5
2AC
100
AcDbEntity
  8
legende
  6
ByBlock
 62
  253
370
   -2
100
AcDbLine
 10
168.0621350504612
 20
-1531.563027054279
 11
168.0621350504612
 21
-1573.125
  0
ENDBLK
  5
10B
330
109
100
AcDbEntity
  8
0
100
AcDbBlockEnd
  0
BLOCK
  5
10D
330
10C
100
AcDbEntity
  8
0
100
AcDbBlockBegin
  2
*D24
 70
    1
 10
0
 20
0
  3
*D24
  1

  0
LINE
  5
2AD
100
AcDbEntity
  8
legende
  6
ByBlock
 62
  253
370
   -1
100
AcDbLine
 10
1769.05652173913
 20
-1160
 11
1200
 21
-1160
  0
MTEXT
  5
2AE
100
AcDbEntity
  8
legende
  6
CONTINUOUS
 62
    0
370
   -2
100
AcDbMText
 10
1484.528260869565
 20
-1152.1875
 30
0
 40
12.5
 41
25.00000000000155
 71
    5
 72
    1
  1
569
  7
standard
210
0
220
0
230
1
 50
0
 73
    2
 44
1
  0
SOLID
  5
2AF
100
AcDbEntity
  8
legende
  6
ByBlock
 62
  253
370
   -1
100
AcDbTrace
 10
1769.05652173913
 20
-1160
 30
0
 11
1744.05652173913
 21
-1164.162846577728
 31
0
 12
1744.05652173913
 22
-1155.837153422272
 32
0
 13
1744.05652173913
 23
-1155.837153422272
 33
0
  0
SOLID
  5
2B0
100
AcDbEntity
  8
legende
  6
ByBlock
 62
  253
370
   -1
100
AcDbTrace
 10
1200
 20
-1160
 30
0
 11
1225
 21
-1155.837153422272
 31
0
 12
1225
 22
-1164.162846577728
 32
0
 13
1225
 23
-1164.162846577728
 33
0
  0
LINE
  5
2B1
100
AcDbEntity
  8
legende
  6
ByBlock
 62
  253
370
   -2
100
AcDbLine
 10
1769.05652173913
 20
-1121.5625
 11
1769.05652173913
 21
-1163.125
  0
LINE
  5
2B2
100
AcDbEntity
  8
legende
  6
ByBlock
 62
  253
370
   -2
100
AcDbLine
 10
1200
 20
-1121.5625
 11
1200
 21
-1163.125
  0
ENDBLK
  5
10E
330
10C
100
AcDbEntity
  8
0
100
AcDbBlockEnd
  0
BLOCK
  5
110
330
10F
100
AcDbEntity
  8
0
100
AcDbBlockBegin
  2
*D54
 70
    1
 10
0
 20
0
  3
*D54
  1

  0
LINE
  5
2B3
100
AcDbEntity
  8
legende
  6
ByBlock
 62
  253
370
   -1
100
AcDbLine
 10
-50
 20
-1750
 11
88.32662465556874
 21
-1750
  0
MTEXT
  5
2B4
100
AcDbEntity
  8
legende
  6
CONTINUOUS
 62
    0
370
   -2
100
AcDbMText
 10
19.16331232778437
 20
-1742.1875
 30
0
 40
12.5
 41
15.27777777777855
 71
    5
 72
    1
  1
38
  7
standard
210
0
220
0
230
1
 50
0
 73
    2
 44
1
  0
SOLID
  5
2B5
100
AcDbEntity
  8
legende
  6
ByBlock
 62
  253
370
   -1
100
AcDbTrace
 10
0
 20
-1750
 30
0
 11
-25
 21
-1754.162846577728
 31
0
 12
-25
 22
-1745.837153422272
 32
0
 13
-25
 23
-1745.837153422272
 33
0
  0
SOLID
  5
2B6
100
AcDbEntity
  8
legende
  6
ByBlock
 62
  253
370
   -1
100
AcDbTrace
 10
38.32662465556874
 20
-1750
 30
0
 11
63.32662465556874
 21
-1745.837153422272
 31
0
 12
63.32662465556874
 22
-1754.162846577728
 32
0
 13
63.32662465556874
 23
-1754.162846577728
 33
0
  0
LINE
  5
2B7
100
AcDbEntity
  8
legende
  6
ByBlock
 62
  253
370
   -2
100
AcDbLine
 10
-2.870265935501609e-16
 20
-1731.5625
 11
-5.740531871003218e-16
 21
-1753.125
  0
LINE
  5
2B8
100
AcDbEntity
  8
legende
  6
ByBlock
 62
  253
370
   -2
100
AcDbLine
 10
38.32662465556874
 20
-1701.562500880212
 11
38.32662465556874
 21
-1753.125
  0
ENDBLK
  5
111
330
10F
100
AcDbEntity
  8
0
100
AcDbBlockEnd
  0
BLOCK
  5
113
330
112
100
AcDbEntity
  8
0
100
AcDbBlockBegin
  2
*D78
 70
    1
 10
0
 20
0
  3
*D78
  1

  0
LINE
  5
2B9
100
AcDbEntity
  8
legende
  6
ByBlock
 62
  253
370
   -1
100
AcDbLine
 10
190
 20
-1450
 11
268.8256228672617
 21
-1450
  0
MTEXT
  5
2BA
100
AcDbEntity
  8
legende
  6
CONTINUOUS
 62
    0
370
   -2
100
AcDbMText
 10
229.4128114336308
 20
-1442.1875
 30
0
 40
12.5
 41
15.27777777777778
 71
    5
 72
    1
  1
79
  7
standard
210
0
220
0
230
1
 50
0
 73
    2
 44
1
  0
SOLID
  5
2BB
100
AcDbEntity
  8
legende
  6
ByBlock
 62
  253
370
   -1
100
AcDbTrace
 10
190
 20
-1450
 30
0
 11
215
 21
-1445.837153422272
 31
0
 12
215
 22
-1454.162846577728
 32
0
 13
215
 23
-1454.162846577728
 33
0
  0
SOLID
  5
2BC
100
AcDbEntity
  8
legende
  6
ByBlock
 62
  253
370
   -1
100
AcDbTrace
 10
268.8256228672617
 20
-1450
 30
0
 11
243.8256228672617
 21
-1454.162846577728
 31
0
 12
243.8256228672617
 22
-1445.837153422272
 32
0
 13
243.8256228672617
 23
-1445.837153422272
 33
0
  0
LINE
  5
2BD
100
AcDbEntity
  8
legende
  6
ByBlock
 62
  253
370
   -2
100
AcDbLine
 10
190
 20
-1431.5625
 11
190
 21
-1453.125
  0
LINE
  5
2BE
100
AcDbEntity
  8
legende
  6
ByBlock
 62
  253
370
   -2
100
AcDbLine
 10
268.8256228672617
 20
-1431.562506311665
 11
268.8256228672617
 21
-1453.125
  0
ENDBLK
  5
114
330
112
100
AcDbEntity
  8
0
100
AcDbBlockEnd
  0
BLOCK
  5
116
330
115
100
AcDbEntity
  8
0
100
AcDbBlockBegin
  2
*D2
 70
    1
 10
0
 20
0
  3
*D2
  1

  0
LINE
  5
2BF
100
AcDbEntity
  8
alu
  6
CONTINUOUS
 62
    7
370
    0
100
AcDbLine
 10
1212
 20
-227.5
 11
1248
 21
-240
  0
SOLID
  5
2C0
100
AcDbEntity
  8
alu
  6
CONTINUOUS
 62
    7
370
    0
100
AcDbTrace
 10
1212
 20
-227.5
 30
0
 11
1236.982303942755
 21
-231.7677606940304
 31
0
 12
1234.251379268984
 22
-239.6328237544902
 32
0
 13
1234.251379268984
 23
-239.6328237544902
 33
0
  0
ENDBLK
  5
117
330
115
100
AcDbEntity
  8
0
100
AcDbBlockEnd
  0
BLOCK
  5
119
330
118
100
AcDbEntity
  8
0
100
AcDbBlockBegin
  2
*D43
 70
    1
 10
0
 20
0
  3
*D43
  1

  0
LINE
  5
2C1
100
AcDbEntity
  8
legende
  6
ByBlock
 62
  253
370
   -1
100
AcDbLine
 10
0
 20
-1250
 11
80
 21
-1250
  0
MTEXT
  5
2C2
100
AcDbEntity
  8
legende
  6
CONTINUOUS
 62
    0
370
   -2
100
AcDbMText
 10
40
 20
-1242.1875
 30
0
 40
12.5
 41
15.27777777777778
 71
    5
 72
    1
  1
80
  7
standard
210
0
220
0
230
1
 50
0
 73
    2
 44
1
  0
SOLID
  5
2C3
100
AcDbEntity
  8
legende
  6
ByBlock
 62
  253
370
   -1
100
AcDbTrace
 10
0
 20
-1250
 30
0
 11
25
 21
-1245.837153422272
 31
0
 12
25
 22
-1254.162846577728
 32
0
 13
25
 23
-1254.162846577728
 33
0
  0
SOLID
  5
2C4
100
AcDbEntity
  8
legende
  6
ByBlock
 62
  253
370
   -1
100
AcDbTrace
 10
80
 20
-1250
 30
0
 11
55
 21
-1254.162846577728
 31
0
 12
55
 22
-1245.837153422272
 32
0
 13
55
 23
-1245.837153422272
 33
0
  0
LINE
  5
2C5
100
AcDbEntity
  8
legende
  6
ByBlock
 62
  253
370
   -2
100
AcDbLine
 10
-2.870265935501609e-16
 20
-1201.5625
 11
-5.740531871003218e-16
 21
-1253.125
  0
LINE
  5
2C6
100
AcDbEntity
  8
legende
  6
ByBlock
 62
  253
370
   -2
100
AcDbLine
 10
80
 20
-1201.5625
 11
80
 21
-1253.125
  0
ENDBLK
  5
11A
330
118
100
AcDbEntity
  8
0
100
AcDbBlockEnd
  0
BLOCK
  5
11C
330
11B
100
AcDbEntity
  8
0
100
AcDbBlockBegin
  2
*D68
 70
    1
 10
0
 20
0
  3
*D68
  1

  0
LINE
  5
2C7
100
AcDbEntity
  8
legende
  6
ByBlock
 62
  253
370
   -1
100
AcDbLine
 10
332.8256228672622
 20
-1350
 11
490
 21
-1350
  0
MTEXT
  5
2C8
100
AcDbEntity
  8
legende
  6
CONTINUOUS
 62
    0
370
   -2
100
AcDbMText
 10
411.4128114336311
 20
-1342.1875
 30
0
 40
12.5
 41
15.27777777777855
 71
    5
 72
    1
  1
57
  7
standard
210
0
220
0
230
1
 50
0
 73
    2
 44
1
  0
SOLID
  5
2C9
100
AcDbEntity
  8
legende
  6
ByBlock
 62
  253
370
   -1
100
AcDbTrace
 10
382.8256228672622
 20
-1350
 30
0
 11
357.8256228672622
 21
-1354.162846577728
 31
0
 12
357.8256228672622
 22
-1345.837153422272
 32
0
 13
357.8256228672622
 23
-1345.837153422272
 33
0
  0
SOLID
  5
2CA
100
AcDbEntity
  8
legende
  6
ByBlock
 62
  253
370
   -1
100
AcDbTrace
 10
440
 20
-1350
 30
0
 11
465
 21
-1345.837153422272
 31
0
 12
465
 22
-1354.162846577728
 32
0
 13
465
 23
-1354.162846577728
 33
0
  0
LINE
  5
2CB
100
AcDbEntity
  8
legende
  6
ByBlock
 62
  253
370
   -2
100
AcDbLine
 10
382.8256228672622
 20
-1331.562508654203
 11
382.8256228672622
 21
-1353.125
  0
LINE
  5
2CC
100
AcDbEntity
  8
legende
  6
ByBlock
 62
  253
370
   -2
100
AcDbLine
 10
440
 20
-1331.5625
 11
440
 21
-1353.125
  0
ENDBLK
  5
11D
330
11B
100
AcDbEntity
  8
0
100
AcDbBlockEnd
  0
BLOCK
  5
11F
330
11E
100
AcDbEntity
  8
0
100
AcDbBlockBegin
  2
*D75
 70
    1
 10
0
 20
0
  3
*D75
  1

  0
LINE
  5
2CD
100
AcDbEntity
  8
legende
  6
ByBlock
 62
  253
370
   -1
100
AcDbLine
 10
1390.065516980983
 20
-1790
 11
1468.825544153583
 21
-1790
  0
MTEXT
  5
2CE
100
AcDbEntity
  8
legende
  6
CONTINUOUS
 62
    0
370
   -2
100
AcDbMText
 10
1429.445530567283
 20
-1782.1875
 30
0
 40
12.5
 41
15.27777777777778
 71
    5
 72
    1
  1
79
  7
standard
210
0
220
0
230
1
 50
0
 73
    2
 44
1
  0
SOLID
  5
2CF
100
AcDbEntity
  8
legende
  6
ByBlock
 62
  253
370
   -1
100
AcDbTrace
 10
1390.065516980983
 20
-1790
 30
0
 11
1415.065516980983
 21
-1785.837153422272
 31
0
 12
1415.065516980983
 22
-1794.162846577728
 32
0
 13
1415.065516980983
 23
-1794.162846577728
 33
0
  0
SOLID
  5
2D0
100
AcDbEntity
  8
legende
  6
ByBlock
 62
  253
370
   -1
100
AcDbTrace
 10
1468.825544153583
 20
-1790
 30
0
 11
1443.825544153583
 21
-1794.162846577728
 31
0
 12
1443.825544153583
 22
-1785.837153422272
 32
0
 13
1443.825544153583
 23
-1785.837153422272
 33
0
  0
LINE
  5
2D1
100
AcDbEntity
  8
legende
  6
ByBlock
 62
  253
370
   -2
100
AcDbLine
 10
1390.065516980983
 20
-1803.438148685678
 11
1390.065516980983
 21
-1786.875
  0
LINE
  5
2D2
100
AcDbEntity
  8
legende
  6
ByBlock
 62
  253
370
   -2
100
AcDbLine
 10
1468.825544153583
 20
-1803.438421801438
 11
1468.825544153583
 21
-1786.875
  0
ENDBLK
  5
120
330
11E
100
AcDbEntity
  8
0
100
AcDbBlockEnd
  0
BLOCK
  5
122
330
121
100
AcDbEntity
  8
0
100
AcDbBlockBegin
  2
*D17
 70
    1
 10
0
 20
0
  3
*D17
  1

  0
LINE
  5
2D3
100
AcDbEntity
  8
legende
  6
ByBlock
 62
  253
370
   -1
100
AcDbLine
 10
1627.078663446055
 20
-1040
 11
1759.05652173913
 21
-1040
  0
MTEXT
  5
2D4
100
AcDbEntity
  8
legende
  6
CONTINUOUS
 62
    0
370
   -2
100
AcDbMText
 10
1693.067592592593
 20
-1032.1875
 30
0
 40
12.5
 41
15.27777777777855
 71
    5
 72
    1
  1
32
  7
standard
210
0
220
0
230
1
 50
0
 73
    2
 44
1
  0
SOLID
  5
2D5
100
AcDbEntity
  8
legende
  6
ByBlock
 62
  253
370
   -1
100
AcDbTrace
 10
1677.078663446055
 20
-1040
 30
0
 11
1652.078663446055
 21
-1044.162846577728
 31
0
 12
1652.078663446055
 22
-1035.837153422272
 32
0
 13
1652.078663446055
 23
-1035.837153422272
 33
0
  0
SOLID
  5
2D6
100
AcDbEntity
  8
legende
  6
ByBlock
 62
  253
370
   -1
100
AcDbTrace
 10
1709.05652173913
 20
-1040
 30
0
 11
1734.05652173913
 21
-1035.837153422272
 31
0
 12
1734.05652173913
 22
-1044.162846577728
 32
0
 13
1734.05652173913
 23
-1044.162846577728
 33
0
  0
LINE
  5
2D7
100
AcDbEntity
  8
legende
  6
ByBlock
 62
  253
370
   -2
100
AcDbLine
 10
1677.078663446055
 20
-1016.5625
 11
1677.078663446055
 21
-1043.125
  0
LINE
  5
2D8
100
AcDbEntity
  8
legende
  6
ByBlock
 62
  253
370
   -2
100
AcDbLine
 10
1709.05652173913
 20
-1016.5625
 11
1709.05652173913
 21
-1043.125
  0
ENDBLK
  5
123
330
121
100
AcDbEntity
  8
0
100
AcDbBlockEnd
  0
BLOCK
  5
125
330
124
100
AcDbEntity
  8
0
100
AcDbBlockBegin
  2
*D66
 70
    1
 10
0
 20
0
  3
*D66
  1

  0
LINE
  5
2D9
100
AcDbEntity
  8
legende
  6
ByBlock
 62
  253
370
   -1
100
AcDbLine
 10
178.0655731541151
 20
-1350
 11
280.8256228672617
 21
-1350
  0
MTEXT
  5
2DA
100
AcDbEntity
  8
legende
  6
CONTINUOUS
 62
    0
370
   -2
100
AcDbMText
 10
229.4455980106884
 20
-1342.1875
 30
0
 40
12.5
 41
22.222222222223
 71
    5
 72
    1
  1
103
  7
standard
210
0
220
0
230
1
 50
0
 73
    2
 44
1
  0
SOLID
  5
2DB
100
AcDbEntity
  8
legende
  6
ByBlock
 62
  253
370
   -1
100
AcDbTrace
 10
178.0655731541151
 20
-1350
 30
0
 11
203.0655731541151
 21
-1345.837153422272
 31
0
 12
203.0655731541151
 22
-1354.162846577728
 32
0
 13
203.0655731541151
 23
-1354.162846577728
 33
0
  0
SOLID
  5
2DC
100
AcDbEntity
  8
legende
  6
ByBlock
 62
  253
370
   -1
100
AcDbTrace
 10
280.8256228672617
 20
-1350
 30
0
 11
255.8256228672617
 21
-1354.162846577728
 31
0
 12
255.8256228672617
 22
-1345.837153422272
 32
0
 13
255.8256228672617
 23
-1345.837153422272
 33
0
  0
LINE
  5
2DD
100
AcDbEntity
  8
legende
  6
ByBlock
 62
  253
370
   -2
100
AcDbLine
 10
178.0655731541151
 20
-1331.56250395167
 11
178.0655731541151
 21
-1353.125
  0
LINE
  5
2DE
100
AcDbEntity
  8
legende
  6
ByBlock
 62
  253
370
   -2
100
AcDbLine
 10
280.8256228672617
 20
-1331.562506311665
 11
280.8256228672617
 21
-1353.125
  0
ENDBLK
  5
126
330
124
100
AcDbEntity
  8
0
100
AcDbBlockEnd
  0
BLOCK
  5
128
330
127
100
AcDbEntity
  8
0
100
AcDbBlockBegin
  2
*D33
 70
    1
 10
0
 20
0
  3
*D33
  1

  0
LINE
  5
2DF
100
AcDbEntity
  8
legende
  6
ByBlock
 62
  253
370
   -1
100
AcDbLine
 10
1480.825566693512
 20
-1860
 11
1582.825566692899
 21
-1860
  0
MTEXT
  5
2E0
100
AcDbEntity
  8
legende
  6
CONTINUOUS
 62
    0
370
   -2
100
AcDbMText
 10
1531.825566693205
 20
-1852.1875
 30
0
 40
12.5
 41
22.22222222222222
 71
    5
 72
    1
  1
102
  7
standard
210
0
220
0
230
1
 50
0
 73
    2
 44
1
  0
SOLID
  5
2E1
100
AcDbEntity
  8
legende
  6
ByBlock
 62
  253
370
   -1
100
AcDbTrace
 10
1480.825566693512
 20
-1860
 30
0
 11
1505.825566693512
 21
-1855.837153422272
 31
0
 12
1505.825566693512
 22
-1864.162846577728
 32
0
 13
1505.825566693512
 23
-1864.162846577728
 33
0
  0
SOLID
  5
2E2
100
AcDbEntity
  8
legende
  6
ByBlock
 62
  253
370
   -1
100
AcDbTrace
 10
1582.825566692899
 20
-1860
 30
0
 11
1557.825566692899
 21
-1864.162846577728
 31
0
 12
1557.825566692899
 22
-1855.837153422272
 32
0
 13
1557.825566692899
 23
-1855.837153422272
 33
0
  0
LINE
  5
2E3
100
AcDbEntity
  8
legende
  6
ByBlock
 62
  253
370
   -2
100
AcDbLine
 10
1480.825566693512
 20
-1817.563473816789
 11
1480.825566693512
 21
-1863.125
  0
LINE
  5
2E4
100
AcDbEntity
  8
legende
  6
ByBlock
 62
  253
370
   -2
100
AcDbLine
 10
1582.825566692899
 20
-1817.563827521417
 11
1582.825566692899
 21
-1863.125
  0
ENDBLK
  5
129
330
127
100
AcDbEntity
  8
0
100
AcDbBlockEnd
  0
BLOCK
  5
12B
330
12A
100
AcDbEntity
  8
0
100
AcDbBlockBegin
  2
*D41
 70
    1
 10
0
 20
0
  3
*D41
  1

  0
LINE
  5
2E5
100
AcDbEntity
  8
legende
  6
ByBlock
 62
  253
370
   -1
100
AcDbLine
 10
140
 20
-1150
 11
300
 21
-1150
  0
MTEXT
  5
2E6
100
AcDbEntity
  8
legende
  6
CONTINUOUS
 62
    0
370
   -2
100
AcDbMText
 10
220
 20
-1142.1875
 30
0
 40
12.5
 41
15.27777777777855
 71
    5
 72
    1
  1
60
  7
standard
210
0
220
0
230
1
 50
0
 73
    2
 44
1
  0
SOLID
  5
2E7
100
AcDbEntity
  8
legende
  6
ByBlock
 62
  253
370
   -1
100
AcDbTrace
 10
190
 20
-1150
 30
0
 11
165
 21
-1154.162846577728
 31
0
 12
165
 22
-1145.837153422272
 32
0
 13
165
 23
-1145.837153422272
 33
0
  0
SOLID
  5
2E8
100
AcDbEntity
  8
legende
  6
ByBlock
 62
  253
370
   -1
100
AcDbTrace
 10
250
 20
-1150
 30
0
 11
275
 21
-1145.837153422272
 31
0
 12
275
 22
-1154.162846577728
 32
0
 13
275
 23
-1154.162846577728
 33
0
  0
LINE
  5
2E9
100
AcDbEntity
  8
legende
  6
ByBlock
 62
  253
370
   -2
100
AcDbLine
 10
190
 20
-1131.5625
 11
190
 21
-1153.125
  0
LINE
  5
2EA
100
AcDbEntity
  8
legende
  6
ByBlock
 62
  253
370
   -2
100
AcDbLine
 10
250
 20
-1131.5625
 11
250
 21
-1153.125
  0
ENDBLK
  5
12C
330
12A
100
AcDbEntity
  8
0
100
AcDbBlockEnd
  0
BLOCK
  5
12E
330
12D
100
AcDbEntity
  8
0
100
AcDbBlockBegin
  2
*D35
 70
    1
 10
0
 20
0
  3
*D35
  1

  0
LINE
  5
2EB
100
AcDbEntity
  8
legende
  6
ByBlock
 62
  253
370
   -1
100
AcDbLine
 10
1200
 20
-1880
 11
1639.838442030082
 21
-1880
  0
MTEXT
  5
2EC
100
AcDbEntity
  8
legende
  6
CONTINUOUS
 62
    0
370
   -2
100
AcDbMText
 10
1419.919221015041
 20
-1872.1875
 30
0
 40
12.5
 41
27.77777777777778
 71
    5
 72
    1
  1
440
  7
standard
210
0
220
0
230
1
 50
0
 73
    2
 44
1
  0
SOLID
  5
2ED
100
AcDbEntity
  8
legende
  6
ByBlock
 62
  253
370
   -1
100
AcDbTrace
 10
1200
 20
-1880
 30
0
 11
1225
 21
-1875.837153422272
 31
0
 12
1225
 22
-1884.162846577728
 32
0
 13
1225
 23
-1884.162846577728
 33
0
  0
SOLID
  5
2EE
100
AcDbEntity
  8
legende
  6
ByBlock
 62
  253
370
   -1
100
AcDbTrace
 10
1639.838442030082
 20
-1880
 30
0
 11
1614.838442030082
 21
-1884.162846577728
 31
0
 12
1614.838442030082
 22
-1875.837153422272
 32
0
 13
1614.838442030082
 23
-1875.837153422272
 33
0
  0
LINE
  5
2EF
100
AcDbEntity
  8
legende
  6
ByBlock
 62
  253
370
   -2
100
AcDbLine
 10
1200
 20
-1841.5625
 11
1200
 21
-1883.125
  0
LINE
  5
2F0
100
AcDbEntity
  8
legende
  6
ByBlock
 62
  253
370
   -2
100
AcDbLine
 10
1639.838442030082
 20
-1841.564025224678
 11
1639.838442030082
 21
-1883.125
  0
ENDBLK
  5
12F
330
12D
100
AcDbEntity
  8
0
100
AcDbBlockEnd
  0
BLOCK
  5
131
330
130
100
AcDbEntity
  8
0
100
AcDbBlockBegin
  2
*D58
 70
    1
 10
0
 20
0
  3
*D58
  1

  0
LINE
  5
2F1
100
AcDbEntity
  8
legende
  6
ByBlock
 62
  253
370
   -1
100
AcDbLine
 10
4.547473508864641e-13
 20
-1870
 11
404.4930030374801
 21
-1870
  0
MTEXT
  5
2F2
100
AcDbEntity
  8
legende
  6
CONTINUOUS
 62
    0
370
   -2
100
AcDbMText
 10
202.2465015187403
 20
-1862.1875
 30
0
 40
12.5
 41
27.77777777777778
 71
    5
 72
    1
  1
404
  7
standard
210
0
220
0
230
1
 50
0
 73
    2
 44
1
  0
SOLID
  5
2F3
100
AcDbEntity
  8
legende
  6
ByBlock
 62
  253
370
   -1
100
AcDbTrace
 10
4.547473508864641e-13
 20
-1870
 30
0
 11
25.00000000000045
 21
-1865.837153422272
 31
0
 12
25.00000000000045
 22
-1874.162846577728
 32
0
 13
25.00000000000045
 23
-1874.162846577728
 33
0
  0
SOLID
  5
2F4
100
AcDbEntity
  8
legende
  6
ByBlock
 62
  253
370
   -1
100
AcDbTrace
 10
404.4930030374801
 20
-1870
 30
0
 11
379.4930030374801
 21
-1874.162846577728
 31
0
 12
379.4930030374801
 22
-1865.837153422272
 32
0
 13
379.4930030374801
 23
-1865.837153422272
 33
0
  0
LINE
  5
2F5
100
AcDbEntity
  8
legende
  6
ByBlock
 62
  253
370
   -2
100
AcDbLine
 10
4.54460324292914e-13
 20
-1831.5625
 11
4.541732976993638e-13
 21
-1873.125
  0
LINE
  5
2F6
100
AcDbEntity
  8
legende
  6
ByBlock
 62
  253
370
   -2
100
AcDbLine
 10
404.4930030374801
 20
-1801.562509289615
 11
404.4930030374801
 21
-1873.125
  0
ENDBLK
  5
132
330
130
100
AcDbEntity
  8
0
100
AcDbBlockEnd
  0
BLOCK
  5
134
330
133
100
AcDbEntity
  8
0
100
AcDbBlockBegin
  2
*D20
 70
    1
 10
0
 20
0
  3
*D20
  1

  0
LINE
  5
2F7
100
AcDbEntity
  8
legende
  6
ByBlock
 62
  253
370
   -1
100
AcDbLine
 10
1200
 20
-1060
 11
2186.135185185185
 21
-1060
  0
MTEXT
  5
2F8
100
AcDbEntity
  8
legende
  6
CONTINUOUS
 62
    0
370
   -2
100
AcDbMText
 10
1693.067592592593
 20
-1052.1875
 30
0
 40
12.5
 41
25.00000000000155
 71
    5
 72
    1
  1
986
  7
standard
210
0
220
0
230
1
 50
0
 73
    2
 44
1
  0
SOLID
  5
2F9
100
AcDbEntity
  8
legende
  6
ByBlock
 62
  253
370
   -1
100
AcDbTrace
 10
1200
 20
-1060
 30
0
 11
1225
 21
-1055.837153422272
 31
0
 12
1225
 22
-1064.162846577728
 32
0
 13
1225
 23
-1064.162846577728
 33
0
  0
SOLID
  5
2FA
100
AcDbEntity
  8
legende
  6
ByBlock
 62
  253
370
   -1
100
AcDbTrace
 10
2186.135185185185
 20
-1060
 30
0
 11
2161.135185185185
 21
-1064.162846577728
 31
0
 12
2161.135185185185
 22
-1055.837153422272
 32
0
 13
2161.135185185185
 23
-1055.837153422272
 33
0
  0
LINE
  5
2FB
100
AcDbEntity
  8
legende
  6
ByBlock
 62
  253
370
   -2
100
AcDbLine
 10
1200
 20
-1021.5625
 11
1200
 21
-1063.125
  0
LINE
  5
2FC
100
AcDbEntity
  8
legende
  6
ByBlock
 62
  253
370
   -2
100
AcDbLine
 10
2186.135185185185
 20
-1021.5625
 11
2186.135185185185
 21
-1063.125
  0
ENDBLK
  5
135
330
133
100
AcDbEntity
  8
0
100
AcDbBlockEnd
  0
BLOCK
  5
137
330
136
100
AcDbEntity
  8
0
100
AcDbBlockBegin
  2
*D48
 70
    1
 10
0
 20
0
  3
*D48
  1

  0
LINE
  5
2FD
100
AcDbEntity
  8
legende
  6
ByBlock
 62
  253
370
   -1
100
AcDbLine
 10
-50
 20
-1550
 11
76.80200789684272
 21
-1550
  0
MTEXT
  5
2FE
100
AcDbEntity
  8
legende
  6
CONTINUOUS
 62
    0
370
   -2
100
AcDbMText
 10
13.40100394842136
 20
-1542.1875
 30
0
 40
12.5
 41
15.27777777777778
 71
    5
 72
    1
  1
27
  7
standard
210
0
220
0
230
1
 50
0
 73
    2
 44
1
  0
SOLID
  5
2FF
100
AcDbEntity
  8
legende
  6
ByBlock
 62
  253
370
   -1
100
AcDbTrace
 10
0
 20
-1550
 30
0
 11
-25
 21
-1554.162846577728
 31
0
 12
-25
 22
-1545.837153422272
 32
0
 13
-25
 23
-1545.837153422272
 33
0
  0
SOLID
  5
300
100
AcDbEntity
  8
legende
  6
ByBlock
 62
  253
370
   -1
100
AcDbTrace
 10
26.80200789684272
 20
-1550
 30
0
 11
51.80200789684272
 21
-1545.837153422272
 31
0
 12
51.80200789684272
 22
-1554.162846577728
 32
0
 13
51.80200789684272
 23
-1554.162846577728
 33
0
  0
LINE
  5
301
100
AcDbEntity
  8
legende
  6
ByBlock
 62
  253
370
   -2
100
AcDbLine
 10
-2.870265935501609e-16
 20
-1531.5625
 11
-5.740531871003218e-16
 21
-1553.125
  0
LINE
  5
302
100
AcDbEntity
  8
legende
  6
ByBlock
 62
  253
370
   -2
100
AcDbLine
 10
26.80200789684272
 20
-1501.562584052771
 11
26.80200789684272
 21
-1553.125
  0
ENDBLK
  5
138
330
136
100
AcDbEntity
  8
0
100
AcDbBlockEnd
  0
BLOCK
  5
13A
330
139
100
AcDbEntity
  8
0
100
AcDbBlockBegin
  2
*D28
 70
    1
 10
0
 20
0
  3
*D28
  1

  0
LINE
  5
303
100
AcDbEntity
  8
legende
  6
ByBlock
 62
  253
370
   -1
100
AcDbLine
 10
1150
 20
-1440
 11
1310
 21
-1440
  0
MTEXT
  5
304
100
AcDbEntity
  8
legende
  6
CONTINUOUS
 62
    0
370
   -2
100
AcDbMText
 10
1230
 20
-1432.1875
 30
0
 40
12.5
 41
15.27777777777855
 71
    5
 72
    1
  1
60
  7
standard
210
0
220
0
230
1
 50
0
 73
    2
 44
1
  0
SOLID
  5
305
100
AcDbEntity
  8
legende
  6
ByBlock
 62
  253
370
   -1
100
AcDbTrace
 10
1200
 20
-1440
 30
0
 11
1175
 21
-1444.162846577728
 31
0
 12
1175
 22
-1435.837153422272
 32
0
 13
1175
 23
-1435.837153422272
 33
0
  0
SOLID
  5
306
100
AcDbEntity
  8
legende
  6
ByBlock
 62
  253
370
   -1
100
AcDbTrace
 10
1260
 20
-1440
 30
0
 11
1285
 21
-1435.837153422272
 31
0
 12
1285
 22
-1444.162846577728
 32
0
 13
1285
 23
-1444.162846577728
 33
0
  0
LINE
  5
307
100
AcDbEntity
  8
legende
  6
ByBlock
 62
  253
370
   -2
100
AcDbLine
 10
1200
 20
-1426.5625
 11
1200
 21
-1443.125
  0
LINE
  5
308
100
AcDbEntity
  8
legende
  6
ByBlock
 62
  253
370
   -2
100
AcDbLine
 10
1260
 20
-1414.0625
 11
1260
 21
-1443.125
  0
ENDBLK
  5
13B
330
139
100
AcDbEntity
  8
0
100
AcDbBlockEnd
  0
BLOCK
  5
13D
330
13C
100
AcDbEntity
  8
0
100
AcDbBlockBegin
  2
*D47
 70
    1
 10
0
 20
0
  3
*D47
  1

  0
LINE
  5
309
100
AcDbEntity
  8
legende
  6
ByBlock
 62
  253
370
   -1
100
AcDbLine
 10
80
 20
-1250
 11
384
 21
-1250
  0
MTEXT
  5
30A
100
AcDbEntity
  8
legende
  6
CONTINUOUS
 62
    0
370
   -2
100
AcDbMText
 10
232
 20
-1242.1875
 30
0
 40
12.5
 41
26.38888888888966
 71
    5
 72
    1
  1
304
  7
standard
210
0
220
0
230
1
 50
0
 73
    2
 44
1
  0
SOLID
  5
30B
100
AcDbEntity
  8
legende
  6
ByBlock
 62
  253
370
   -1
100
AcDbTrace
 10
80
 20
-1250
 30
0
 11
105
 21
-1245.837153422272
 31
0
 12
105
 22
-1254.162846577728
 32
0
 13
105
 23
-1254.162846577728
 33
0
  0
SOLID
  5
30C
100
AcDbEntity
  8
legende
  6
ByBlock
 62
  253
370
   -1
100
AcDbTrace
 10
384
 20
-1250
 30
0
 11
359
 21
-1254.162846577728
 31
0
 12
359
 22
-1245.837153422272
 32
0
 13
359
 23
-1245.837153422272
 33
0
  0
LINE
  5
30D
100
AcDbEntity
  8
legende
  6
ByBlock
 62
  253
370
   -2
100
AcDbLine
 10
80
 20
-1231.5625
 11
80
 21
-1253.125
  0
LINE
  5
30E
100
AcDbEntity
  8
legende
  6
ByBlock
 62
  253
370
   -2
100
AcDbLine
 10
384
 20
-1231.5625
 11
384
 21
-1253.125
  0
ENDBLK
  5
13E
330
13C
100
AcDbEntity
  8
0
100
AcDbBlockEnd
  0
BLOCK
  5
140
330
13F
100
AcDbEntity
  8
0
100
AcDbBlockBegin
  2
*D3
 70
    1
 10
0
 20
0
  3
*D3
  1

  0
LINE
  5
30F
100
AcDbEntity
  8
alu
  6
CONTINUOUS
 62
    7
370
    0
100
AcDbLine
 10
1212
 20
-245
 11
1248
 21
-257
  0
SOLID
  5
310
100
AcDbEntity
  8
alu
  6
CONTINUOUS
 62
    7
370
    0
100
AcDbTrace
 10
1212
 20
-245
 30
0
 11
1237.033490124809
 21
-248.9564711297833
 31
0
 12
1234.400674777717
 22
-256.8549171710586
 32
0
 13
1234.400674777717
 23
-256.8549171710586
 33
0
  0
ENDBLK
  5
141
330
13F
100
AcDbEntity
  8
0
100
AcDbBlockEnd
  0
BLOCK
  5
143
330
142
100
AcDbEntity
  8
0
100
AcDbBlockBegin
  2
*D44
 70
    1
 10
0
 20
0
  3
*D44
  1

  0
LINE
  5
311
100
AcDbEntity
  8
legende
  6
ByBlock
 62
  253
370
   -1
100
AcDbLine
 10
499.0565217391304
 20
-1250
 11
639.0565217391304
 21
-1250
  0
MTEXT
  5
312
100
AcDbEntity
  8
legende
  6
CONTINUOUS
 62
    0
370
   -2
100
AcDbMText
 10
569.0565217391304
 20
-1242.1875
 30
0
 40
12.5
 41
16.66666666666666
 71
    5
 72
    1
  1
40
  7
standard
210
0
220
0
230
1
 50
0
 73
    2
 44
1
  0
SOLID
  5
313
100
AcDbEntity
  8
legende
  6
ByBlock
 62
  253
370
   -1
100
AcDbTrace
 10
549.0565217391304
 20
-1250
 30
0
 11
524.0565217391304
 21
-1254.162846577728
 31
0
 12
524.0565217391304
 22
-1245.837153422272
 32
0
 13
524.0565217391304
 23
-1245.837153422272
 33
0
  0
SOLID
  5
314
100
AcDbEntity
  8
legende
  6
ByBlock
 62
  253
370
   -1
100
AcDbTrace
 10
589.0565217391304
 20
-1250
 30
0
 11
614.0565217391304
 21
-1245.837153422272
 31
0
 12
614.0565217391304
 22
-1254.162846577728
 32
0
 13
614.0565217391304
 23
-1254.162846577728
 33
0
  0
LINE
  5
315
100
AcDbEntity
  8
legende
  6
ByBlock
 62
  253
370
   -2
100
AcDbLine
 10
549.0565217391304
 20
-1231.5625
 11
549.0565217391304
 21
-1253.125
  0
LINE
  5
316
100
AcDbEntity
  8
legende
  6
ByBlock
 62
  253
370
   -2
100
AcDbLine
 10
589.0565217391304
 20
-1231.5625
 11
589.0565217391304
 21
-1253.125
  0
ENDBLK
  5
144
330
142
100
AcDbEntity
  8
0
100
AcDbBlockEnd
  0
BLOCK
  5
146
330
145
100
AcDbEntity
  8
0
100
AcDbBlockBegin
  2
*D11
 70
    1
 10
0
 20
0
  3
*D11
  1

  0
LINE
  5
317
100
AcDbEntity
  8
legende
  6
ByBlock
 62
  253
370
   -2
100
AcDbLine
 10
926.135185185185
 20
-1031.5625
 11
926.135185185185
 21
-1073.125
  0
LINE
  5
318
100
AcDbEntity
  8
legende
  6
ByBlock
 62
  253
370
   -2
100
AcDbLine
 10
946.135185185185
 20
-1031.5625
 11
946.135185185185
 21
-1073.125
  0
LINE
  5
319
100
AcDbEntity
  8
legende
  6
ByBlock
 62
  253
370
   -1
100
AcDbLine
 10
876.135185185185
 20
-1070
 11
996.135185185185
 21
-1070
  0
MTEXT
  5
31A
100
AcDbEntity
  8
legende
  6
CONTINUOUS
 62
    0
370
   -2
100
AcDbMText
 10
936.135185185185
 20
-1062.1875
 30
0
 40
12.5
 41
15.27777777777778
 71
    5
 72
    1
  1
20
  7
standard
210
0
220
0
230
1
 50
0
 73
    2
 44
1
  0
SOLID
  5
31B
100
AcDbEntity
  8
legende
  6
ByBlock
 62
  253
370
   -1
100
AcDbTrace
 10
926.135185185185
 20
-1070
 30
0
 11
901.135185185185
 21
-1074.162846577728
 31
0
 12
901.135185185185
 22
-1065.837153422272
 32
0
 13
901.135185185185
 23
-1065.837153422272
 33
0
  0
SOLID
  5
31C
100
AcDbEntity
  8
legende
  6
ByBlock
 62
  253
370
   -1
100
AcDbTrace
 10
946.135185185185
 20
-1070
 30
0
 11
971.135185185185
 21
-1065.837153422272
 31
0
 12
971.135185185185
 22
-1074.162846577728
 32
0
 13
971.135185185185
 23
-1074.162846577728
 33
0
  0
ENDBLK
  5
147
330
145
100
AcDbEntity
  8
0
100
AcDbBlockEnd
  0
BLOCK
  5
149
330
148
100
AcDbEntity
  8
0
100
AcDbBlockBegin
  2
*D57
 70
    1
 10
0
 20
0
  3
*D57
  1

  0
LINE
  5
31D
100
AcDbEntity
  8
legende
  6
ByBlock
 62
  253
370
   -1
100
AcDbLine
 10
317.2321327832805
 20
-1850
 11
404.4930030374808
 21
-1850
  0
MTEXT
  5
31E
100
AcDbEntity
  8
legende
  6
CONTINUOUS
 62
    0
370
   -2
100
AcDbMText
 10
360.8625679103806
 20
-1842.1875
 30
0
 40
12.5
 41
15.27777777777778
 71
    5
 72
    1
  1
87
  7
standard
210
0
220
0
230
1
 50
0
 73
    2
 44
1
  0
SOLID
  5
31F
100
AcDbEntity
  8
legende
  6
ByBlock
 62
  253
370
   -1
100
AcDbTrace
 10
317.2321327832805
 20
-1850
 30
0
 11
342.2321327832805
 21
-1845.837153422272
 31
0
 12
342.2321327832805
 22
-1854.162846577728
 32
0
 13
342.2321327832805
 23
-1854.162846577728
 33
0
  0
SOLID
  5
320
100
AcDbEntity
  8
legende
  6
ByBlock
 62
  253
370
   -1
100
AcDbTrace
 10
404.4930030374808
 20
-1850
 30
0
 11
379.4930030374808
 21
-1854.162846577728
 31
0
 12
379.4930030374808
 22
-1845.837153422272
 32
0
 13
379.4930030374808
 23
-1845.837153422272
 33
0
  0
LINE
  5
321
100
AcDbEntity
  8
legende
  6
ByBlock
 62
  253
370
   -2
100
AcDbLine
 10
317.2321327832805
 20
-1831.562507285576
 11
317.2321327832805
 21
-1853.125
  0
LINE
  5
322
100
AcDbEntity
  8
legende
  6
ByBlock
 62
  253
370
   -2
100
AcDbLine
 10
404.4930030374808
 20
-1801.562509289615
 11
404.4930030374808
 21
-1853.125
  0
ENDBLK
  5
14A
330
148
100
AcDbEntity
  8
0
100
AcDbBlockEnd
  0
ENDSEC
  0
SECTION
  2
ENTITIES
  0
LINE
  5
323
100
AcDbEntity
  8
centre-gravite
  6
ByLayer
 62
  256
370
   -1
100
AcDbLine
 10
530
 20
0
 11
530
 21
630
  0
LINE
  5
324
100
AcDbEntity
  8
centre-gravite
  6
ByLayer
 62
  256
370
   -1
100
AcDbLine
 10
0
 20
156
 11
1
 21
156
  0
LINE
  5
325
100
AcDbEntity
  8
centre-gravite
  6
ByLayer
 62
  256
370
   -1
100
AcDbLine
 10
0
 20
-156
 11
1
 21
-156
  0
LINE
  5
326
100
AcDbEntity
  8
centre-gravite
  6
ByLayer
 62
  256
370
   -1
100
AcDbLine
 10
515
 20
1.83697019872103e-15
 11
515
 21
630
  0
LINE
  5
327
100
AcDbEntity
  8
centre-gravite
  6
ByLayer
 62
  256
370
   -1
100
AcDbLine
 10
545
 20
-3.67394039744206e-15
 11
545
 21
630
  0
LINE
  5
328
100
AcDbEntity
  8
centre-gravite
  6
ByLayer
 62
  256
370
   -1
100
AcDbLine
 10
9.18485099360515e-16
 20
-141
 11
1.000000000000001
 21
-141
  0
LINE
  5
329
100
AcDbEntity
  8
centre-gravite
  6
ByLayer
 62
  256
370
   -1
100
AcDbLine
 10
-2.755455298081544e-15
 20
-171
 11
0.9999999999999972
 21
-171
  0
LINE
  5
32A
100
AcDbEntity
  8
miroir
  6
ByLayer
 62
  256
370
   -1
100
AcDbLine
 10
401.4
 20
0
 11
1000
 21
0
  0
LINE
  5
32B
100
AcDbEntity
  8
miroir
  6
ByLayer
 62
  256
370
   -1
100
AcDbLine
 10
1000
 20
0
 11
1000
 21
-300
  0
LINE
  5
32C
100
AcDbEntity
  8
miroir
  6
ByLayer
 62
  256
370
   -1
100
AcDbLine
 10
1000
 20
-300
 11
18.29999999999995
 21
-300
  0
LINE
  5
32D
100
AcDbEntity
  8
miroir
  6
ByLayer
 62
  256
370
   -1
100
AcDbLine
 10
-4.618527782440651e-14
 20
-138
 11
401.4
 21
0
  0
LINE
  5
32E
100
AcDbEntity
  8
miroir
  6
ByLayer
 62
  256
370
   -1
100
AcDbLine
 10
-4.618527782440651e-14
 20
-138
 11
18.29999999999995
 21
-300
  0
LINE
  5
32F
100
AcDbEntity
  8
alu
  6
ByLayer
 62
  256
370
   -1
100
AcDbLine
 10
1005
 20
-495
 11
415.9434782608695
 21
-495
  0
LINE
  5
330
100
AcDbEntity
  8
alu
  6
ByLayer
 62
  256
370
   -1
100
AcDbLine
 10
415.9434782608695
 20
-495
 11
420.9564368230139
 21
-525
  0
LINE
  5
331
100
AcDbEntity
  8
alu
  6
ByLayer
 62
  256
370
   -1
100
AcDbLine
 10
420.9564368230139
 20
-525
 11
1005
 21
-525
  0
LINE
  5
332
100
AcDbEntity
  8
alu
  6
ByLayer
 62
  256
370
   -1
100
AcDbLine
 10
1005
 20
-525
 11
1005
 21
-495
  0
LINE
  5
333
100
AcDbEntity
  8
alu
  6
ByLayer
 62
  256
370
   -1
100
AcDbLine
 10
975
 20
-525
 11
1005
 21
-525
  0
LINE
  5
334
100
AcDbEntity
  8
alu
  6
ByLayer
 62
  256
370
   -1
100
AcDbLine
 10
1005
 20
-525
 11
1005
 21
-775
  0
LINE
  5
335
100
AcDbEntity
  8
alu
  6
ByLayer
 62
  256
370
   -1
100
AcDbLine
 10
1005
 20
-775
 11
975
 21
-775
  0
LINE
  5
336
100
AcDbEntity
  8
alu
  6
ByLayer
 62
  256
370
   -1
100
AcDbLine
 10
975
 20
-775
 11
975
 21
-525
  0
LINE
  5
337
100
AcDbEntity
  8
alu
  6
ByLayer
 62
  256
370
   -1
100
AcDbLine
 10
1005
 20
-775
 11
1005
 21
-805
  0
LINE
  5
338
100
AcDbEntity
  8
alu
  6
ByLayer
 62
  256
370
   -1
100
AcDbLine
 10
1005
 20
-805
 11
18.86481481481477
 21
-805
  0
LINE
  5
339
100
AcDbEntity
  8
alu
  6
ByLayer
 62
  256
370
   -1
100
AcDbLine
 10
18.86481481481477
 20
-805
 11
45.66672862975001
 21
-775
  0
LINE
  5
33A
100
AcDbEntity
  8
alu
  6
ByLayer
 62
  256
370
   -1
100
AcDbLine
 10
45.66672862975001
 20
-775
 11
1005
 21
-775
  0
LINE
  5
33B
100
AcDbEntity
  8
alu
  6
ByLayer
 62
  256
370
   -1
100
AcDbLine
 10
18.86481481481478
 20
-805
 11
-4.796163466380676e-14
 21
-638
  0
LINE
  5
33C
100
AcDbEntity
  8
alu
  6
ByLayer
 62
  256
370
   -1
100
AcDbLine
 10
-4.796163466380676e-14
 20
-638
 11
32.51174076956587
 21
-658.5460091065665
  0
LINE
  5
33D
100
AcDbEntity
  8
alu
  6
ByLayer
 62
  256
370
   -1
100
AcDbLine
 10
32.51174076956587
 20
-658.5460091065665
 11
45.66672862975001
 21
-775
  0
LINE
  5
33E
100
AcDbEntity
  8
alu
  6
ByLayer
 62
  256
370
   -1
100
AcDbLine
 10
45.66672862975001
 20
-775
 11
18.86481481481478
 21
-805
  0
LINE
  5
33F
100
AcDbEntity
  8
alu
  6
ByLayer
 62
  256
370
   -1
100
AcDbLine
 10
-4.796163466380676e-14
 20
-638
 11
415.9434782608695
 21
-495
  0
LINE
  5
340
100
AcDbEntity
  8
alu
  6
ByLayer
 62
  256
370
   -1
100
AcDbLine
 10
415.9434782608695
 20
-495
 11
420.9564368230139
 21
-525
  0
LINE
  5
341
100
AcDbEntity
  8
alu
  6
ByLayer
 62
  256
370
   -1
100
AcDbLine
 10
420.9564368230139
 20
-525
 11
32.51174076956587
 21
-658.5460091065665
  0
LINE
  5
342
100
AcDbEntity
  8
alu
  6
ByLayer
 62
  256
370
   -1
100
AcDbLine
 10
975
 20
-671
 11
975
 21
-641
  0
LINE
  5
343
100
AcDbEntity
  8
alu
  6
ByLayer
 62
  256
370
   -1
100
AcDbLine
 10
545
 20
-525
 11
515
 21
-525
  0
LINE
  5
344
100
AcDbEntity
  8
alu
  6
ByLayer
 62
  256
370
   -1
100
AcDbLine
 10
545
 20
-775
 11
515
 21
-775
  0
LINE
  5
345
100
AcDbEntity
  8
cornière
  6
ByLayer
 62
  256
370
   -1
100
AcDbLine
 10
435.9434782608695
 20
-495
 11
435.9434782608695
 21
-515
  0
LINE
  5
346
100
AcDbEntity
  8
cornière
  6
ByLayer
 62
  256
370
   -1
100
AcDbLine
 10
435.9434782608695
 20
-515
 11
1005
 21
-515
  0
LINE
  5
347
100
AcDbEntity
  8
cornière
  6
ByLayer
 62
  256
370
   -1
100
AcDbLine
 10
1005
 20
-515
 11
1005
 21
-495
  0
LINE
  5
348
100
AcDbEntity
  8
cornière
  6
ByLayer
 62
  256
370
   -1
100
AcDbLine
 10
1005
 20
-495
 11
435.9434782608695
 21
-495
  0
LINE
  5
349
100
AcDbEntity
  8
cornière
  6
ByLayer
 62
  256
370
   -1
100
AcDbLine
 10
1005
 20
-525
 11
985
 21
-525
  0
LINE
  5
34A
100
AcDbEntity
  8
cornière
  6
ByLayer
 62
  256
370
   -1
100
AcDbLine
 10
985
 20
-525
 11
985
 21
-775
  0
LINE
  5
34B
100
AcDbEntity
  8
cornière
  6
ByLayer
 62
  256
370
   -1
100
AcDbLine
 10
985
 20
-775
 11
1005
 21
-775
  0
LINE
  5
34C
100
AcDbEntity
  8
cornière
  6
ByLayer
 62
  256
370
   -1
100
AcDbLine
 10
1005
 20
-775
 11
1005
 21
-525
  0
LINE
  5
34D
100
AcDbEntity
  8
cornière
  6
ByLayer
 62
  256
370
   -1
100
AcDbLine
 10
1005
 20
-805
 11
1005
 21
-785
  0
LINE
  5
34E
100
AcDbEntity
  8
cornière
  6
ByLayer
 62
  256
370
   -1
100
AcDbLine
 10
1005
 20
-785
 11
18.86481481481479
 21
-785
  0
LINE
  5
34F
100
AcDbEntity
  8
cornière
  6
ByLayer
 62
  256
370
   -1
100
AcDbLine
 10
18.86481481481479
 20
-785
 11
18.86481481481479
 21
-805.0000000000001
  0
LINE
  5
350
100
AcDbEntity
  8
cornière
  6
ByLayer
 62
  256
370
   -1
100
AcDbLine
 10
18.86481481481479
 20
-805.0000000000001
 11
1005
 21
-805
  0
LWPOLYLINE
  5
351
100
AcDbEntity
  8
vis
  6
ByLayer
 62
  256
370
   -1
100
AcDbPolyline
 90
    4
 70
    1
 43
0
 10
489.9434782608695
 20
-485
 10
501.9434782608695
 20
-485
 10
501.9434782608695
 20
-495
 10
489.9434782608695
 20
-495
  0
LWPOLYLINE
  5
352
100
AcDbEntity
  8
vis
  6
ByLayer
 62
  256
370
   -1
100
AcDbPolyline
 90
    4
 70
    1
 43
0
 10
489.9434782608695
 20
-525
 10
501.9434782608695
 20
-525
 10
501.9434782608695
 20
-535
 10
489.9434782608695
 20
-535
  0
LWPOLYLINE
  5
353
100
AcDbEntity
  8
vis
  6
ByLayer
 62
  256
370
   -1
100
AcDbPolyline
 90
    4
 70
    1
 43
0
 10
959
 20
-485
 10
971
 20
-485
 10
971
 20
-495
 10
959
 20
-495
  0
LWPOLYLINE
  5
354
100
AcDbEntity
  8
vis
  6
ByLayer
 62
  256
370
   -1
100
AcDbPolyline
 90
    4
 70
    1
 43
0
 10
959
 20
-525
 10
971
 20
-525
 10
971
 20
-535
 10
959
 20
-535
  0
LWPOLYLINE
  5
355
100
AcDbEntity
  8
vis
  6
ByLayer
 62
  256
370
   -1
100
AcDbPolyline
 90
    4
 70
    1
 43
0
 10
965
 20
-579
 10
975
 20
-579
 10
975
 20
-591
 10
965
 20
-591
  0
LWPOLYLINE
  5
356
100
AcDbEntity
  8
vis
  6
ByLayer
 62
  256
370
   -1
100
AcDbPolyline
 90
    4
 70
    1
 43
0
 10
1005
 20
-579
 10
1015
 20
-579
 10
1015
 20
-591
 10
1005
 20
-591
  0
LWPOLYLINE
  5
357
100
AcDbEntity
  8
vis
  6
ByLayer
 62
  256
370
   -1
100
AcDbPolyline
 90
    4
 70
    1
 43
0
 10
1015
 20
-721
 10
1005
 20
-721
 10
1005
 20
-709
 10
1015
 20
-709
  0
LWPOLYLINE
  5
358
100
AcDbEntity
  8
vis
  6
ByLayer
 62
  256
370
   -1
100
AcDbPolyline
 90
    4
 70
    1
 43
0
 10
975
 20
-709
 10
965
 20
-709
 10
965
 20
-721
 10
975
 20
-721
  0
LWPOLYLINE
  5
359
100
AcDbEntity
  8
vis
  6
ByLayer
 62
  256
370
   -1
100
AcDbPolyline
 90
    4
 70
    1
 43
0
 10
971
 20
-815
 10
959
 20
-815
 10
959
 20
-805
 10
971
 20
-805
  0
LWPOLYLINE
  5
35A
100
AcDbEntity
  8
vis
  6
ByLayer
 62
  256
370
   -1
100
AcDbPolyline
 90
    4
 70
    1
 43
0
 10
959
 20
-765
 10
971
 20
-765
 10
971
 20
-775
 10
959
 20
-775
  0
LWPOLYLINE
  5
35B
100
AcDbEntity
  8
vis
  6
ByLayer
 62
  256
370
   -1
100
AcDbPolyline
 90
    4
 70
    1
 43
0
 10
951
 20
-765
 10
939
 20
-765
 10
939
 20
-775
 10
951
 20
-775
  0
LWPOLYLINE
  5
35C
100
AcDbEntity
  8
vis
  6
ByLayer
 62
  256
370
   -1
100
AcDbPolyline
 90
    4
 70
    1
 43
0
 10
951
 20
-815
 10
939
 20
-815
 10
939
 20
-805
 10
951
 20
-805
  0
LWPOLYLINE
  5
35D
100
AcDbEntity
  8
vis
  6
ByLayer
 62
  256
370
   -1
100
AcDbPolyline
 90
    4
 70
    1
 43
0
 10
501.9434782608695
 20
-815
 10
489.9434782608695
 20
-815
 10
489.9434782608695
 20
-805
 10
501.9434782608695
 20
-805
  0
LWPOLYLINE
  5
35E
100
AcDbEntity
  8
vis
  6
ByLayer
 62
  256
370
   -1
100
AcDbPolyline
 90
    4
 70
    1
 43
0
 10
489.9434782608695
 20
-765
 10
501.9434782608695
 20
-765
 10
501.9434782608695
 20
-775
 10
489.9434782608695
 20
-775
  0
LWPOLYLINE
  5
35F
100
AcDbEntity
  8
vis
  6
ByLayer
 62
  256
370
   -1
100
AcDbPolyline
 90
    4
 70
    1
 43
0
 10
84.86481481481479
 20
-815.0000000000001
 10
72.86481481481479
 20
-815.0000000000001
 10
72.86481481481479
 20
-805.0000000000001
 10
84.86481481481479
 20
-805.0000000000001
  0
LWPOLYLINE
  5
360
100
AcDbEntity
  8
vis
  6
ByLayer
 62
  256
370
   -1
100
AcDbPolyline
 90
    4
 70
    1
 43
0
 10
72.86481481481479
 20
-765
 10
84.86481481481479
 20
-765
 10
84.86481481481479
 20
-775
 10
72.86481481481479
 20
-775
  0
LWPOLYLINE
  5
361
100
AcDbEntity
  8
vis
  6
DOTTINY
 62
  256
370
   -1
100
AcDbPolyline
 90
    4
 70
    1
 43
0
 10
492.9434782608695
 20
-485
 10
498.9434782608695
 20
-485
 10
498.9434782608695
 20
-535
 10
492.9434782608695
 20
-535
  0
LWPOLYLINE
  5
362
100
AcDbEntity
  8
vis
  6
DOTTINY
 62
  256
370
   -1
100
AcDbPolyline
 90
    4
 70
    1
 43
0
 10
962
 20
-485
 10
968
 20
-485
 10
968
 20
-535
 10
962
 20
-535
  0
LWPOLYLINE
  5
363
100
AcDbEntity
  8
vis
  6
DOTTINY
 62
  256
370
   -1
100
AcDbPolyline
 90
    4
 70
    1
 43
0
 10
1015
 20
-582
 10
965
 20
-582
 10
965
 20
-588
 10
1015
 20
-588
  0
LWPOLYLINE
  5
364
100
AcDbEntity
  8
vis
  6
DOTTINY
 62
  256
370
   -1
100
AcDbPolyline
 90
    4
 70
    1
 43
0
 10
965
 20
-712
 10
1015
 20
-712
 10
1015
 20
-718
 10
965
 20
-718
  0
LWPOLYLINE
  5
365
100
AcDbEntity
  8
vis
  6
DOTTINY
 62
  256
370
   -1
100
AcDbPolyline
 90
    4
 70
    1
 43
0
 10
962
 20
-765
 10
968
 20
-765
 10
968
 20
-815
 10
962
 20
-815
  0
LWPOLYLINE
  5
366
100
AcDbEntity
  8
vis
  6
DOTTINY
 62
  256
370
   -1
100
AcDbPolyline
 90
    4
 70
    1
 43
0
 10
942
 20
-765
 10
948
 20
-765
 10
948
 20
-815
 10
942
 20
-815
  0
LWPOLYLINE
  5
367
100
AcDbEntity
  8
vis
  6
DOTTINY
 62
  256
370
   -1
100
AcDbPolyline
 90
    4
 70
    1
 43
0
 10
492.9434782608695
 20
-765
 10
498.9434782608695
 20
-765
 10
498.9434782608695
 20
-815
 10
492.9434782608695
 20
-815
  0
LWPOLYLINE
  5
368
100
AcDbEntity
  8
vis
  6
DOTTINY
 62
  256
370
   -1
100
AcDbPolyline
 90
    4
 70
    1
 43
0
 10
75.86481481481479
 20
-765
 10
81.86481481481479
 20
-765
 10
81.86481481481479
 20
-815.0000000000001
 10
75.86481481481479
 20
-815.0000000000001
  0
LINE
  5
369
100
AcDbEntity
  8
tube
  6
ByLayer
 62
  256
370
   -1
100
AcDbLine
 10
1025
 20
-777.5
 11
955
 21
-777.5
  0
LINE
  5
36A
100
AcDbEntity
  8
tube
  6
ByLayer
 62
  256
370
   -1
100
AcDbLine
 10
955
 20
-777.5
 11
955
 21
-802.5
  0
LINE
  5
36B
100
AcDbEntity
  8
tube
  6
ByLayer
 62
  256
370
   -1
100
AcDbLine
 10
955
 20
-497.5
 11
955
 21
-522.5
  0
CIRCLE
  5
36C
100
AcDbEntity
  8
tube
  6
ByLayer
 62
  256
370
   -1
100
AcDbCircle
 10
1015
 20
-510
 40
4
  0
CIRCLE
  5
36D
100
AcDbEntity
  8
tube
  6
ByLayer
 62
  256
370
   -1
100
AcDbCircle
 10
1015
 20
-790
 40
4
  0
LINE
  5
36E
100
AcDbEntity
  8
tube
  6
ByLayer
 62
  256
370
   -1
100
AcDbLine
 10
955
 20
-802.5
 11
1025
 21
-802.5
  0
LINE
  5
36F
100
AcDbEntity
  8
tube
  6
ByLayer
 62
  256
370
   -1
100
AcDbLine
 10
1025
 20
-802.5
 11
1025
 21
-777.5
  0
LINE
  5
370
100
AcDbEntity
  8
tube
  6
ByLayer
 62
  256
370
   -1
100
AcDbLine
 10
955
 20
-522.5
 11
1025
 21
-522.5
  0
LINE
  5
371
100
AcDbEntity
  8
tube
  6
ByLayer
 62
  256
370
   -1
100
AcDbLine
 10
1025
 20
-522.5
 11
1025
 21
-497.5
  0
LINE
  5
372
100
AcDbEntity
  8
tube
  6
ByLayer
 62
  256
370
   -1
100
AcDbLine
 10
1025
 20
-497.5
 11
955
 21
-497.5
  0
MTEXT
  5
373
100
AcDbEntity
  8
vis
  6
ByLayer
 62
  256
370
   -1
100
AcDbMText
 10
959
 20
-485
 30
0
 40
20
 41
20.00000000000124
 71
    7
 72
    1
  1
15
  7
standard
210
0
220
0
230
1
 50
0
 73
    2
 44
1
  0
MTEXT
  5
374
100
AcDbEntity
  8
vis
  6
ByLayer
 62
  256
370
   -1
100
AcDbMText
 10
959
 20
-765
 30
0
 40
20
 41
20.00000000000124
 71
    7
 72
    1
  1
15
  7
standard
210
0
220
0
230
1
 50
0
 73
    2
 44
1
  0
MTEXT
  5
375
100
AcDbEntity
  8
vis
  6
ByLayer
 62
  256
370
   -1
100
AcDbMText
 10
489.9434782608695
 20
-485
 30
0
 40
20
 41
8.888888888890129
 71
    7
 72
    1
  1
5
  7
standard
210
0
220
0
230
1
 50
0
 73
    2
 44
1
  0
MTEXT
  5
376
100
AcDbEntity
  8
vis
  6
ByLayer
 62
  256
370
   -1
100
AcDbMText
 10
1015
 20
-709
 30
0
 40
20
 41
8.888888888890129
 71
    7
 72
    1
  1
5
  7
standard
210
0
220
0
230
1
 50
0
 73
    2
 44
1
  0
MTEXT
  5
377
100
AcDbEntity
  8
vis
  6
ByLayer
 62
  256
370
   -1
100
AcDbMText
 10
939
 20
-765
 30
0
 40
20
 41
8.888888888890129
 71
    7
 72
    1
  1
5
  7
standard
210
0
220
0
230
1
 50
0
 73
    2
 44
1
  0
MTEXT
  5
378
100
AcDbEntity
  8
vis
  6
ByLayer
 62
  256
370
   -1
100
AcDbMText
 10
489.9434782608695
 20
-765
 30
0
 40
20
 41
8.888888888890129
 71
    7
 72
    1
  1
5
  7
standard
210
0
220
0
230
1
 50
0
 73
    2
 44
1
  0
MTEXT
  5
379
100
AcDbEntity
  8
vis
  6
ByLayer
 62
  256
370
   -1
100
AcDbMText
 10
72.86481481481479
 20
-765
 30
0
 40
20
 41
8.888888888890129
 71
    7
 72
    1
  1
5
  7
standard
210
0
220
0
230
1
 50
0
 73
    2
 44
1
  0
MTEXT
  5
37A
100
AcDbEntity
  8
vis
  6
ByLayer
 62
  256
370
   -1
100
AcDbMText
 10
1015
 20
-579
 30
0
 40
20
 41
8.888888888890129
 71
    7
 72
    1
  1
5
  7
standard
210
0
220
0
230
1
 50
0
 73
    2
 44
1
  0
LINE
  5
37B
100
AcDbEntity
  8
alu
  6
ByLayer
 62
  256
370
   -1
100
AcDbLine
 10
1210
 20
-259
 11
1150
 21
-259
  0
LINE
  5
37C
100
AcDbEntity
  8
alu
  6
ByLayer
 62
  256
370
   -1
100
AcDbLine
 10
1150
 20
-229
 11
1210
 21
-229
  0
LINE
  5
37D
100
AcDbEntity
  8
alu
  6
ByLayer
 62
  256
370
   -1
100
AcDbLine
 10
1150
 20
-226
 11
1210
 21
-226
  0
LINE
  5
37E
100
AcDbEntity
  8
alu
  6
ByLayer
 62
  256
370
   -1
100
AcDbLine
 10
1150
 20
-220
 11
1210
 21
-220
  0
LINE
  5
37F
100
AcDbEntity
  8
alu
  6
ByLayer
 62
  256
370
   -1
100
AcDbLine
 10
1180
 20
-229
 11
1180
 21
-259
  0
MTEXT
  5
380
100
AcDbEntity
  8
alu
  6
ByLayer
 62
  256
370
   -1
100
AcDbMText
 10
1250
 20
-260
 30
0
 40
10
 41
61.11492083135725
 71
    7
 72
    1
  1
miroir\Pvelcro\Pstructure
  7
standard
210
0
220
0
230
1
 50
0
 73
    2
 44
1
  0
LEADER
  5
381
100
AcDbEntity
  8
alu
  6
ByLayer
 62
  256
370
   -1
100
AcDbLeader
  3
Standard
 71
    1
 72
    0
 73
    3
 74
    0
 75
    0
 40
1
 41
10
 76
2
 76
2
 10
1212
 20
-223
 30
0
 10
1248
 20
-223
 30
0
  0
LEADER
  5
382
100
AcDbEntity
  8
alu
  6
ByLayer
 62
  256
370
   -1
100
AcDbLeader
  3
Standard
 71
    1
 72
    0
 73
    3
 74
    0
 75
    0
 40
1
 41
10
 76
2
 76
2
 10
1212
 20
-227.5
 30
0
 10
1248
 20
-240
 30
0
  0
LEADER
  5
383
100
AcDbEntity
  8
alu
  6
ByLayer
 62
  256
370
   -1
100
AcDbLeader
  3
Standard
 71
    1
 72
    0
 73
    3
 74
    0
 75
    0
 40
1
 41
10
 76
2
 76
2
 10
1212
 20
-245
 30
0
 10
1248
 20
-257
 30
0
  0
LINE
  5
384
100
AcDbEntity
  8
alu
  6
ByLayer
 62
  256
370
   -1
100
AcDbLine
 10
1111
 20
-160
 11
1111
 21
-220
  0
LINE
  5
385
100
AcDbEntity
  8
alu
  6
ByLayer
 62
  256
370
   -1
100
AcDbLine
 10
1141
 20
-220
 11
1141
 21
-160
  0
LINE
  5
386
100
AcDbEntity
  8
alu
  6
ByLayer
 62
  256
370
   -1
100
AcDbLine
 10
1144
 20
-220
 11
1144
 21
-160
  0
LINE
  5
387
100
AcDbEntity
  8
alu
  6
ByLayer
 62
  256
370
   -1
100
AcDbLine
 10
1150
 20
-220
 11
1150
 21
-160
  0
LINE
  5
388
100
AcDbEntity
  8
alu
  6
ByLayer
 62
  256
370
   -1
100
AcDbLine
 10
1141
 20
-190
 11
1111
 21
-190
  0
LINE
  5
389
100
AcDbEntity
  8
vis
  6
ByLayer
 62
  256
370
   -1
100
AcDbLine
 10
1132
 20
-190.0000002066946
 11
1120
 21
-189.9999999311018
  0
DIMENSION
  5
38A
100
AcDbEntity
  8
alu
  6
ByLayer
 62
  256
370
   -1
100
AcDbDimension
  2
*D4
 10
1144
 20
-140
 30
0
 11
1147
 21
-132.1875
 31
0
 70
   33
 71
    5
 72
    0
  3
Standard
 53
0
210
0
220
0
230
1
100
AcDbAlignedDimension
 13
1150
 23
-160
 33
0
 14
1144
 24
-160
 34
0
  0
DIMENSION
  5
38B
100
AcDbEntity
  8
alu
  6
ByLayer
 62
  256
370
   -1
100
AcDbDimension
  2
*D5
 10
1141
 20
-120
 30
0
 11
1142.5
 21
-112.1875
 31
0
 70
   33
 71
    5
 72
    0
  3
Standard
 53
0
210
0
220
0
230
1
100
AcDbAlignedDimension
 13
1144
 23
-160
 33
0
 14
1141
 24
-160
 34
0
  0
DIMENSION
  5
38C
100
AcDbEntity
  8
alu
  6
ByLayer
 62
  256
370
   -1
100
AcDbDimension
  2
*D6
 10
1111
 20
-100
 30
0
 11
1126
 21
-92.1875
 31
0
 70
   33
 71
    5
 72
    0
  3
Standard
 53
0
210
0
220
0
230
1
100
AcDbAlignedDimension
 13
1141
 23
-160
 33
0
 14
1111
 24
-160
 34
0
  0
LINE
  5
38D
100
AcDbEntity
  8
alu
  6
ByLayer
 62
  256
370
    0
100
AcDbLine
 10
986.135185185185
 20
-1030
 11
956.135185185185
 21
-1030
  0
LINE
  5
38E
100
AcDbEntity
  8
alu
  6
ByLayer
 62
  256
370
    0
100
AcDbLine
 10
986.135185185185
 20
-1030
 11
986.135185185185
 21
-1000
  0
LINE
  5
38F
100
AcDbEntity
  8
alu
  6
ByLayer
 62
  256
370
    0
100
AcDbLine
 10
986.135185185185
 20
-1000
 11
0
 21
-1000
  0
LINE
  5
390
100
AcDbEntity
  8
alu
  6
ByLayer
 62
  256
370
    0
100
AcDbLine
 10
0
 20
-1000
 11
26.80191381493523
 21
-1030
  0
LINE
  5
391
100
AcDbEntity
  8
alu
  6
ByLayer
 62
  256
370
    0
100
AcDbLine
 10
26.80191381493523
 20
-1030
 11
986.135185185185
 21
-1030
  0
LINE
  5
392
100
AcDbEntity
  8
alu
  6
ByLayer
 62
  256
370
    0
100
AcDbLine
 10
26.80191381493523
 20
-1030
 11
0
 21
-1000
  0
LINE
  5
393
100
AcDbEntity
  8
alu
  6
ByLayer
 62
  256
370
    0
100
AcDbLine
 10
526.135185185185
 20
-1030
 11
496.135185185185
 21
-1030
  0
LINE
  5
394
100
AcDbEntity
  8
trous
  6
ByLayer
 62
  256
370
    0
100
AcDbLine
 10
63
 20
-1000
 11
57
 21
-1000
  0
LINE
  5
395
100
AcDbEntity
  8
trous
  6
ByLayer
 62
  256
370
    0
100
AcDbLine
 10
57
 20
-1000
 11
57
 21
-1030
  0
LINE
  5
396
100
AcDbEntity
  8
trous
  6
ByLayer
 62
  256
370
    0
100
AcDbLine
 10
57
 20
-1030
 11
63
 21
-1030
  0
LINE
  5
397
100
AcDbEntity
  8
trous
  6
ByLayer
 62
  256
370
    0
100
AcDbLine
 10
63
 20
-1030
 11
63
 21
-1000
  0
LINE
  5
398
100
AcDbEntity
  8
trous
  6
ByLayer
 62
  256
370
    0
100
AcDbLine
 10
474.0786634460546
 20
-1000
 11
480
 21
-1000
  0
LINE
  5
399
100
AcDbEntity
  8
trous
  6
ByLayer
 62
  256
370
    0
100
AcDbLine
 10
480
 20
-1000
 11
480.0786634460546
 21
-1030
  0
LINE
  5
39A
100
AcDbEntity
  8
trous
  6
ByLayer
 62
  256
370
    0
100
AcDbLine
 10
480.0786634460546
 20
-1030
 11
474.0786634460546
 21
-1030
  0
LINE
  5
39B
100
AcDbEntity
  8
trous
  6
ByLayer
 62
  256
370
    0
100
AcDbLine
 10
474.0786634460546
 20
-1030
 11
474.0786634460546
 21
-1000
  0
LWPOLYLINE
  5
39C
100
AcDbEntity
  8
trous
  6
ByLayer
 62
  256
370
    0
100
AcDbPolyline
 90
    4
 70
    1
 43
0
 10
923.135185185185
 20
-1000
 10
929.135185185185
 20
-1000
 10
929.135185185185
 20
-1030
 10
923.135185185185
 20
-1030
  0
LWPOLYLINE
  5
39D
100
AcDbEntity
  8
trous
  6
ByLayer
 62
  256
370
    0
100
AcDbPolyline
 90
    4
 70
    1
 43
0
 10
943.135185185185
 20
-1000
 10
949.135185185185
 20
-1000
 10
949.135185185185
 20
-1030
 10
943.135185185185
 20
-1030
  0
MTEXT
  5
39E
100
AcDbEntity
  8
legende
  6
ByLayer
 62
  256
370
    0
100
AcDbMText
 10
63
 20
-1015
 30
0
 40
20
 41
8.888888888890129
 71
    4
 72
    1
  1
5
  7
standard
210
0
220
0
230
1
 50
0
 73
    2
 44
1
  0
MTEXT
  5
39F
100
AcDbEntity
  8
legende
  6
ByLayer
 62
  256
370
    0
100
AcDbMText
 10
480.0393317230273
 20
-1015
 30
0
 40
20
 41
8.888888888890129
 71
    4
 72
    1
  1
5
  7
standard
210
0
220
0
230
1
 50
0
 73
    2
 44
1
  0
MTEXT
  5
3A0
100
AcDbEntity
  8
legende
  6
ByLayer
 62
  256
370
    0
100
AcDbMText
 10
929.135185185185
 20
-1015
 30
0
 40
20
 41
8.888888888890129
 71
    4
 72
    1
  1
5
  7
standard
210
0
220
0
230
1
 50
0
 73
    2
 44
1
  0
MTEXT
  5
3A1
100
AcDbEntity
  8
legende
  6
ByLayer
 62
  256
370
    0
100
AcDbMText
 10
949.135185185185
 20
-1015
 30
0
 40
20
 41
20.00000000000124
 71
    4
 72
    1
  1
15
  7
standard
210
0
220
0
230
1
 50
0
 73
    2
 44
1
  0
DIMENSION
  5
3A2
100
AcDbEntity
  8
legende
  6
ByLayer
 62
  256
370
    0
100
AcDbDimension
  2
*D7
 10
60
 20
-1050
 30
0
 11
30
 21
-1042.1875
 31
0
 70
   32
 71
    5
 72
    0
  3
Standard
 53
0
210
0
220
0
230
1
100
AcDbAlignedDimension
 13
0
 23
-1030
 33
0
 14
60
 24
-1030
 34
0
100
AcDbRotatedDimension
  0
DIMENSION
  5
3A3
100
AcDbEntity
  8
legende
  6
ByLayer
 62
  256
370
    0
100
AcDbDimension
  2
*D8
 10
477.0786634460546
 20
-1050
 30
0
 11
268.5393317230273
 21
-1042.1875
 31
0
 70
   32
 71
    5
 72
    0
  3
Standard
 53
0
210
0
220
0
230
1
100
AcDbAlignedDimension
 13
60
 23
-1030
 33
0
 14
477.0786634460546
 24
-1030
 34
0
100
AcDbRotatedDimension
  0
DIMENSION
  5
3A4
100
AcDbEntity
  8
legende
  6
ByLayer
 62
  256
370
    0
100
AcDbDimension
  2
*D9
 10
926.135185185185
 20
-1050
 30
0
 11
701.6069243156198
 21
-1042.1875
 31
0
 70
   32
 71
    5
 72
    0
  3
Standard
 53
0
210
0
220
0
230
1
100
AcDbAlignedDimension
 13
477.0786634460546
 23
-1030
 33
0
 14
926.135185185185
 24
-1030
 34
0
100
AcDbRotatedDimension
  0
DIMENSION
  5
3A5
100
AcDbEntity
  8
legende
  6
ByLayer
 62
  256
370
    0
100
AcDbDimension
  2
*D10
 10
986.135185185185
 20
-1050
 30
0
 11
966.135185185185
 21
-1042.1875
 31
0
 70
   33
 71
    5
 72
    0
  3
Standard
 53
0
210
0
220
0
230
1
100
AcDbAlignedDimension
 13
946.135185185185
 23
-1030
 33
0
 14
986.135185185185
 24
-1030
 34
0
  0
DIMENSION
  5
3A6
100
AcDbEntity
  8
legende
  6
ByLayer
 62
  256
370
    0
100
AcDbDimension
  2
*D11
 10
946.135185185185
 20
-1070
 30
0
 11
936.135185185185
 21
-1062.1875
 31
0
 70
   33
 71
    5
 72
    0
  3
Standard
 53
0
210
0
220
0
230
1
100
AcDbAlignedDimension
 13
926.135185185185
 23
-1030
 33
0
 14
946.135185185185
 24
-1030
 34
0
  0
DIMENSION
  5
3A7
100
AcDbEntity
  8
legende
  6
ByLayer
 62
  256
370
    0
100
AcDbDimension
  2
*D12
 10
26.80191381493523
 20
-1070
 30
0
 11
13.40095690746761
 21
-1062.1875
 31
0
 70
   32
 71
    5
 72
    0
  3
Standard
 53
0
210
0
220
0
230
1
100
AcDbAlignedDimension
 13
0
 23
-1000
 33
0
 14
26.80191381493523
 24
-1030
 34
0
100
AcDbRotatedDimension
  0
DIMENSION
  5
3A8
100
AcDbEntity
  8
legende
  6
ByLayer
 62
  256
370
    0
100
AcDbDimension
  2
*D13
 10
986.135185185185
 20
-1080
 30
0
 11
493.0675925925925
 21
-1072.1875
 31
0
 70
   32
 71
    5
 72
    0
  3
Standard
 53
0
210
0
220
0
230
1
100
AcDbAlignedDimension
 13
0
 23
-1000
 33
0
 14
986.135185185185
 24
-1000
 34
0
100
AcDbRotatedDimension
  0
DIMENSION
  5
3A9
100
AcDbEntity
  8
legende
  6
ByLayer
 62
  256
370
    0
100
AcDbDimension
  2
*D14
 10
986.135185185185
 20
-1000
 30
0
 11
-2000
 21
0
 31
0
 70
   34
 71
    5
 72
    0
  3
Standard
 53
0
210
0
220
0
230
1
100
AcDb2LineAngularDimension
 13
0
 23
-1000
 33
0
 14
26.80191381493523
 24
-1030
 34
0
 15
0
 25
-1000
 35
0
 16
30
 26
-1010
 36
0
  0
MTEXT
  5
3AA
100
AcDbEntity
  8
legende
  6
ByLayer
 62
  256
370
    0
100
AcDbMText
 10
0
 20
-970
 30
0
 40
20
 41
157.2222222222266
 71
    4
 72
    1
  1
carré 30×30
  7
standard
210
0
220
0
230
1
 50
0
 73
    2
 44
1
  0
LINE
  5
3AB
100
AcDbEntity
  8
cornière
  6
ByLayer
 62
  256
370
    0
100
AcDbLine
 10
2186.135185185185
 20
-1000
 11
2186.135185185185
 21
-1020
  0
LINE
  5
3AC
100
AcDbEntity
  8
cornière
  6
ByLayer
 62
  256
370
    0
100
AcDbLine
 10
2186.135185185185
 20
-1020
 11
1200
 21
-1020
  0
LINE
  5
3AD
100
AcDbEntity
  8
cornière
  6
ByLayer
 62
  256
370
    0
100
AcDbLine
 10
1200
 20
-1020
 11
1200
 21
-1000
  0
LINE
  5
3AE
100
AcDbEntity
  8
cornière
  6
ByLayer
 62
  256
370
    0
100
AcDbLine
 10
1200
 20
-1000
 11
2186.135185185185
 21
-1000
  0
LINE
  5
3AF
100
AcDbEntity
  8
cornière
  6
ByLayer
 62
  256
370
    0
100
AcDbLine
 10
1200
 20
-1120
 11
1200
 21
-1100
  0
LINE
  5
3B0
100
AcDbEntity
  8
cornière
  6
ByLayer
 62
  256
370
    0
100
AcDbLine
 10
1200
 20
-1100
 11
1769.05652173913
 21
-1100
  0
LINE
  5
3B1
100
AcDbEntity
  8
cornière
  6
ByLayer
 62
  256
370
    0
100
AcDbLine
 10
1769.05652173913
 20
-1100
 11
1769.05652173913
 21
-1120
  0
LINE
  5
3B2
100
AcDbEntity
  8
cornière
  6
ByLayer
 62
  256
370
    0
100
AcDbLine
 10
1769.05652173913
 20
-1120
 11
1200
 21
-1120
  0
LINE
  5
3B3
100
AcDbEntity
  8
cornière
  6
ByLayer
 62
  256
370
    0
100
AcDbLine
 10
1450
 20
-1200
 11
1450
 21
-1220
  0
LINE
  5
3B4
100
AcDbEntity
  8
cornière
  6
ByLayer
 62
  256
370
    0
100
AcDbLine
 10
1450
 20
-1220
 11
1200
 21
-1220
  0
LINE
  5
3B5
100
AcDbEntity
  8
cornière
  6
ByLayer
 62
  256
370
    0
100
AcDbLine
 10
1200
 20
-1220
 11
1200
 21
-1200
  0
LINE
  5
3B6
100
AcDbEntity
  8
cornière
  6
ByLayer
 62
  256
370
    0
100
AcDbLine
 10
1200
 20
-1200
 11
1450
 21
-1200
  0
LINE
  5
3B7
100
AcDbEntity
  8
cornière
  6
ByLayer
 62
  256
370
    0
100
AcDbLine
 10
1200
 20
-1001
 11
2186.135185185185
 21
-1001
  0
LINE
  5
3B8
100
AcDbEntity
  8
cornière
  6
ByLayer
 62
  256
370
    0
100
AcDbLine
 10
1200
 20
-1101
 11
1769.05652173913
 21
-1101
  0
LINE
  5
3B9
100
AcDbEntity
  8
cornière
  6
ByLayer
 62
  256
370
    0
100
AcDbLine
 10
1200
 20
-1201
 11
1450
 21
-1201
  0
CIRCLE
  5
3BA
100
AcDbEntity
  8
cornière
  6
ByLayer
 62
  256
370
    0
100
AcDbCircle
 10
1260
 20
-1015
 40
3
  0
CIRCLE
  5
3BB
100
AcDbEntity
  8
cornière
  6
ByLayer
 62
  256
370
    0
100
AcDbCircle
 10
1677.078663446055
 20
-1015
 40
3
  0
CIRCLE
  5
3BC
100
AcDbEntity
  8
cornière
  6
ByLayer
 62
  256
370
    0
100
AcDbCircle
 10
2126.135185185185
 20
-1015
 40
3
  0
CIRCLE
  5
3BD
100
AcDbEntity
  8
cornière
  6
ByLayer
 62
  256
370
    0
100
AcDbCircle
 10
1260
 20
-1115
 40
3
  0
CIRCLE
  5
3BE
100
AcDbEntity
  8
cornière
  6
ByLayer
 62
  256
370
    0
100
AcDbCircle
 10
1709.05652173913
 20
-1115
 40
3
  0
CIRCLE
  5
3BF
100
AcDbEntity
  8
cornière
  6
ByLayer
 62
  256
370
    0
100
AcDbCircle
 10
1260
 20
-1215
 40
3
  0
CIRCLE
  5
3C0
100
AcDbEntity
  8
cornière
  6
ByLayer
 62
  256
370
    0
100
AcDbCircle
 10
1390
 20
-1215
 40
3
  0
CIRCLE
  5
3C1
100
AcDbEntity
  8
cornière
  6
ByLayer
 62
  256
370
    0
100
AcDbCircle
 10
1709.05652173913
 20
-1015
 40
3
  0
LINE
  5
3C2
100
AcDbEntity
  8
tube
  6
ByLayer
 62
  256
370
    0
100
AcDbLine
 10
1200
 20
-1400
 11
1200
 21
-1425
  0
CIRCLE
  5
3C3
100
AcDbEntity
  8
tube
  6
ByLayer
 62
  256
370
    0
100
AcDbCircle
 10
1260
 20
-1412.5
 40
4
  0
LINE
  5
3C4
100
AcDbEntity
  8
tube
  6
ByLayer
 62
  256
370
    0
100
AcDbLine
 10
1200
 20
-1425
 11
1270
 21
-1425
  0
LINE
  5
3C5
100
AcDbEntity
  8
tube
  6
ByLayer
 62
  256
370
    0
100
AcDbLine
 10
1270
 20
-1425
 11
1270
 21
-1400
  0
LINE
  5
3C6
100
AcDbEntity
  8
tube
  6
ByLayer
 62
  256
370
    0
100
AcDbLine
 10
1270
 20
-1400
 11
1200
 21
-1400
  0
LINE
  5
3C7
100
AcDbEntity
  8
alu
  6
ByLayer
 62
  256
370
    0
100
AcDbLine
 10
1199.999861292303
 20
-1839.999999999759
 11
1639.838442030082
 21
-1840.001525224678
  0
CIRCLE
  5
3C8
100
AcDbEntity
  8
alu
  6
ByLayer
 62
  256
370
    0
100
AcDbCircle
 10
1276.065516981596
 20
-1816.000263771914
 40
2.999999999999891
  0
CIRCLE
  5
3C9
100
AcDbEntity
  8
alu
  6
ByLayer
 62
  256
370
    0
100
AcDbCircle
 10
1378.065516980983
 20
-1816.000617476542
 40
3.000000000000017
  0
CIRCLE
  5
3CA
100
AcDbEntity
  8
alu
  6
ByLayer
 62
  256
370
    0
100
AcDbCircle
 10
1480.825566693512
 20
-1816.000973816789
 40
3.000000000000124
  0
CIRCLE
  5
3CB
100
AcDbEntity
  8
alu
  6
ByLayer
 62
  256
370
    0
100
AcDbCircle
 10
1582.825566692899
 20
-1816.001327521417
 40
3.000000000000008
  0
DIMENSION
  5
3CC
100
AcDbEntity
  8
legende
  6
ByLayer
 62
  256
370
    0
100
AcDbDimension
  2
*D15
 10
1260
 20
-1040
 30
0
 11
1230
 21
-1032.1875
 31
0
 70
   32
 71
    5
 72
    0
  3
Standard
 53
0
210
0
220
0
230
1
100
AcDbAlignedDimension
 13
1200
 23
-1020
 33
0
 14
1260
 24
-1015
 34
0
100
AcDbRotatedDimension
  0
DIMENSION
  5
3CD
100
AcDbEntity
  8
legende
  6
ByLayer
 62
  256
370
    0
100
AcDbDimension
  2
*D16
 10
1677.078663446055
 20
-1040
 30
0
 11
1468.539331723028
 21
-1032.1875
 31
0
 70
   32
 71
    5
 72
    0
  3
Standard
 53
0
210
0
220
0
230
1
100
AcDbAlignedDimension
 13
1260
 23
-1040
 33
0
 14
1677.078663446055
 24
-1015
 34
0
100
AcDbRotatedDimension
  0
DIMENSION
  5
3CE
100
AcDbEntity
  8
legende
  6
ByLayer
 62
  256
370
    0
100
AcDbDimension
  2
*D17
 10
1709.05652173913
 20
-1040
 30
0
 11
1693.067592592593
 21
-1032.1875
 31
0
 70
   32
 71
    5
 72
    0
  3
Standard
 53
0
210
0
220
0
230
1
100
AcDbAlignedDimension
 13
1677.078663446055
 23
-1015
 33
0
 14
1709.05652173913
 24
-1015
 34
0
100
AcDbRotatedDimension
  0
DIMENSION
  5
3CF
100
AcDbEntity
  8
legende
  6
ByLayer
 62
  256
370
    0
100
AcDbDimension
  2
*D18
 10
2126.135185185185
 20
-1040
 30
0
 11
1917.595853462157
 21
-1032.1875
 31
0
 70
   32
 71
    5
 72
    0
  3
Standard
 53
0
210
0
220
0
230
1
100
AcDbAlignedDimension
 13
1709.05652173913
 23
-1015
 33
0
 14
2126.135185185185
 24
-1015
 34
0
100
AcDbRotatedDimension
  0
DIMENSION
  5
3D0
100
AcDbEntity
  8
legende
  6
ByLayer
 62
  256
370
    0
100
AcDbDimension
  2
*D19
 10
2186.135185185185
 20
-1040
 30
0
 11
2156.135185185185
 21
-1032.1875
 31
0
 70
   32
 71
    5
 72
    0
  3
Standard
 53
0
210
0
220
0
230
1
100
AcDbAlignedDimension
 13
2126.135185185185
 23
-1015
 33
0
 14
2186.135185185185
 24
-1015.066253118262
 34
0
100
AcDbRotatedDimension
  0
DIMENSION
  5
3D1
100
AcDbEntity
  8
legende
  6
ByLayer
 62
  256
370
    0
100
AcDbDimension
  2
*D20
 10
2186.135185185185
 20
-1060
 30
0
 11
1693.067592592593
 21
-1052.1875
 31
0
 70
   32
 71
    5
 72
    0
  3
Standard
 53
0
210
0
220
0
230
1
100
AcDbAlignedDimension
 13
1200
 23
-1020
 33
0
 14
2186.135185185185
 24
-1020
 34
0
100
AcDbRotatedDimension
  0
DIMENSION
  5
3D2
100
AcDbEntity
  8
legende
  6
ByLayer
 62
  256
370
    0
100
AcDbDimension
  2
*D21
 10
1260
 20
-1140
 30
0
 11
1230
 21
-1132.1875
 31
0
 70
   32
 71
    5
 72
    0
  3
Standard
 53
0
210
0
220
0
230
1
100
AcDbAlignedDimension
 13
1200
 23
-1120
 33
0
 14
1260
 24
-1115
 34
0
100
AcDbRotatedDimension
  0
DIMENSION
  5
3D3
100
AcDbEntity
  8
legende
  6
ByLayer
 62
  256
370
    0
100
AcDbDimension
  2
*D22
 10
1709.05652173913
 20
-1140
 30
0
 11
1484.528260869565
 21
-1132.1875
 31
0
 70
   32
 71
    5
 72
    0
  3
Standard
 53
0
210
0
220
0
230
1
100
AcDbAlignedDimension
 13
1260
 23
-1115
 33
0
 14
1709.05652173913
 24
-1115
 34
0
100
AcDbRotatedDimension
  0
DIMENSION
  5
3D4
100
AcDbEntity
  8
legende
  6
ByLayer
 62
  256
370
    0
100
AcDbDimension
  2
*D23
 10
1769.05652173913
 20
-1140
 30
0
 11
1739.05652173913
 21
-1132.1875
 31
0
 70
   32
 71
    5
 72
    0
  3
Standard
 53
0
210
0
220
0
230
1
100
AcDbAlignedDimension
 13
1709.05652173913
 23
-1115
 33
0
 14
1769.05652173913
 24
-1120
 34
0
100
AcDbRotatedDimension
  0
DIMENSION
  5
3D5
100
AcDbEntity
  8
legende
  6
ByLayer
 62
  256
370
    0
100
AcDbDimension
  2
*D24
 10
1200
 20
-1160
 30
0
 11
1484.528260869565
 21
-1152.1875
 31
0
 70
   32
 71
    5
 72
    0
  3
Standard
 53
0
210
0
220
0
230
1
100
AcDbAlignedDimension
 13
1769.05652173913
 23
-1120
 33
0
 14
1200
 24
-1120
 34
0
100
AcDbRotatedDimension
  0
DIMENSION
  5
3D6
100
AcDbEntity
  8
legende
  6
ByLayer
 62
  256
370
    0
100
AcDbDimension
  2
*D25
 10
1260
 20
-1240
 30
0
 11
1230
 21
-1232.1875
 31
0
 70
   32
 71
    5
 72
    0
  3
Standard
 53
0
210
0
220
0
230
1
100
AcDbAlignedDimension
 13
1200
 23
-1220
 33
0
 14
1260
 24
-1215
 34
0
100
AcDbRotatedDimension
  0
DIMENSION
  5
3D7
100
AcDbEntity
  8
legende
  6
ByLayer
 62
  256
370
    0
100
AcDbDimension
  2
*D26
 10
1390
 20
-1240
 30
0
 11
1325
 21
-1232.1875
 31
0
 70
   32
 71
    5
 72
    0
  3
Standard
 53
0
210
0
220
0
230
1
100
AcDbAlignedDimension
 13
1260
 23
-1215
 33
0
 14
1390
 24
-1215
 34
0
100
AcDbRotatedDimension
  0
DIMENSION
  5
3D8
100
AcDbEntity
  8
legende
  6
ByLayer
 62
  256
370
    0
100
AcDbDimension
  2
*D27
 10
1450
 20
-1240
 30
0
 11
1420
 21
-1232.1875
 31
0
 70
   32
 71
    5
 72
    0
  3
Standard
 53
0
210
0
220
0
230
1
100
AcDbAlignedDimension
 13
1390
 23
-1215
 33
0
 14
1450
 24
-1220
 34
0
100
AcDbRotatedDimension
  0
DIMENSION
  5
3D9
100
AcDbEntity
  8
legende
  6
ByLayer
 62
  256
370
    0
100
AcDbDimension
  2
*D28
 10
1260
 20
-1440
 30
0
 11
1230
 21
-1432.1875
 31
0
 70
   32
 71
    5
 72
    0
  3
Standard
 53
0
210
0
220
0
230
1
100
AcDbAlignedDimension
 13
1200
 23
-1425
 33
0
 14
1260
 24
-1412.5
 34
0
100
AcDbRotatedDimension
  0
DIMENSION
  5
3DA
100
AcDbEntity
  8
legende
  6
ByLayer
 62
  256
370
    0
100
AcDbDimension
  2
*D29
 10
1270
 20
-1460
 30
0
 11
1235
 21
-1452.1875
 31
0
 70
   32
 71
    5
 72
    0
  3
Standard
 53
0
210
0
220
0
230
1
100
AcDbAlignedDimension
 13
1200
 23
-1425
 33
0
 14
1270
 24
-1425
 34
0
100
AcDbRotatedDimension
  0
DIMENSION
  5
3DB
100
AcDbEntity
  8
legende
  6
ByLayer
 62
  256
370
    0
100
AcDbDimension
  2
*D30
 10
1276.065516981596
 20
-1860
 30
0
 11
1238.032758490798
 21
-1852.1875
 31
0
 70
   32
 71
    5
 72
    0
  3
Standard
 53
0
210
0
220
0
230
1
100
AcDbAlignedDimension
 13
1200
 23
-1840
 33
0
 14
1276.065516981596
 24
-1816.000263771914
 34
0
100
AcDbRotatedDimension
  0
DIMENSION
  5
3DC
100
AcDbEntity
  8
legende
  6
ByLayer
 62
  256
370
    0
100
AcDbDimension
  2
*D31
 10
1378.065516980983
 20
-1860
 30
0
 11
1327.065516981289
 21
-1852.1875
 31
0
 70
   32
 71
    5
 72
    0
  3
Standard
 53
0
210
0
220
0
230
1
100
AcDbAlignedDimension
 13
1276.065516981596
 23
-1816.000263771914
 33
0
 14
1378.065516980983
 24
-1816.000617476542
 34
0
100
AcDbRotatedDimension
  0
DIMENSION
  5
3DD
100
AcDbEntity
  8
legende
  6
ByLayer
 62
  256
370
    0
100
AcDbDimension
  2
*D32
 10
1480.825566693512
 20
-1860
 30
0
 11
1429.445541837247
 21
-1852.1875
 31
0
 70
   32
 71
    5
 72
    0
  3
Standard
 53
0
210
0
220
0
230
1
100
AcDbAlignedDimension
 13
1378.065516980983
 23
-1816.000617476542
 33
0
 14
1480.825566693512
 24
-1816.000973816789
 34
0
100
AcDbRotatedDimension
  0
DIMENSION
  5
3DE
100
AcDbEntity
  8
legende
  6
ByLayer
 62
  256
370
    0
100
AcDbDimension
  2
*D33
 10
1582.825566692899
 20
-1860
 30
0
 11
1531.825566693205
 21
-1852.1875
 31
0
 70
   32
 71
    5
 72
    0
  3
Standard
 53
0
210
0
220
0
230
1
100
AcDbAlignedDimension
 13
1480.825566693512
 23
-1816.000973816789
 33
0
 14
1582.825566692899
 24
-1816.001327521417
 34
0
100
AcDbRotatedDimension
  0
DIMENSION
  5
3DF
100
AcDbEntity
  8
legende
  6
ByLayer
 62
  256
370
    0
100
AcDbDimension
  2
*D34
 10
1639.838442030082
 20
-1860
 30
0
 11
1611.33200436149
 21
-1852.1875
 31
0
 70
   32
 71
    5
 72
    0
  3
Standard
 53
0
210
0
220
0
230
1
100
AcDbAlignedDimension
 13
1582.825566692899
 23
-1816.001327521417
 33
0
 14
1639.838442030082
 24
-1840.001525224678
 34
0
100
AcDbRotatedDimension
  0
DIMENSION
  5
3E0
100
AcDbEntity
  8
legende
  6
ByLayer
 62
  256
370
    0
100
AcDbDimension
  2
*D35
 10
1639.838442030082
 20
-1880
 30
0
 11
1419.919221015041
 21
-1872.1875
 31
0
 70
   32
 71
    5
 72
    0
  3
Standard
 53
0
210
0
220
0
230
1
100
AcDbAlignedDimension
 13
1200
 23
-1840
 33
0
 14
1639.838442030082
 24
-1840.001525224678
 34
0
100
AcDbRotatedDimension
  0
MTEXT
  5
3E1
100
AcDbEntity
  8
cornière
  6
ByLayer
 62
  256
370
    0
100
AcDbMText
 10
1200
 20
-980
 30
0
 40
20
 41
195.0000000000019
 71
    7
 72
    1
  1
cornière 20×20
  7
standard
210
0
220
0
230
1
 50
0
 73
    2
 44
1
  0
MTEXT
  5
3E2
100
AcDbEntity
  8
cornière
  6
ByLayer
 62
  256
370
    0
100
AcDbMText
 10
1200
 20
-1380
 30
0
 40
20
 41
119.4444444444466
 71
    7
 72
    1
  1
rond ø25
  7
standard
210
0
220
0
230
1
 50
0
 73
    2
 44
1
  0
MTEXT
  5
3E3
100
AcDbEntity
  8
vis
  6
ByLayer
 62
  256
370
    0
100
AcDbMText
 10
1300
 20
-700
 30
0
 40
20
 41
550.555596698537
 71
    4
 72
    1
  1
Tous les trous en ø6mm.\PLes valeurs aux emplacement des trous\Pindiquent la profondeur du trou\Ppar rapport à la face côté mirroir.
  7
standard
210
0
220
0
230
1
 50
0
 73
    2
 44
1
  0
DIMENSION
  5
3E4
100
AcDbEntity
  8
tube
  6
ByLayer
 62
  256
370
   -1
100
AcDbDimension
  2
*D36
 10
2270
 20
-1015
 30
0
 11
2262.1875
 21
-1017.5
 31
0
 70
   32
 71
    5
  3
Standard
 53
0
210
0
220
0
230
1
100
AcDbAlignedDimension
 13
1266
 23
-1020
 33
0
 14
1260
 24
-1015
 34
0
 50
90
100
AcDbRotatedDimension
  0
DIMENSION
  5
3E5
100
AcDbEntity
  8
tube
  6
ByLayer
 62
  256
370
   -1
100
AcDbDimension
  2
*D37
 10
1860
 20
-1120
 30
0
 11
1852.1875
 21
-1117.5
 31
0
 70
   32
 71
    5
  3
Standard
 53
0
210
0
220
0
230
1
100
AcDbAlignedDimension
 13
1260
 23
-1115
 33
0
 14
1260
 24
-1120
 34
0
 50
90
100
AcDbRotatedDimension
  0
DIMENSION
  5
3E6
100
AcDbEntity
  8
tube
  6
ByLayer
 62
  256
370
   -1
100
AcDbDimension
  2
*D38
 10
1540
 20
-1220
 30
0
 11
1532.1875
 21
-1217.5
 31
0
 70
   32
 71
    5
  3
Standard
 53
0
210
0
220
0
230
1
100
AcDbAlignedDimension
 13
1260
 23
-1215
 33
0
 14
1450
 24
-1220
 34
0
 50
90
100
AcDbRotatedDimension
  0
LINE
  5
3E7
100
AcDbEntity
  8
alu
  6
ByLayer
 62
  256
370
   -1
100
AcDbLine
 10
1150
 20
-259
 11
1150
 21
-220
  0
LINE
  5
3E8
100
AcDbEntity
  8
cornière
  6
ByLayer
 62
  256
370
   -1
100
AcDbLine
 10
1150
 20
-259
 11
1150
 21
-220
  0
LINE
  5
3E9
100
AcDbEntity
  8
alu
  6
ByLayer
 62
  256
370
   -1
100
AcDbLine
 10
1150
 20
-259
 11
1210
 21
-259
  0
LINE
  5
3EA
100
AcDbEntity
  8
alu
  6
ByLayer
 62
  256
370
   -1
100
AcDbLine
 10
0
 20
-638.0000000000001
 11
-0.6500443296777974
 21
-636.1092402097767
  0
LINE
  5
3EB
100
AcDbEntity
  8
alu
  6
ByLayer
 62
  256
370
   -1
100
AcDbLine
 10
415.2929380461653
 20
-493.1077978474244
 11
415.9434782608695
 21
-495.0000000000001
  0
LINE
  5
3EC
100
AcDbEntity
  8
0
  6
ByLayer
 62
  256
370
   -1
100
AcDbLine
 10
-543.7304352892399
 20
484.670682135877
 11
-10543.73043528924
 21
484.670682135877
  0
LINE
  5
3ED
100
AcDbEntity
  8
0
  6
ByLayer
 62
  256
370
   -1
100
AcDbLine
 10
-442.944476967319
 20
191.5116969330831
 11
-10442.94447696732
 21
191.5116969330831
  0
LINE
  5
3EE
100
AcDbEntity
  8
0
  6
ByLayer
 62
  256
370
   -1
100
AcDbLine
 10
-999.9999999999999
 20
-5.048269410688386e-19
 11
-11000
 21
-5.048269410688386e-19
  0
LINE
  5
3EF
100
AcDbEntity
  8
0
  6
ByLayer
 62
  256
370
   -1
100
AcDbLine
 10
-442.9458051880409
 20
-191.5155603229217
 11
-10442.94580518804
 21
-191.5155603229217
  0
LINE
  5
3F0
100
AcDbEntity
  8
0
  6
ByLayer
 62
  256
370
   -1
100
AcDbLine
 10
-3000
 20
0
 11
-3000
 21
-10000
  0
LINE
  5
3F1
100
AcDbEntity
  8
0
  6
ByLayer
 62
  256
370
   -1
100
AcDbLine
 10
-3000
 20
0
 11
-10071.06781186548
 21
-7071.067811865475
  0
LINE
  5
3F2
100
AcDbEntity
  8
0
  6
ByLayer
 62
  256
370
   -1
100
AcDbLine
 10
-3000
 20
1.580506819158526e-12
 11
4071.067811865475
 21
-7071.067811865474
  0
CIRCLE
  5
3F3
100
AcDbEntity
  8
0
  6
ByLayer
 62
  256
370
   -1
100
AcDbCircle
 10
-3000
 20
1.580506819158526e-12
 40
484.6706821358754
  0
LINE
  5
3F4
100
AcDbEntity
  8
0
  6
ByLayer
 62
  256
370
   -1
100
AcDbLine
 10
-2657.286074019413
 20
342.7139259805888
 11
-12657.28607401941
 21
342.7139259805888
  0
LINE
  5
3F5
100
AcDbEntity
  8
0
  6
ByLayer
 62
  256
370
   -1
100
AcDbLine
 10
-2657.286074019413
 20
-342.7139259805857
 11
-12657.28607401941
 21
-342.7139259805857
  0
LINE
  5
3F6
100
AcDbEntity
  8
0
  6
ByLayer
 62
  256
370
   -1
100
AcDbLine
 10
-1439.838919654655
 20
-5.048269410688386e-19
 11
-1439.838919654655
 21
-10000
  0
LINE
  5
3F7
100
AcDbEntity
  8
0
  6
ByLayer
 62
  256
370
   -1
100
AcDbLine
 10
-400
 20
700
 11
-400.0000000000006
 21
-9300
  0
LINE
  5
3F8
100
AcDbEntity
  8
0
  6
ByLayer
 62
  256
370
   -1
100
AcDbLine
 10
-999.9999999999999
 20
-164.0590573282154
 11
-11000
 21
-164.0590573282154
  0
LINE
  5
3F9
100
AcDbEntity
  8
0
  6
ByLayer
 62
  256
370
   -1
100
AcDbLine
 10
-999.9999999999999
 20
-129.0590573282154
 11
-11000
 21
-129.0590573282154
  0
LINE
  5
3FA
100
AcDbEntity
  8
alu
  6
ByLayer
 62
  256
370
   -1
100
AcDbLine
 10
230.0021314549854
 20
-775
 11
957.1760444984639
 21
-525
  0
LINE
  5
3FB
100
AcDbEntity
  8
alu
  6
ByLayer
 62
  256
370
   -1
100
AcDbLine
 10
864.902216371102
 20
-525
 11
137.7283033276235
 21
-775
  0
LINE
  5
3FC
100
AcDbEntity
  8
alu
  6
ByLayer
 62
  256
370
   -1
100
AcDbLine
 10
285.0975348691858
 20
-571.8033378474034
 11
506.9315429681594
 21
-648.0691403328502
  0
LINE
  5
3FD
100
AcDbEntity
  8
alu
  6
ByLayer
 62
  256
370
   -1
100
AcDbLine
 10
331.0955672577961
 20
-555.8938714499254
 11
553.0684570318401
 21
-632.2074209985504
  0
LINE
  5
3FE
100
AcDbEntity
  8
alu
  6
ByLayer
 62
  256
370
   -1
100
AcDbLine
 10
922.2716966723769
 20
-775
 11
576.1369140636809
 21
-656.0000000000001
  0
LINE
  5
3FF
100
AcDbEntity
  8
alu
  6
ByLayer
 62
  256
370
   -1
100
AcDbLine
 10
530
 20
-671.8617193343
 11
829.9978685450151
 21
-775
  0
LINE
  5
400
100
AcDbEntity
  8
0
  6
ByLayer
 62
  256
370
   -1
100
AcDbLine
 10
537.6985956962856
 20
-621.6298094477746
 11
557.2057521298036
 21
-678.3701905522249
  0
LINE
  5
401
100
AcDbEntity
  8
0
  6
ByLayer
 62
  256
370
   -1
100
AcDbLine
 10
1010.535104900038
 20
-459.0701725017913
 11
1030.042261333556
 21
-515.8105536062416
  0
LINE
  5
402
100
AcDbEntity
  8
0
  6
ByLayer
 62
  256
370
   -1
100
AcDbLine
 10
774.1168502981617
 20
-540.3499909747829
 11
793.6240067316797
 21
-597.0903720792332
  0
LINE
  5
403
100
AcDbEntity
  8
0
  6
ByLayer
 62
  256
370
   -1
100
AcDbLine
 10
869.7790054794815
 20
-539.1850952761125
 11
142.605092436003
 21
-789.1850952761125
  0
CIRCLE
  5
404
100
AcDbEntity
  8
alu
  6
ByLayer
 62
  256
370
   -1
100
AcDbCircle
 10
547.4521739130446
 20
-649.9999999999998
 40
5
  0
CIRCLE
  5
405
100
AcDbEntity
  8
alu
  6
ByLayer
 62
  256
370
   -1
100
AcDbCircle
 10
783.8704285149208
 20
-568.7201815270078
 40
5
  0
CIRCLE
  5
406
100
AcDbEntity
  8
alu
  6
ByLayer
 62
  256
370
   -1
100
AcDbCircle
 10
311.0339193111686
 20
-731.2798184729913
 40
5
  0
LWPOLYLINE
  5
407
100
AcDbEntity
  8
vis
  6
ByLayer
 62
  256
370
   -1
100
AcDbPolyline
 90
    4
 70
    1
 43
0
 10
794
 20
-485
 10
806
 20
-485
 10
806
 20
-495
 10
794
 20
-495
  0
LWPOLYLINE
  5
408
100
AcDbEntity
  8
vis
  6
ByLayer
 62
  256
370
   -1
100
AcDbPolyline
 90
    4
 70
    1
 43
0
 10
794
 20
-525
 10
806
 20
-525
 10
806
 20
-535
 10
794
 20
-535
  0
LWPOLYLINE
  5
409
100
AcDbEntity
  8
vis
  6
DOTTINY
 62
  256
370
   -1
100
AcDbPolyline
 90
    4
 70
    1
 43
0
 10
797
 20
-485
 10
803
 20
-485
 10
803
 20
-535
 10
797
 20
-535
  0
MTEXT
  5
40A
100
AcDbEntity
  8
vis
  6
ByLayer
 62
  256
370
   -1
100
AcDbMText
 10
794
 20
-485
 30
0
 40
20
 41
8.888888888890129
 71
    7
 72
    1
  1
5
  7
standard
210
0
220
0
230
1
 50
0
 73
    2
 44
1
  0
LINE
  5
40B
100
AcDbEntity
  8
alu
  6
ByLayer
 62
  256
370
    0
100
AcDbLine
 10
250
 20
-1130
 11
250
 21
-1100
  0
LINE
  5
40C
100
AcDbEntity
  8
alu
  6
ByLayer
 62
  256
370
    0
100
AcDbLine
 10
250
 20
-1100
 11
0
 21
-1100
  0
LINE
  5
40D
100
AcDbEntity
  8
alu
  6
ByLayer
 62
  256
370
    0
100
AcDbLine
 10
0
 20
-1100
 11
0
 21
-1130
  0
LINE
  5
40E
100
AcDbEntity
  8
alu
  6
ByLayer
 62
  256
370
    0
100
AcDbLine
 10
0
 20
-1130
 11
250
 21
-1130
  0
LINE
  5
40F
100
AcDbEntity
  8
alu
  6
ByLayer
 62
  256
370
    0
100
AcDbLine
 10
104
 20
-1130
 11
134
 21
-1130
  0
LWPOLYLINE
  5
410
100
AcDbEntity
  8
trous
  6
ByLayer
 62
  256
370
    0
100
AcDbPolyline
 90
    4
 70
    1
 43
0
 10
57
 20
-1100
 10
63
 20
-1100
 10
63
 20
-1130
 10
57
 20
-1130
  0
LWPOLYLINE
  5
411
100
AcDbEntity
  8
trous
  6
ByLayer
 62
  256
370
    0
100
AcDbPolyline
 90
    4
 70
    1
 43
0
 10
193
 20
-1100
 10
187
 20
-1100
 10
187
 20
-1130
 10
193
 20
-1130
  0
MTEXT
  5
412
100
AcDbEntity
  8
legende
  6
ByLayer
 62
  256
370
    0
100
AcDbMText
 10
63
 20
-1115
 30
0
 40
20
 41
8.888888888890129
 71
    4
 72
    1
  1
5
  7
standard
210
0
220
0
230
1
 50
0
 73
    2
 44
1
  0
MTEXT
  5
413
100
AcDbEntity
  8
legende
  6
ByLayer
 62
  256
370
    0
100
AcDbMText
 10
193
 20
-1115
 30
0
 40
20
 41
8.888888888890129
 71
    4
 72
    1
  1
5
  7
standard
210
0
220
0
230
1
 50
0
 73
    2
 44
1
  0
DIMENSION
  5
414
100
AcDbEntity
  8
legende
  6
ByLayer
 62
  256
370
    0
100
AcDbDimension
  2
*D39
 10
60
 20
-1150
 30
0
 11
30
 21
-1142.1875
 31
0
 70
   32
 71
    5
 72
    0
  3
Standard
 53
0
210
0
220
0
230
1
100
AcDbAlignedDimension
 13
0
 23
-1130
 33
0
 14
60
 24
-1130
 34
0
100
AcDbRotatedDimension
  0
DIMENSION
  5
415
100
AcDbEntity
  8
legende
  6
ByLayer
 62
  256
370
    0
100
AcDbDimension
  2
*D40
 10
190
 20
-1150
 30
0
 11
125
 21
-1142.1875
 31
0
 70
   32
 71
    5
 72
    0
  3
Standard
 53
0
210
0
220
0
230
1
100
AcDbAlignedDimension
 13
60
 23
-1130
 33
0
 14
190
 24
-1130
 34
0
100
AcDbRotatedDimension
  0
DIMENSION
  5
416
100
AcDbEntity
  8
legende
  6
ByLayer
 62
  256
370
    0
100
AcDbDimension
  2
*D41
 10
250
 20
-1150
 30
0
 11
220
 21
-1142.1875
 31
0
 70
   32
 71
    5
 72
    0
  3
Standard
 53
0
210
0
220
0
230
1
100
AcDbAlignedDimension
 13
190
 23
-1130
 33
0
 14
250
 24
-1130
 34
0
100
AcDbRotatedDimension
  0
DIMENSION
  5
417
100
AcDbEntity
  8
legende
  6
ByLayer
 62
  256
370
    0
100
AcDbDimension
  2
*D42
 10
0
 20
-1170
 30
0
 11
125
 21
-1162.1875
 31
0
 70
   32
 71
    5
 72
    0
  3
Standard
 53
0
210
0
220
0
230
1
100
AcDbAlignedDimension
 13
250
 23
-1130
 33
0
 14
0
 24
-1130
 34
0
100
AcDbRotatedDimension
  0
LINE
  5
418
100
AcDbEntity
  8
alu
  6
ByLayer
 62
  256
370
    0
100
AcDbLine
 10
589.0565217391304
 20
-1200
 11
0
 21
-1200
  0
LINE
  5
419
100
AcDbEntity
  8
alu
  6
ByLayer
 62
  256
370
    0
100
AcDbLine
 10
0
 20
-1200
 11
5.012958562144377
 21
-1230
  0
LINE
  5
41A
100
AcDbEntity
  8
alu
  6
ByLayer
 62
  256
370
    0
100
AcDbLine
 10
5.012958562144377
 20
-1230
 11
589.0565217391304
 21
-1230
  0
LINE
  5
41B
100
AcDbEntity
  8
alu
  6
ByLayer
 62
  256
370
    0
100
AcDbLine
 10
589.0565217391304
 20
-1230
 11
589.0565217391304
 21
-1200
  0
LINE
  5
41C
100
AcDbEntity
  8
alu
  6
ByLayer
 62
  256
370
    0
100
AcDbLine
 10
559.0565217391304
 20
-1230
 11
589.0565217391304
 21
-1230
  0
LINE
  5
41D
100
AcDbEntity
  8
alu
  6
ByLayer
 62
  256
370
    0
100
AcDbLine
 10
0
 20
-1200
 11
5.012958562144377
 21
-1230
  0
LINE
  5
41E
100
AcDbEntity
  8
alu
  6
ByLayer
 62
  256
370
    0
100
AcDbLine
 10
129.0565217391304
 20
-1230
 11
99.0565217391304
 21
-1230
  0
LWPOLYLINE
  5
41F
100
AcDbEntity
  8
trous
  6
ByLayer
 62
  256
370
    0
100
AcDbPolyline
 90
    4
 70
    1
 43
0
 10
77
 20
-1200
 10
83
 20
-1200
 10
83
 20
-1230
 10
77
 20
-1230
  0
LWPOLYLINE
  5
420
100
AcDbEntity
  8
trous
  6
ByLayer
 62
  256
370
    0
100
AcDbPolyline
 90
    4
 70
    1
 43
0
 10
546.0565217391304
 20
-1200
 10
552.0565217391304
 20
-1200
 10
552.0565217391304
 20
-1230
 10
546.0565217391304
 20
-1230
  0
MTEXT
  5
421
100
AcDbEntity
  8
legende
  6
ByLayer
 62
  256
370
    0
100
AcDbMText
 10
83
 20
-1215
 30
0
 40
20
 41
8.888888888890129
 71
    4
 72
    1
  1
5
  7
standard
210
0
220
0
230
1
 50
0
 73
    2
 44
1
  0
MTEXT
  5
422
100
AcDbEntity
  8
legende
  6
ByLayer
 62
  256
370
    0
100
AcDbMText
 10
552.0565217391304
 20
-1215
 30
0
 40
20
 41
20.00000000000124
 71
    4
 72
    1
  1
15
  7
standard
210
0
220
0
230
1
 50
0
 73
    2
 44
1
  0
DIMENSION
  5
423
100
AcDbEntity
  8
legende
  6
ByLayer
 62
  256
370
    0
100
AcDbDimension
  2
*D43
 10
80
 20
-1250
 30
0
 11
40
 21
-1242.1875
 31
0
 70
   32
 71
    5
 72
    0
  3
Standard
 53
0
210
0
220
0
230
1
100
AcDbAlignedDimension
 13
0
 23
-1200
 33
0
 14
80
 24
-1200
 34
0
100
AcDbRotatedDimension
  0
DIMENSION
  5
424
100
AcDbEntity
  8
legende
  6
ByLayer
 62
  256
370
    0
100
AcDbDimension
  2
*D44
 10
589.0565217391304
 20
-1250
 30
0
 11
569.0565217391304
 21
-1242.1875
 31
0
 70
   32
 71
    5
 72
    0
  3
Standard
 53
0
210
0
220
0
230
1
100
AcDbAlignedDimension
 13
549.0565217391304
 23
-1230
 33
0
 14
589.0565217391304
 24
-1230
 34
0
100
AcDbRotatedDimension
  0
DIMENSION
  5
425
100
AcDbEntity
  8
legende
  6
ByLayer
 62
  256
370
    0
100
AcDbDimension
  2
*D45
 10
0
 20
-1280
 30
0
 11
294.5282608695652
 21
-1272.1875
 31
0
 70
   32
 71
    5
 72
    0
  3
Standard
 53
0
210
0
220
0
230
1
100
AcDbAlignedDimension
 13
589.0565217391304
 23
-1230
 33
0
 14
0
 24
-1200
 34
0
100
AcDbRotatedDimension
  0
DIMENSION
  5
426
100
AcDbEntity
  8
legende
  6
ByLayer
 62
  256
370
    0
100
AcDbDimension
  2
*D46
 10
5.012958562144377
 20
-1270
 30
0
 11
2.506479281072189
 21
-1262.1875
 31
0
 70
   32
 71
    5
 72
    0
  3
Standard
 53
0
210
0
220
0
230
1
100
AcDbAlignedDimension
 13
0
 23
-1200
 33
0
 14
5.012958562144377
 24
-1230
 34
0
100
AcDbRotatedDimension
  0
LWPOLYLINE
  5
427
100
AcDbEntity
  8
trous
  6
ByLayer
 62
  256
370
    0
100
AcDbPolyline
 90
    4
 70
    1
 43
0
 10
381
 20
-1200
 10
387
 20
-1200
 10
387
 20
-1230
 10
381
 20
-1230
  0
MTEXT
  5
428
100
AcDbEntity
  8
legende
  6
ByLayer
 62
  256
370
    0
100
AcDbMText
 10
387
 20
-1215
 30
0
 40
20
 41
8.888888888890129
 71
    4
 72
    1
  1
5
  7
standard
210
0
220
0
230
1
 50
0
 73
    2
 44
1
  0
DIMENSION
  5
429
100
AcDbEntity
  8
legende
  6
ByLayer
 62
  256
370
   -1
100
AcDbDimension
  2
*D47
 10
384
 20
-1250
 30
0
 11
232
 21
-1242.1875
 31
0
 70
   32
 71
    5
 72
    0
  3
Standard
 53
0
210
0
220
0
230
1
100
AcDbAlignedDimension
 13
80
 23
-1230
 33
0
 14
384
 24
-1230
 34
0
100
AcDbRotatedDimension
  0
MTEXT
  5
42A
100
AcDbEntity
  8
noms
  6
ByLayer
 62
  256
370
   -1
100
AcDbMText
 10
-100
 20
-1000
 30
0
 40
50
 41
105.5555555555556
 71
    3
 72
    1
  1
1101
  7
standard
210
0
220
0
230
1
 50
0
 73
    2
 44
1
  0
MTEXT
  5
42B
100
AcDbEntity
  8
noms
  6
ByLayer
 62
  256
370
   -1
100
AcDbMText
 10
-100
 20
-1100
 30
0
 40
50
 41
116.6666666666667
 71
    3
 72
    1
  1
1102
  7
standard
210
0
220
0
230
1
 50
0
 73
    2
 44
1
  0
MTEXT
  5
42C
100
AcDbEntity
  8
noms
  6
ByLayer
 62
  256
370
   -1
100
AcDbMText
 10
-100
 20
-1200
 30
0
 40
50
 41
116.6666666666698
 71
    3
 72
    1
  1
1103
  7
standard
210
0
220
0
230
1
 50
0
 73
    2
 44
1
  0
MTEXT
  5
42D
100
AcDbEntity
  8
noms
  6
ByLayer
 62
  256
370
   -1
100
AcDbMText
 10
660
 20
-700
 30
0
 40
20
 41
46.66666666666666
 71
    5
 72
    1
  1
1108
  7
standard
210
0
220
0
230
1
 50
0
 73
    2
 44
1
  0
MTEXT
  5
42E
100
AcDbEntity
  8
noms
  6
ByLayer
 62
  256
370
   -1
100
AcDbMText
 10
420.1638111371681
 20
-602.5101842290009
 30
0
 40
20
 41
46.66666666666666
 71
    5
 72
    1
  1
1107
  7
standard
210
0
220
0
230
1
 50
0
 73
    2
 44
1
  0
MTEXT
  5
42F
100
AcDbEntity
  8
noms
  6
ByLayer
 62
  256
370
   -1
100
AcDbMText
 10
444.9487550525629
 20
-683.3563108101695
 30
0
 40
20
 41
46.66666666666791
 71
    5
 72
    1
  1
1106
  7
standard
210
0
220
0
230
1
 50
0
 73
    2
 44
1
  0
MTEXT
  5
430
100
AcDbEntity
  8
noms
  6
ByLayer
 62
  256
370
   -1
100
AcDbMText
 10
24.19482620312347
 20
-718.7633735464484
 30
0
 40
20
 41
46.66666666666791
 71
    5
 72
    1
  1
1105
  7
standard
210
0
220
0
230
1
 50
0
 73
    2
 44
1
  0
MTEXT
  5
431
100
AcDbEntity
  8
noms
  6
ByLayer
 62
  256
370
   -1
100
AcDbMText
 10
220.4929334517101
 20
-578.5610352401916
 30
0
 40
20
 41
48.8888888888889
 71
    5
 72
    1
  1
1104
  7
standard
210
0
220
0
230
1
 50
0
 73
    2
 44
1
  0
MTEXT
  5
432
100
AcDbEntity
  8
noms
  6
ByLayer
 62
  256
370
   -1
100
AcDbMText
 10
650.9152467675269
 20
-506.924904300771
 30
0
 40
20
 41
46.66666666666791
 71
    5
 72
    1
  1
1103
  7
standard
210
0
220
0
230
1
 50
0
 73
    2
 44
1
  0
MTEXT
  5
433
100
AcDbEntity
  8
noms
  6
ByLayer
 62
  256
370
   -1
100
AcDbMText
 10
992.1526337092911
 20
-654.8601876570272
 30
0
 40
20
 41
46.66666666666666
 71
    5
 72
    1
  1
1102
  7
standard
210
0
220
0
230
1
 50
0
 73
    2
 44
1
  0
MTEXT
  5
434
100
AcDbEntity
  8
noms
  6
ByLayer
 62
  256
370
   -1
100
AcDbMText
 10
653.8739524346521
 20
-791.9468835671578
 30
0
 40
20
 41
42.22222222222223
 71
    5
 72
    1
  1
1101
  7
standard
210
0
220
0
230
1
 50
0
 73
    2
 44
1
  0
LINE
  5
435
100
AcDbEntity
  8
0
  6
ByLayer
 62
  256
370
   -1
100
AcDbLine
 10
399.0368103865039
 20
-445.8242032980165
 11
-16.90617198933912
 21
-588.8256456603688
  0
LINE
  5
436
100
AcDbEntity
  8
0
  6
ByLayer
 62
  256
370
   -1
100
AcDbLine
 10
424.2076295619336
 20
-534.456730184075
 11
35.76293350848554
 21
-668.0027392906416
  0
LINE
  5
437
100
AcDbEntity
  8
0
  6
ByLayer
 62
  256
370
   -1
100
AcDbLine
 10
149.5922014846373
 20
-497.7443459758787
 11
139.83842650992
 21
-469.3742230691555
  0
LINE
  5
438
100
AcDbEntity
  8
0
  6
ByLayer
 62
  256
370
   -1
100
AcDbLine
 10
229.7471865594449
 20
-470.1863272707932
 11
219.9934115847276
 21
-441.81620436407
  0
LINE
  5
439
100
AcDbEntity
  8
0
  6
ByLayer
 62
  256
370
   -1
100
AcDbLine
 10
343.2275631866639
 20
-431.1708928841924
 11
333.4737882119466
 21
-402.8007699774693
  0
LINE
  5
43A
100
AcDbEntity
  8
vis
  6
ByLayer
 62
  256
370
   -1
100
AcDbLine
 10
76.4270047787985
 20
-654.0225983819398
 11
70.75297343286951
 21
-655.973333701099
  0
LINE
  5
43B
100
AcDbEntity
  8
vis
  6
ByLayer
 62
  256
370
   -1
100
AcDbLine
 10
64.66467470811338
 20
-647.4918151449187
 11
76.0127509290717
 21
-643.5903838581917
  0
LINE
  5
43C
100
AcDbEntity
  8
vis
  6
ByLayer
 62
  256
370
   -1
100
AcDbLine
 10
76.0127509290717
 20
-643.5903838581917
 11
79.26402045176303
 21
-653.0472307223603
  0
LINE
  5
43D
100
AcDbEntity
  8
vis
  6
ByLayer
 62
  256
370
   -1
100
AcDbLine
 10
79.26402045176303
 20
-653.0472307223603
 11
67.91595775990498
 21
-656.9487013606786
  0
LINE
  5
43E
100
AcDbEntity
  8
vis
  6
ByLayer
 62
  256
370
   -1
100
AcDbLine
 10
67.91595775990498
 20
-656.9487013606786
 11
64.66467470811352
 21
-647.4918151449186
  0
MTEXT
  5
43F
100
AcDbEntity
  8
vis
  6
ByLayer
 62
  256
370
   -1
100
AcDbMText
 10
66.97019445009943
 20
-657.2736645955033
 30
0
 40
20
 41
20.00000000000124
 71
    1
 72
    1
  1
15
  7
standard
210
0
220
0
230
1
 50
0
 73
    2
 44
1
  0
LINE
  5
440
100
AcDbEntity
  8
vis
  6
ByLayer
 62
  256
370
   -1
100
AcDbLine
 10
195.5816630428295
 20
-613.0571566797571
 11
189.9076316969005
 21
-615.0078919989163
  0
LINE
  5
441
100
AcDbEntity
  8
vis
  6
ByLayer
 62
  256
370
   -1
100
AcDbLine
 10
183.8193329721444
 20
-606.526373442736
 11
195.1674091931027
 21
-602.624942156009
  0
LINE
  5
442
100
AcDbEntity
  8
vis
  6
ByLayer
 62
  256
370
   -1
100
AcDbLine
 10
195.1674091931027
 20
-602.624942156009
 11
198.418678715794
 21
-612.0817890201776
  0
LINE
  5
443
100
AcDbEntity
  8
vis
  6
ByLayer
 62
  256
370
   -1
100
AcDbLine
 10
198.418678715794
 20
-612.0817890201776
 11
187.070616023936
 21
-615.9832596584959
  0
LINE
  5
444
100
AcDbEntity
  8
vis
  6
ByLayer
 62
  256
370
   -1
100
AcDbLine
 10
187.070616023936
 20
-615.9832596584959
 11
183.8193329721445
 21
-606.5263734427359
  0
MTEXT
  5
445
100
AcDbEntity
  8
vis
  6
ByLayer
 62
  256
370
   -1
100
AcDbMText
 10
186.1248527141304
 20
-616.3082228933206
 30
0
 40
20
 41
20.00000000000124
 71
    1
 72
    1
  1
15
  7
standard
210
0
220
0
230
1
 50
0
 73
    2
 44
1
  0
LINE
  5
446
100
AcDbEntity
  8
vis
  6
ByLayer
 62
  256
370
   -1
100
AcDbLine
 10
270.0628281886951
 20
-587.4504882276296
 11
264.3887968427661
 21
-589.4012235467887
  0
LINE
  5
447
100
AcDbEntity
  8
vis
  6
ByLayer
 62
  256
370
   -1
100
AcDbLine
 10
258.30049811801
 20
-580.9197049906086
 11
269.6485743389683
 21
-577.0182737038815
  0
LINE
  5
448
100
AcDbEntity
  8
vis
  6
ByLayer
 62
  256
370
   -1
100
AcDbLine
 10
269.6485743389683
 20
-577.0182737038815
 11
272.8998438616596
 21
-586.47512056805
  0
LINE
  5
449
100
AcDbEntity
  8
vis
  6
ByLayer
 62
  256
370
   -1
100
AcDbLine
 10
272.8998438616596
 20
-586.47512056805
 11
261.5517811698016
 21
-590.3765912063684
  0
LINE
  5
44A
100
AcDbEntity
  8
vis
  6
ByLayer
 62
  256
370
   -1
100
AcDbLine
 10
261.5517811698016
 20
-590.3765912063684
 11
258.3004981180101
 21
-580.9197049906084
  0
MTEXT
  5
44B
100
AcDbEntity
  8
vis
  6
ByLayer
 62
  256
370
   -1
100
AcDbMText
 10
260.606017859996
 20
-590.7015544411931
 30
0
 40
20
 41
20.00000000000124
 71
    1
 72
    1
  1
15
  7
standard
210
0
220
0
230
1
 50
0
 73
    2
 44
1
  0
LINE
  5
44C
100
AcDbEntity
  8
vis
  6
ByLayer
 62
  256
370
   -1
100
AcDbLine
 10
389.2174864527248
 20
-546.4850465254474
 11
383.5434551067958
 21
-548.4357818446065
  0
LINE
  5
44D
100
AcDbEntity
  8
vis
  6
ByLayer
 62
  256
370
   -1
100
AcDbLine
 10
377.4551563820396
 20
-539.9542632884263
 11
388.8032326029979
 21
-536.0528320016992
  0
LINE
  5
44E
100
AcDbEntity
  8
vis
  6
ByLayer
 62
  256
370
   -1
100
AcDbLine
 10
388.8032326029979
 20
-536.0528320016992
 11
392.0545021256893
 21
-545.5096788658677
  0
LINE
  5
44F
100
AcDbEntity
  8
vis
  6
ByLayer
 62
  256
370
   -1
100
AcDbLine
 10
392.0545021256893
 20
-545.5096788658677
 11
380.7064394338312
 21
-549.4111495041861
  0
LINE
  5
450
100
AcDbEntity
  8
vis
  6
ByLayer
 62
  256
370
   -1
100
AcDbLine
 10
380.7064394338312
 20
-549.4111495041861
 11
377.4551563820398
 21
-539.9542632884261
  0
MTEXT
  5
451
100
AcDbEntity
  8
vis
  6
ByLayer
 62
  256
370
   -1
100
AcDbMText
 10
379.7606761240257
 20
-549.7361127390109
 30
0
 40
20
 41
20.00000000000124
 71
    1
 72
    1
  1
15
  7
standard
210
0
220
0
230
1
 50
0
 73
    2
 44
1
  0
LINE
  5
452
100
AcDbEntity
  8
alu
  6
ByLayer
 62
  256
370
    0
100
AcDbLine
 10
439.8385807404238
 20
-1430.000010101364
 11
434.8256228672617
 21
-1400.000009986236
  0
LINE
  5
453
100
AcDbEntity
  8
alu
  6
ByLayer
 62
  256
370
    0
100
AcDbLine
 10
0
 20
-1430
 11
24.0655731541151
 21
-1400.000000552692
  0
LINE
  5
454
100
AcDbEntity
  8
alu
  6
ByLayer
 62
  256
370
    0
100
AcDbLine
 10
0
 20
-1430
 11
439.8385807404238
 21
-1430.000010101364
  0
LINE
  5
455
100
AcDbEntity
  8
alu
  6
ByLayer
 62
  256
370
    0
100
AcDbLine
 10
439.8385807404238
 20
-1430.000010101364
 11
434.8256228672617
 21
-1400.000009986236
  0
LINE
  5
456
100
AcDbEntity
  8
alu
  6
ByLayer
 62
  256
370
    0
100
AcDbLine
 10
434.8256228672617
 20
-1400.000009986236
 11
24.0655731541151
 21
-1400.000000552692
  0
LINE
  5
457
100
AcDbEntity
  8
vis
  6
ByLayer
 62
  256
370
    0
100
AcDbLine
 10
82.0655731541151
 20
-1400.000001884724
 11
70.0655731541151
 21
-1400.000001609131
  0
LINE
  5
458
100
AcDbEntity
  8
vis
  6
ByLayer
 62
  256
370
    0
100
AcDbLine
 10
184.0655731541151
 20
-1400.000004227263
 11
172.0655731541151
 21
-1400.00000395167
  0
LINE
  5
459
100
AcDbEntity
  8
vis
  6
ByLayer
 62
  256
370
    0
100
AcDbLine
 10
286.8256228672617
 20
-1400.000006587258
 11
274.8256228672617
 21
-1400.000006311665
  0
LINE
  5
45A
100
AcDbEntity
  8
vis
  6
ByLayer
 62
  256
370
    0
100
AcDbLine
 10
388.8256228672617
 20
-1400.000008929797
 11
376.8256228672617
 21
-1400.000008654204
  0
LINE
  5
45B
100
AcDbEntity
  8
alu
  6
ByLayer
 62
  256
370
    0
100
AcDbLine
 10
0
 20
-1530
 11
26.80200789684272
 21
-1500.000084052771
  0
LINE
  5
45C
100
AcDbEntity
  8
alu
  6
ByLayer
 62
  256
370
    0
100
AcDbLine
 10
0
 20
-1530
 11
168.0621350504612
 21
-1530.000527054279
  0
LINE
  5
45D
100
AcDbEntity
  8
alu
  6
ByLayer
 62
  256
370
    0
100
AcDbLine
 10
168.0621350504612
 20
-1530.000527054279
 11
143.9966566674857
 21
-1500.000451583155
  0
LINE
  5
45E
100
AcDbEntity
  8
alu
  6
ByLayer
 62
  256
370
    0
100
AcDbLine
 10
143.9966566674857
 20
-1500.000451583155
 11
26.80200789684272
 21
-1500.000084052771
  0
LINE
  5
45F
100
AcDbEntity
  8
alu
  6
ByLayer
 62
  256
370
    0
100
AcDbLine
 10
26.80200789684272
 20
-1500.000084052771
 11
0
 21
-1530
  0
LINE
  5
460
100
AcDbEntity
  8
alu
  6
ByLayer
 62
  256
370
    0
100
AcDbLine
 10
143.9966566674857
 20
-1500.000451583155
 11
131.463457269585
 21
-1500.00041227819
  0
DIMENSION
  5
461
100
AcDbEntity
  8
legende
  6
ByLayer
 62
  256
370
    0
100
AcDbDimension
  2
*D48
 10
26.80200789684272
 20
-1550
 30
0
 11
13.40100394842136
 21
-1542.1875
 31
0
 70
   32
 71
    5
 72
    0
  3
Standard
 53
0
210
0
220
0
230
1
100
AcDbAlignedDimension
 13
0
 23
-1530
 33
0
 14
26.80200789684272
 24
-1500.000084052771
 34
0
100
AcDbRotatedDimension
  0
DIMENSION
  5
462
100
AcDbEntity
  8
legende
  6
ByLayer
 62
  256
370
    0
100
AcDbDimension
  2
*D49
 10
168.0621350504612
 20
-1550
 30
0
 11
156.0293958589734
 21
-1542.1875
 31
0
 70
   32
 71
    5
 72
    0
  3
Standard
 53
0
210
0
220
0
230
1
100
AcDbAlignedDimension
 13
143.9966566674857
 23
-1500.000451583155
 33
0
 14
168.0621350504612
 24
-1530.000527054279
 34
0
100
AcDbRotatedDimension
  0
DIMENSION
  5
463
100
AcDbEntity
  8
legende
  6
ByLayer
 62
  256
370
    0
100
AcDbDimension
  2
*D50
 10
168.0621350504612
 20
-1570
 30
0
 11
84.0310675252306
 21
-1562.1875
 31
0
 70
   32
 71
    5
 72
    0
  3
Standard
 53
0
210
0
220
0
230
1
100
AcDbAlignedDimension
 13
0
 23
-1530
 33
0
 14
168.0621350504612
 24
-1530.000527054279
 34
0
100
AcDbRotatedDimension
  0
LINE
  5
464
100
AcDbEntity
  8
alu
  6
ByLayer
 62
  256
370
   -1
100
AcDbLine
 10
87.26076553391947
 20
-1630.000302593677
 11
856.2093332573104
 21
-1630.002969070807
  0
LINE
  5
465
100
AcDbEntity
  8
alu
  6
ByLayer
 62
  256
370
   -1
100
AcDbLine
 10
856.2093332573104
 20
-1630.002969070807
 11
768.9485677233904
 21
-1600.00266647713
  0
LINE
  5
466
100
AcDbEntity
  8
alu
  6
ByLayer
 62
  256
370
   -1
100
AcDbLine
 10
-4.547473508864641e-13
 20
-1600
 11
87.26076553391947
 21
-1630.000302593677
  0
LINE
  5
467
100
AcDbEntity
  8
alu
  6
ByLayer
 62
  256
370
   -1
100
AcDbLine
 10
0
 20
-1730
 11
234.5779183512477
 21
-1730.000005387333
  0
LINE
  5
468
100
AcDbEntity
  8
alu
  6
ByLayer
 62
  256
370
   -1
100
AcDbLine
 10
38.32662465556874
 20
-1700.000000880212
 11
273.0514031501927
 21
-1700.000006270918
  0
LINE
  5
469
100
AcDbEntity
  8
alu
  6
ByLayer
 62
  256
370
   -1
100
AcDbLine
 10
0
 20
-1730
 11
38.32662465556874
 21
-1700.000000880212
  0
LINE
  5
46A
100
AcDbEntity
  8
alu
  6
ByLayer
 62
  256
370
   -1
100
AcDbLine
 10
273.0514031501927
 20
-1700.000006270918
 11
234.5779183512477
 21
-1730.000005387333
  0
LINE
  5
46B
100
AcDbEntity
  8
alu
  6
ByLayer
 62
  256
370
   -1
100
AcDbLine
 10
404.4930030374801
 20
-1800.000009289615
 11
38.47348479894518
 21
-1800.000000883585
  0
LINE
  5
46C
100
AcDbEntity
  8
alu
  6
ByLayer
 62
  256
370
   -1
100
AcDbLine
 10
0
 20
-1830
 11
317.2321327832805
 21
-1830.000007285576
  0
LINE
  5
46D
100
AcDbEntity
  8
alu
  6
ByLayer
 62
  256
370
   -1
100
AcDbLine
 10
317.2321327832805
 20
-1830.000007285576
 11
404.4930030374801
 21
-1800.000009289615
  0
DIMENSION
  5
46E
100
AcDbEntity
  8
legende
  6
ByLayer
 62
  256
370
   -1
100
AcDbDimension
  2
*D51
 10
87.26076553391886
 20
-1650
 30
0
 11
43.63038276695943
 21
-1642.1875
 31
0
 70
   32
 71
    5
 72
    0
  3
Standard
 53
0
210
0
220
0
230
1
100
AcDbAlignedDimension
 13
0
 23
-1600
 33
0
 14
87.26076553391886
 24
-1630.000302593677
 34
0
100
AcDbRotatedDimension
  0
DIMENSION
  5
46F
100
AcDbEntity
  8
legende
  6
ByLayer
 62
  256
370
   -1
100
AcDbDimension
  2
*D52
 10
856.2093332573104
 20
-1670
 30
0
 11
428.1046666286553
 21
-1662.1875
 31
0
 70
   32
 71
    5
 72
    0
  3
Standard
 53
0
210
0
220
0
230
1
100
AcDbAlignedDimension
 13
0
 23
-1600
 33
0
 14
856.2093332573104
 24
-1630.002969070807
 34
0
100
AcDbRotatedDimension
  0
DIMENSION
  5
470
100
AcDbEntity
  8
legende
  6
ByLayer
 62
  256
370
   -1
100
AcDbDimension
  2
*D53
 10
856.2093332573104
 20
-1650
 30
0
 11
812.5789504903504
 21
-1642.1875
 31
0
 70
   32
 71
    5
 72
    0
  3
Standard
 53
0
210
0
220
0
230
1
100
AcDbAlignedDimension
 13
768.9485677233904
 23
-1600.00266647713
 33
0
 14
856.2093332573104
 24
-1630.002969070807
 34
0
100
AcDbRotatedDimension
  0
DIMENSION
  5
471
100
AcDbEntity
  8
legende
  6
ByLayer
 62
  256
370
   -1
100
AcDbDimension
  2
*D54
 10
38.32662465556874
 20
-1750
 30
0
 11
19.16331232778437
 21
-1742.1875
 31
0
 70
   32
 71
    5
 72
    0
  3
Standard
 53
0
210
0
220
0
230
1
100
AcDbAlignedDimension
 13
0
 23
-1730
 33
0
 14
38.32662465556874
 24
-1700.000000880212
 34
0
100
AcDbRotatedDimension
  0
DIMENSION
  5
472
100
AcDbEntity
  8
legende
  6
ByLayer
 62
  256
370
   -1
100
AcDbDimension
  2
*D55
 10
273.0514031501927
 20
-1750
 30
0
 11
253.8146607507202
 21
-1742.1875
 31
0
 70
   32
 71
    5
 72
    0
  3
Standard
 53
0
210
0
220
0
230
1
100
AcDbAlignedDimension
 13
234.5779183512477
 23
-1730.000005387333
 33
0
 14
273.0514031501927
 24
-1700.000006270918
 34
0
100
AcDbRotatedDimension
  0
DIMENSION
  5
473
100
AcDbEntity
  8
legende
  6
ByLayer
 62
  256
370
   -1
100
AcDbDimension
  2
*D56
 10
273.0514031501927
 20
-1770
 30
0
 11
136.5257015750963
 21
-1762.1875
 31
0
 70
   32
 71
    5
 72
    0
  3
Standard
 53
0
210
0
220
0
230
1
100
AcDbAlignedDimension
 13
0
 23
-1730
 33
0
 14
273.0514031501927
 24
-1700.000006270918
 34
0
100
AcDbRotatedDimension
  0
DIMENSION
  5
474
100
AcDbEntity
  8
legende
  6
ByLayer
 62
  256
370
   -1
100
AcDbDimension
  2
*D57
 10
404.4930030374808
 20
-1850
 30
0
 11
360.8625679103806
 21
-1842.1875
 31
0
 70
   32
 71
    5
 72
    0
  3
Standard
 53
0
210
0
220
0
230
1
100
AcDbAlignedDimension
 13
317.2321327832805
 23
-1830.000007285576
 33
0
 14
404.4930030374808
 24
-1800.000009289615
 34
0
100
AcDbRotatedDimension
  0
DIMENSION
  5
475
100
AcDbEntity
  8
legende
  6
ByLayer
 62
  256
370
   -1
100
AcDbDimension
  2
*D58
 10
404.4930030374801
 20
-1870
 30
0
 11
202.2465015187403
 21
-1862.1875
 31
0
 70
   32
 71
    5
 72
    0
  3
Standard
 53
0
210
0
220
0
230
1
100
AcDbAlignedDimension
 13
4.547473508864641e-13
 23
-1830
 33
0
 14
404.4930030374801
 24
-1800.000009289615
 34
0
100
AcDbRotatedDimension
  0
LINE
  5
476
100
AcDbEntity
  8
alu
  6
ByLayer
 62
  256
370
   -1
100
AcDbLine
 10
38.47348479894518
 20
-1800.000000883585
 11
0
 21
-1830
  0
DIMENSION
  5
477
100
AcDbEntity
  8
legende
  6
ByLayer
 62
  256
370
   -1
100
AcDbDimension
  2
*D59
 10
38.47348479894518
 20
-1850
 30
0
 11
19.23674239947236
 21
-1842.1875
 31
0
 70
   32
 71
    5
 72
    0
  3
Standard
 53
0
210
0
220
0
230
1
100
AcDbAlignedDimension
 13
-4.547473508864641e-13
 23
-1830
 33
0
 14
38.47348479894518
 24
-1800.000000883585
 34
0
100
AcDbRotatedDimension
  0
LINE
  5
478
100
AcDbEntity
  8
alu
  6
ByLayer
 62
  256
370
   -1
100
AcDbLine
 10
768.9485677233901
 20
-1600.00266647713
 11
-9.340078843583508e-13
 21
-1600
  0
CIRCLE
  5
479
100
AcDbEntity
  8
alu
  6
ByLayer
 62
  256
370
   -1
100
AcDbCircle
 10
428.1046666286554
 20
-1615.001484535403
 40
5
  0
CIRCLE
  5
47A
100
AcDbEntity
  8
alu
  6
ByLayer
 62
  256
370
   -1
100
AcDbCircle
 10
678.1046666271526
 20
-1615.002351458511
 40
5
  0
CIRCLE
  5
47B
100
AcDbEntity
  8
alu
  6
ByLayer
 62
  256
370
   -1
100
AcDbCircle
 10
178.1046666301587
 20
-1615.000617612295
 40
5
  0
DIMENSION
  5
47C
100
AcDbEntity
  8
legende
  6
ByLayer
 62
  256
370
   -1
100
AcDbDimension
  2
*D60
 10
178.1046666301587
 20
-1650
 30
0
 11
132.6827160820388
 21
-1642.1875
 31
0
 70
   32
 71
    5
 72
    0
  3
Standard
 53
0
210
0
220
0
230
1
100
AcDbAlignedDimension
 13
87.26076553391886
 23
-1630.000302593677
 33
0
 14
178.1046666301587
 24
-1615.000617612295
 34
0
100
AcDbRotatedDimension
  0
DIMENSION
  5
47D
100
AcDbEntity
  8
legende
  6
ByLayer
 62
  256
370
   -1
100
AcDbDimension
  2
*D61
 10
428.1046666286554
 20
-1650
 30
0
 11
303.1046666294071
 21
-1642.1875
 31
0
 70
   32
 71
    5
 72
    0
  3
Standard
 53
0
210
0
220
0
230
1
100
AcDbAlignedDimension
 13
178.1046666301587
 23
-1615.000617612295
 33
0
 14
428.1046666286554
 24
-1615.001484535403
 34
0
100
AcDbRotatedDimension
  0
DIMENSION
  5
47E
100
AcDbEntity
  8
legende
  6
ByLayer
 62
  256
370
   -1
100
AcDbDimension
  2
*D62
 10
678.1046666271526
 20
-1650
 30
0
 11
553.104666627904
 21
-1642.1875
 31
0
 70
   32
 71
    5
 72
    0
  3
Standard
 53
0
210
0
220
0
230
1
100
AcDbAlignedDimension
 13
428.1046666286554
 23
-1615.001484535403
 33
0
 14
678.1046666271526
 24
-1615.002351458511
 34
0
100
AcDbRotatedDimension
  0
DIMENSION
  5
47F
100
AcDbEntity
  8
legende
  6
ByLayer
 62
  256
370
   -1
100
AcDbDimension
  2
*D63
 10
768.9485677233897
 20
-1650
 30
0
 11
723.5266171752712
 21
-1642.1875
 31
0
 70
   32
 71
    5
 72
    0
  3
Standard
 53
0
210
0
220
0
230
1
100
AcDbAlignedDimension
 13
678.1046666271526
 23
-1615.002351458511
 33
0
 14
768.9485677233897
 24
-1600.00266647713
 34
0
100
AcDbRotatedDimension
  0
MTEXT
  5
480
100
AcDbEntity
  8
noms
  6
ByLayer
 62
  256
370
   -1
100
AcDbMText
 10
-100
 20
-1500
 30
0
 40
50
 41
116.6666666666698
 71
    3
 72
    1
  1
1105
  7
standard
210
0
220
0
230
1
 50
0
 73
    2
 44
1
  0
MTEXT
  5
481
100
AcDbEntity
  8
noms
  6
ByLayer
 62
  256
370
   -1
100
AcDbMText
 10
-100
 20
-1600
 30
0
 40
50
 41
116.6666666666698
 71
    3
 72
    1
  1
1106
  7
standard
210
0
220
0
230
1
 50
0
 73
    2
 44
1
  0
MTEXT
  5
482
100
AcDbEntity
  8
noms
  6
ByLayer
 62
  256
370
   -1
100
AcDbMText
 10
-100
 20
-1700
 30
0
 40
50
 41
116.6666666666667
 71
    3
 72
    1
  1
1107
  7
standard
210
0
220
0
230
1
 50
0
 73
    2
 44
1
  0
MTEXT
  5
483
100
AcDbEntity
  8
noms
  6
ByLayer
 62
  256
370
   -1
100
AcDbMText
 10
-100
 20
-1800
 30
0
 40
50
 41
116.6666666666667
 71
    3
 72
    1
  1
1108
  7
standard
210
0
220
0
230
1
 50
0
 73
    2
 44
1
  0
LINE
  5
484
100
AcDbEntity
  8
alu
  6
ByLayer
 62
  256
370
    0
100
AcDbLine
 10
439.8385807404238
 20
-1330.000010101364
 11
434.8256228672617
 21
-1300.000009986236
  0
LINE
  5
485
100
AcDbEntity
  8
alu
  6
ByLayer
 62
  256
370
    0
100
AcDbLine
 10
0
 20
-1330
 11
24.0655731541151
 21
-1300.000000552692
  0
LINE
  5
486
100
AcDbEntity
  8
alu
  6
ByLayer
 62
  256
370
    0
100
AcDbLine
 10
0
 20
-1330
 11
439.8385807404238
 21
-1330.000010101364
  0
LINE
  5
487
100
AcDbEntity
  8
alu
  6
ByLayer
 62
  256
370
    0
100
AcDbLine
 10
439.8385807404238
 20
-1330.000010101364
 11
434.8256228672617
 21
-1300.000009986236
  0
LINE
  5
488
100
AcDbEntity
  8
alu
  6
ByLayer
 62
  256
370
    0
100
AcDbLine
 10
434.8256228672617
 20
-1300.000009986236
 11
24.0655731541151
 21
-1300.000000552692
  0
LINE
  5
489
100
AcDbEntity
  8
vis
  6
ByLayer
 62
  256
370
    0
100
AcDbLine
 10
82.0655731541151
 20
-1300.000001884724
 11
70.0655731541151
 21
-1300.000001609131
  0
LINE
  5
48A
100
AcDbEntity
  8
vis
  6
ByLayer
 62
  256
370
    0
100
AcDbLine
 10
184.0655731541151
 20
-1300.000004227263
 11
172.0655731541151
 21
-1300.00000395167
  0
LINE
  5
48B
100
AcDbEntity
  8
vis
  6
ByLayer
 62
  256
370
    0
100
AcDbLine
 10
286.8256228672617
 20
-1300.000006587258
 11
274.8256228672617
 21
-1300.000006311665
  0
LINE
  5
48C
100
AcDbEntity
  8
vis
  6
ByLayer
 62
  256
370
    0
100
AcDbLine
 10
388.8256228672617
 20
-1300.000008929797
 11
376.8256228672617
 21
-1300.000008654204
  0
LWPOLYLINE
  5
48D
100
AcDbEntity
  8
trous
  6
ByLayer
 62
  256
370
    0
100
AcDbPolyline
 90
    4
 70
    1
 43
0
 10
73.0655731541151
 20
-1300.000001609131
 10
79.0655731541151
 20
-1300.000001609131
 10
79.0655731541151
 20
-1330.000001609131
 10
73.0655731541151
 20
-1330.000001609131
  0
LWPOLYLINE
  5
48E
100
AcDbEntity
  8
trous
  6
ByLayer
 62
  256
370
    0
100
AcDbPolyline
 90
    4
 70
    1
 43
0
 10
175.0655731541151
 20
-1300.00000395167
 10
181.0655731541151
 20
-1300.00000395167
 10
181.0655731541151
 20
-1330.00000395167
 10
175.0655731541151
 20
-1330.00000395167
  0
LWPOLYLINE
  5
48F
100
AcDbEntity
  8
trous
  6
ByLayer
 62
  256
370
    0
100
AcDbPolyline
 90
    4
 70
    1
 43
0
 10
277.8256228672617
 20
-1300.000006311665
 10
283.8256228672617
 20
-1300.000006311665
 10
283.8256228672617
 20
-1330.000006311665
 10
277.8256228672617
 20
-1330.000006311665
  0
LWPOLYLINE
  5
490
100
AcDbEntity
  8
trous
  6
ByLayer
 62
  256
370
    0
100
AcDbPolyline
 90
    4
 70
    1
 43
0
 10
379.8256228672622
 20
-1300.000008654203
 10
385.8256228672622
 20
-1300.000008654203
 10
385.8256228672622
 20
-1330.000008654203
 10
379.8256228672622
 20
-1330.000008654203
  0
MTEXT
  5
491
100
AcDbEntity
  8
legende
  6
ByLayer
 62
  256
370
    0
100
AcDbMText
 10
79.0655731541151
 20
-1315.000001609131
 30
0
 40
20
 41
20.00000000000124
 71
    4
 72
    1
  1
15
  7
standard
210
0
220
0
230
1
 50
0
 73
    2
 44
1
  0
MTEXT
  5
492
100
AcDbEntity
  8
legende
  6
ByLayer
 62
  256
370
    0
100
AcDbMText
 10
181.0655731541151
 20
-1315.00000395167
 30
0
 40
20
 41
20.00000000000124
 71
    4
 72
    1
  1
15
  7
standard
210
0
220
0
230
1
 50
0
 73
    2
 44
1
  0
MTEXT
  5
493
100
AcDbEntity
  8
legende
  6
ByLayer
 62
  256
370
    0
100
AcDbMText
 10
283.8256228672617
 20
-1315.000006311665
 30
0
 40
20
 41
20.00000000000124
 71
    4
 72
    1
  1
15
  7
standard
210
0
220
0
230
1
 50
0
 73
    2
 44
1
  0
MTEXT
  5
494
100
AcDbEntity
  8
legende
  6
ByLayer
 62
  256
370
    0
100
AcDbMText
 10
385.8256228672622
 20
-1315.000008654203
 30
0
 40
20
 41
20.00000000000124
 71
    4
 72
    1
  1
15
  7
standard
210
0
220
0
230
1
 50
0
 73
    2
 44
1
  0
DIMENSION
  5
495
100
AcDbEntity
  8
legende
  6
ByLayer
 62
  256
370
    0
100
AcDbDimension
  2
*D64
 10
76.0655731541151
 20
-1350
 30
0
 11
38.03278657705755
 21
-1342.1875
 31
0
 70
   32
 71
    5
 72
    0
  3
Standard
 53
0
210
0
220
0
230
1
100
AcDbAlignedDimension
 13
0
 23
-1330
 33
0
 14
76.0655731541151
 24
-1330.000001609131
 34
0
100
AcDbRotatedDimension
  0
DIMENSION
  5
496
100
AcDbEntity
  8
legende
  6
ByLayer
 62
  256
370
    0
100
AcDbDimension
  2
*D65
 10
178.0655731541151
 20
-1350
 30
0
 11
127.0655731541151
 21
-1342.1875
 31
0
 70
   32
 71
    5
 72
    0
  3
Standard
 53
0
210
0
220
0
230
1
100
AcDbAlignedDimension
 13
76.0655731541151
 23
-1330.000001609131
 33
0
 14
178.0655731541151
 24
-1330.00000395167
 34
0
100
AcDbRotatedDimension
  0
DIMENSION
  5
497
100
AcDbEntity
  8
legende
  6
ByLayer
 62
  256
370
    0
100
AcDbDimension
  2
*D66
 10
280.8256228672617
 20
-1350
 30
0
 11
229.4455980106884
 21
-1342.1875
 31
0
 70
   32
 71
    5
 72
    0
  3
Standard
 53
0
210
0
220
0
230
1
100
AcDbAlignedDimension
 13
178.0655731541151
 23
-1330.00000395167
 33
0
 14
280.8256228672617
 24
-1330.000006311665
 34
0
100
AcDbRotatedDimension
  0
DIMENSION
  5
498
100
AcDbEntity
  8
legende
  6
ByLayer
 62
  256
370
    0
100
AcDbDimension
  2
*D67
 10
382.8256228672622
 20
-1350
 30
0
 11
331.8256228672619
 21
-1342.1875
 31
0
 70
   32
 71
    5
 72
    0
  3
Standard
 53
0
210
0
220
0
230
1
100
AcDbAlignedDimension
 13
280.8256228672617
 23
-1330.000006311665
 33
0
 14
382.8256228672622
 24
-1330.000008654203
 34
0
100
AcDbRotatedDimension
  0
DIMENSION
  5
499
100
AcDbEntity
  8
legende
  6
ByLayer
 62
  256
370
    0
100
AcDbDimension
  2
*D68
 10
440
 20
-1350
 30
0
 11
411.4128114336311
 21
-1342.1875
 31
0
 70
   32
 71
    5
 72
    0
  3
Standard
 53
0
210
0
220
0
230
1
100
AcDbAlignedDimension
 13
382.8256228672622
 23
-1330.000008654203
 33
0
 14
440
 24
-1330
 34
0
100
AcDbRotatedDimension
  0
DIMENSION
  5
49A
100
AcDbEntity
  8
legende
  6
ByLayer
 62
  256
370
    0
100
AcDbDimension
  2
*D69
 10
439.8385807404238
 20
-1370
 30
0
 11
437.3321018038428
 21
-1362.1875
 31
0
 70
   32
 71
    5
 72
    0
  3
Standard
 53
0
210
0
220
0
230
1
100
AcDbAlignedDimension
 13
434.8256228672617
 23
-1300.000009986236
 33
0
 14
439.8385807404238
 24
-1330.000010101364
 34
0
100
AcDbRotatedDimension
  0
DIMENSION
  5
49B
100
AcDbEntity
  8
legende
  6
ByLayer
 62
  256
370
    0
100
AcDbDimension
  2
*D70
 10
0
 20
-1370
 30
0
 11
12.03278657705755
 21
-1362.1875
 31
0
 70
   32
 71
    5
 72
    0
  3
Standard
 53
0
210
0
220
0
230
1
100
AcDbAlignedDimension
 13
24.0655731541151
 23
-1300.000000552692
 33
0
 14
0
 24
-1330
 34
0
100
AcDbRotatedDimension
  0
DIMENSION
  5
49C
100
AcDbEntity
  8
legende
  6
ByLayer
 62
  256
370
    0
100
AcDbDimension
  2
*D71
 10
440
 20
-1380
 30
0
 11
220
 21
-1372.1875
 31
0
 70
   32
 71
    5
 72
    0
  3
Standard
 53
0
210
0
220
0
230
1
100
AcDbAlignedDimension
 13
0
 23
-1330
 33
0
 14
440
 24
-1330
 34
0
100
AcDbRotatedDimension
  0
MTEXT
  5
49D
100
AcDbEntity
  8
noms
  6
ByLayer
 62
  256
370
   -1
100
AcDbMText
 10
-100
 20
-1300
 30
0
 40
50
 41
122.2222222222222
 71
    3
 72
    1
  1
1104
  7
standard
210
0
220
0
230
1
 50
0
 73
    2
 44
1
  0
MTEXT
  5
49E
100
AcDbEntity
  8
noms
  6
ByLayer
 62
  256
370
   -1
100
AcDbMText
 10
-100
 20
-1400
 30
0
 40
50
 41
166.6666666666667
 71
    3
 72
    1
  1
1104B
  7
standard
210
0
220
0
230
1
 50
0
 73
    2
 44
1
  0
LINE
  5
49F
100
AcDbEntity
  8
alu
  6
ByLayer
 62
  256
370
   -1
100
AcDbLine
 10
1148.000520219027
 20
-247
 11
1109.000520219027
 21
-247
  0
LINE
  5
4A0
100
AcDbEntity
  8
vis
  6
ByLayer
 62
  256
370
   -1
100
AcDbLine
 10
1190.000166514392
 20
-240.9999999999989
 11
1190.000166514392
 21
-246.9999999999988
  0
LINE
  5
4A1
100
AcDbEntity
  8
vis
  6
ByLayer
 62
  256
370
   -1
100
AcDbLine
 10
1179.999989596923
 20
-249.9999999999992
 11
1180.000031209232
 21
-237.9999999999991
  0
LINE
  5
4A2
100
AcDbEntity
  8
vis
  6
ByLayer
 62
  256
370
   -1
100
AcDbLine
 10
1180.000031209232
 20
-237.9999999999991
 11
1190.000166514392
 21
-237.9999999999987
  0
LINE
  5
4A3
100
AcDbEntity
  8
vis
  6
ByLayer
 62
  256
370
   -1
100
AcDbLine
 10
1190.000166514392
 20
-237.9999999999987
 11
1190.000166514392
 21
-249.9999999999988
  0
LINE
  5
4A4
100
AcDbEntity
  8
vis
  6
ByLayer
 62
  256
370
   -1
100
AcDbLine
 10
1190.000166514392
 20
-249.9999999999988
 11
1179.999989596922
 21
-249.9999999999989
  0
LWPOLYLINE
  5
4A5
100
AcDbEntity
  8
alu
  6
ByLayer
 62
  256
370
   -1
100
AcDbPolyline
 90
    4
 70
    1
 43
0
 10
1150
 20
-220
 10
1115
 20
-220
 10
1115
 20
-255
 10
1150
 20
-255
  0
LINE
  5
4A6
100
AcDbEntity
  8
vis
  6
ByLayer
 62
  256
370
   -1
100
AcDbLine
 10
1105
 20
-247.0000000000001
 11
1105
 21
-241.0000000000003
  0
LINE
  5
4A7
100
AcDbEntity
  8
vis
  6
ByLayer
 62
  256
370
   -1
100
AcDbLine
 10
1105
 20
-250.0000000000004
 11
1105
 21
-238.0000000000002
  0
LINE
  5
4A8
100
AcDbEntity
  8
vis
  6
ByLayer
 62
  256
370
   -1
100
AcDbLine
 10
1105
 20
-238.0000000000002
 11
1115
 21
-238.0000000000002
  0
LINE
  5
4A9
100
AcDbEntity
  8
vis
  6
ByLayer
 62
  256
370
   -1
100
AcDbLine
 10
1115
 20
-238.0000000000002
 11
1115
 21
-250.0000000000002
  0
LINE
  5
4AA
100
AcDbEntity
  8
vis
  6
ByLayer
 62
  256
370
   -1
100
AcDbLine
 10
1115
 20
-250.0000000000002
 11
1105
 21
-250.0000000000004
  0
LINE
  5
4AB
100
AcDbEntity
  8
vis
  6
ByLayer
 62
  256
370
   -1
100
AcDbLine
 10
1105
 20
-247.0000000000001
 11
1190.000166514392
 21
-246.9999999999988
  0
LINE
  5
4AC
100
AcDbEntity
  8
vis
  6
ByLayer
 62
  256
370
   -1
100
AcDbLine
 10
1190.000166514392
 20
-240.9999999999989
 11
1105
 21
-241.0000000000003
  0
LINE
  5
4AD
100
AcDbEntity
  8
0
  6
ByLayer
 62
  256
370
   -1
100
AcDbLine
 10
1111
 20
-220
 11
1141
 21
-220
  0
LINE
  5
4AE
100
AcDbEntity
  8
alu
  6
ByLayer
 62
  256
370
   -1
100
AcDbLine
 10
1123
 20
-221.9994797809727
 11
1123
 21
-260.9994797809727
  0
LINE
  5
4AF
100
AcDbEntity
  8
vis
  6
ByLayer
 62
  256
370
   -1
100
AcDbLine
 10
1129.000000000001
 20
-179.9998334856078
 11
1123.000000000001
 21
-179.9998334856077
  0
LINE
  5
4B0
100
AcDbEntity
  8
vis
  6
ByLayer
 62
  256
370
   -1
100
AcDbLine
 10
1120.000000000001
 20
-190.0000104030774
 11
1132.000000000001
 21
-189.9999687907682
  0
LINE
  5
4B1
100
AcDbEntity
  8
vis
  6
ByLayer
 62
  256
370
   -1
100
AcDbLine
 10
1132.000000000001
 20
-189.9999687907682
 11
1132.000000000001
 21
-179.9998334856078
  0
LINE
  5
4B2
100
AcDbEntity
  8
vis
  6
ByLayer
 62
  256
370
   -1
100
AcDbLine
 10
1132.000000000001
 20
-179.9998334856078
 11
1120.000000000001
 21
-179.9998334856077
  0
LINE
  5
4B3
100
AcDbEntity
  8
vis
  6
ByLayer
 62
  256
370
   -1
100
AcDbLine
 10
1120.000000000001
 20
-179.9998334856077
 11
1120.000000000001
 21
-190.0000104030776
  0
LINE
  5
4B4
100
AcDbEntity
  8
vis
  6
ByLayer
 62
  256
370
   -1
100
AcDbLine
 10
1123
 20
-265
 11
1129
 21
-265.0000000000002
  0
LINE
  5
4B5
100
AcDbEntity
  8
vis
  6
ByLayer
 62
  256
370
   -1
100
AcDbLine
 10
1120
 20
-264.9999999999998
 11
1132
 21
-265.0000000000002
  0
LINE
  5
4B6
100
AcDbEntity
  8
vis
  6
ByLayer
 62
  256
370
   -1
100
AcDbLine
 10
1132
 20
-265.0000000000002
 11
1132
 21
-255.0000000000002
  0
LINE
  5
4B7
100
AcDbEntity
  8
vis
  6
ByLayer
 62
  256
370
   -1
100
AcDbLine
 10
1132
 20
-255.0000000000002
 11
1120
 21
-254.9999999999998
  0
LINE
  5
4B8
100
AcDbEntity
  8
vis
  6
ByLayer
 62
  256
370
   -1
100
AcDbLine
 10
1120
 20
-254.9999999999998
 11
1120
 21
-264.9999999999998
  0
LINE
  5
4B9
100
AcDbEntity
  8
vis
  6
ByLayer
 62
  256
370
   -1
100
AcDbLine
 10
1123
 20
-265
 11
1123.000000000001
 21
-179.9998334856077
  0
LINE
  5
4BA
100
AcDbEntity
  8
vis
  6
ByLayer
 62
  256
370
   -1
100
AcDbLine
 10
1129.000000000001
 20
-179.9998334856078
 11
1129
 21
-265.0000000000002
  0
LINE
  5
4BB
100
AcDbEntity
  8
0
  6
ByLayer
 62
  256
370
   -1
100
AcDbLine
 10
-11.3791745862189
 20
-604.9014443557373
 11
404.5643036746507
 21
-461.9014443557373
  0
LINE
  5
4BC
100
AcDbEntity
  8
vis
  6
ByLayer
 62
  256
370
   -1
100
AcDbLine
 10
43.11754624341827
 20
-575.5911933917346
 11
48.7915775893471
 21
-573.6404580725753
  0
LINE
  5
4BD
100
AcDbEntity
  8
vis
  6
ByLayer
 62
  256
370
   -1
100
AcDbLine
 10
40.28053057045352
 20
-576.5665610513144
 11
51.62859326231163
 21
-572.6650904129956
  0
LINE
  5
4BE
100
AcDbEntity
  8
vis
  6
ByLayer
 62
  256
370
   -1
100
AcDbLine
 10
51.62859326231163
 20
-572.6650904129956
 11
54.87981879424345
 21
-582.1218093228773
  0
LINE
  5
4BF
100
AcDbEntity
  8
vis
  6
ByLayer
 62
  256
370
   -1
100
AcDbLine
 10
54.87981879424345
 20
-582.1218093228773
 11
43.53175610238557
 21
-586.0232799611961
  0
LINE
  5
4C0
100
AcDbEntity
  8
vis
  6
ByLayer
 62
  256
370
   -1
100
AcDbLine
 10
43.53175610238557
 20
-586.0232799611961
 11
40.28053057045352
 21
-576.5665610513144
  0
LINE
  5
4C1
100
AcDbEntity
  8
vis
  6
ByLayer
 62
  256
370
   -1
100
AcDbLine
 10
162.2722045074493
 20
-534.6257516895519
 11
167.9462358533781
 21
-532.6750163703925
  0
LINE
  5
4C2
100
AcDbEntity
  8
vis
  6
ByLayer
 62
  256
370
   -1
100
AcDbLine
 10
159.4351888344845
 20
-535.6011193491316
 11
170.7832515263426
 21
-531.6996487108129
  0
LINE
  5
4C3
100
AcDbEntity
  8
vis
  6
ByLayer
 62
  256
370
   -1
100
AcDbLine
 10
170.7832515263426
 20
-531.6996487108129
 11
174.0344770582745
 21
-541.1563676206946
  0
LINE
  5
4C4
100
AcDbEntity
  8
vis
  6
ByLayer
 62
  256
370
   -1
100
AcDbLine
 10
174.0344770582745
 20
-541.1563676206946
 11
162.6864143664166
 21
-545.0578382590134
  0
LINE
  5
4C5
100
AcDbEntity
  8
vis
  6
ByLayer
 62
  256
370
   -1
100
AcDbLine
 10
162.6864143664166
 20
-545.0578382590134
 11
159.4351888344845
 21
-535.6011193491316
  0
LINE
  5
4C6
100
AcDbEntity
  8
vis
  6
ByLayer
 62
  256
370
   -1
100
AcDbLine
 10
236.7533696533149
 20
-509.0190832374244
 11
242.4274009992437
 21
-507.068347918265
  0
LINE
  5
4C7
100
AcDbEntity
  8
vis
  6
ByLayer
 62
  256
370
   -1
100
AcDbLine
 10
233.9163539803501
 20
-509.9944508970041
 11
245.2644166722082
 21
-506.0929802586854
  0
LINE
  5
4C8
100
AcDbEntity
  8
vis
  6
ByLayer
 62
  256
370
   -1
100
AcDbLine
 10
245.2644166722082
 20
-506.0929802586854
 11
248.5156422041401
 21
-515.549699168567
  0
LINE
  5
4C9
100
AcDbEntity
  8
vis
  6
ByLayer
 62
  256
370
   -1
100
AcDbLine
 10
248.5156422041401
 20
-515.549699168567
 11
237.1675795122822
 21
-519.4511698068858
  0
LINE
  5
4CA
100
AcDbEntity
  8
vis
  6
ByLayer
 62
  256
370
   -1
100
AcDbLine
 10
237.1675795122822
 20
-519.4511698068858
 11
233.9163539803501
 21
-509.9944508970041
  0
LINE
  5
4CB
100
AcDbEntity
  8
vis
  6
ByLayer
 62
  256
370
   -1
100
AcDbLine
 10
355.9080279173445
 20
-468.0536415352421
 11
361.5820592632733
 21
-466.1029062160828
  0
LINE
  5
4CC
100
AcDbEntity
  8
vis
  6
ByLayer
 62
  256
370
   -1
100
AcDbLine
 10
353.0710122443797
 20
-469.0290091948219
 11
364.4190749362378
 21
-465.1275385565031
  0
LINE
  5
4CD
100
AcDbEntity
  8
vis
  6
ByLayer
 62
  256
370
   -1
100
AcDbLine
 10
364.4190749362378
 20
-465.1275385565031
 11
367.6703004681697
 21
-474.5842574663848
  0
LINE
  5
4CE
100
AcDbEntity
  8
vis
  6
ByLayer
 62
  256
370
   -1
100
AcDbLine
 10
367.6703004681697
 20
-474.5842574663848
 11
356.3222377763118
 21
-478.4857281047035
  0
LINE
  5
4CF
100
AcDbEntity
  8
vis
  6
ByLayer
 62
  256
370
   -1
100
AcDbLine
 10
356.3222377763118
 20
-478.4857281047035
 11
353.0710122443797
 21
-469.0290091948219
  0
LINE
  5
4D0
100
AcDbEntity
  8
vis
  6
ByLayer
 62
  256
370
   -1
100
AcDbLine
 10
48.7915775893471
 20
-573.6404580725753
 11
76.4270047787985
 21
-654.0225983819398
  0
LINE
  5
4D1
100
AcDbEntity
  8
vis
  6
ByLayer
 62
  256
370
   -1
100
AcDbLine
 10
70.75297343286951
 20
-655.973333701099
 11
43.11754624341827
 21
-575.5911933917346
  0
LINE
  5
4D2
100
AcDbEntity
  8
vis
  6
ByLayer
 62
  256
370
   -1
100
AcDbLine
 10
189.9076316969005
 20
-615.0078919989163
 11
162.2721946682888
 21
-534.625755072261
  0
LINE
  5
4D3
100
AcDbEntity
  8
vis
  6
ByLayer
 62
  256
370
   -1
100
AcDbLine
 10
167.9462358533779
 20
-532.6750163703925
 11
195.5816630428295
 21
-613.0571566797571
  0
LINE
  5
4D4
100
AcDbEntity
  8
vis
  6
ByLayer
 62
  256
370
   -1
100
AcDbLine
 10
264.3887968427661
 20
-589.4012235467887
 11
236.7533696533149
 21
-509.0190832374244
  0
LINE
  5
4D5
100
AcDbEntity
  8
vis
  6
ByLayer
 62
  256
370
   -1
100
AcDbLine
 10
242.4273911600831
 20
-507.0683513009743
 11
270.0628281886951
 21
-587.4504882276296
  0
LINE
  5
4D6
100
AcDbEntity
  8
vis
  6
ByLayer
 62
  256
370
   -1
100
AcDbLine
 10
383.5434551067958
 20
-548.4357818446065
 11
355.9080279173445
 21
-468.0536415352421
  0
LINE
  5
4D7
100
AcDbEntity
  8
vis
  6
ByLayer
 62
  256
370
   -1
100
AcDbLine
 10
361.5820592632732
 20
-466.1029062160828
 11
389.2174864527248
 21
-546.4850465254474
  0
LINE
  5
4D8
100
AcDbEntity
  8
alu
  6
ByLayer
 62
  256
370
   -1
100
AcDbLine
 10
404.5638077896241
 20
-461.900001993385
 11
-11.3791745862189
 21
-604.9014443557373
  0
LINE
  5
4D9
100
AcDbEntity
  8
alu
  6
ByLayer
 62
  256
370
   -1
100
AcDbLine
 10
-11.37928936183152
 20
-604.9014838152154
 11
-0.6500443296777974
 21
-636.1092402097767
  0
LINE
  5
4DA
100
AcDbEntity
  8
alu
  6
ByLayer
 62
  256
370
   -1
100
AcDbLine
 10
415.2929380461653
 20
-493.1077978474245
 11
404.5638077896241
 21
-461.900001993385
  0
MTEXT
  5
4DB
100
AcDbEntity
  8
vis
  6
ByLayer
 62
  256
370
   -1
100
AcDbMText
 10
30
 20
-600
 30
0
 40
20
 41
26.66666666666667
 71
    1
 72
    1
  1
24
  7
standard
210
0
220
0
230
1
 50
0
 73
    2
 44
1
  0
MTEXT
  5
4DC
100
AcDbEntity
  8
vis
  6
ByLayer
 62
  256
370
   -1
100
AcDbMText
 10
149.154658264031
 20
-559.0345582978173
 30
0
 40
20
 41
26.66666666666667
 71
    1
 72
    1
  1
24
  7
standard
210
0
220
0
230
1
 50
0
 73
    2
 44
1
  0
MTEXT
  5
4DD
100
AcDbEntity
  8
vis
  6
ByLayer
 62
  256
370
   -1
100
AcDbMText
 10
223.6358234098966
 20
-533.4278898456898
 30
0
 40
20
 41
26.66666666666667
 71
    1
 72
    1
  1
24
  7
standard
210
0
220
0
230
1
 50
0
 73
    2
 44
1
  0
MTEXT
  5
4DE
100
AcDbEntity
  8
vis
  6
ByLayer
 62
  256
370
   -1
100
AcDbMText
 10
342.7904816739263
 20
-492.4624481435076
 30
0
 40
20
 41
26.66666666666667
 71
    1
 72
    1
  1
24
  7
standard
210
0
220
0
230
1
 50
0
 73
    2
 44
1
  0
LINE
  5
4DF
100
AcDbEntity
  8
0
  6
ByLayer
 62
  256
370
   -1
100
AcDbLine
 10
-7.802862573407261
 20
-615.3038475582199
 11
408.1406156874623
 21
-472.3038475582199
  0
LINE
  5
4E0
100
AcDbEntity
  8
0
  6
ByLayer
 62
  256
370
   -1
100
AcDbLine
 10
68.03165630047681
 20
-601.9219389113988
 11
58.27807808371779
 21
-573.5517483591738
  0
CIRCLE
  5
4E1
100
AcDbEntity
  8
alu
  6
ByLayer
 62
  256
370
   -1
100
AcDbCircle
 10
64.13022501377279
 20
-590.5738626905076
 40
3
  0
CIRCLE
  5
4E2
100
AcDbEntity
  8
alu
  6
ByLayer
 62
  256
370
   -1
100
AcDbCircle
 10
160.5887578939857
 20
-557.4113622649975
 40
3
  0
CIRCLE
  5
4E3
100
AcDbEntity
  8
alu
  6
ByLayer
 62
  256
370
   -1
100
AcDbCircle
 10
257.7660484236692
 20
-524.0017525361974
 40
3
  0
CIRCLE
  5
4E4
100
AcDbEntity
  8
alu
  6
ByLayer
 62
  256
370
   -1
100
AcDbCircle
 10
354.224581303881
 20
-490.8392521106877
 40
3
  0
LINE
  5
4E5
100
AcDbEntity
  8
alu
  6
ByLayer
 62
  256
370
    0
100
AcDbLine
 10
1200
 20
-1805
 11
1639.838580737779
 21
-1805.001525224918
  0
LINE
  5
4E6
100
AcDbEntity
  8
alu
  6
ByLayer
 62
  256
370
    0
100
AcDbLine
 10
1639.838563399317
 20
-1805.001525224858
 11
1639.838442030082
 21
-1840.001525224678
  0
LINE
  5
4E7
100
AcDbEntity
  8
alu
  6
ByLayer
 62
  256
370
    0
100
AcDbLine
 10
1199.999861292303
 20
-1839.999999999759
 11
1199.999982661538
 21
-1804.99999999994
  0
LINE
  5
4E8
100
AcDbEntity
  8
alu
  6
ByLayer
 62
  256
370
   -1
100
AcDbLine
 10
1111
 20
-220
 11
1141
 21
-220
  0
DIMENSION
  5
4E9
100
AcDbEntity
  8
legende
  6
ByLayer
 62
  256
370
   -1
100
AcDbDimension
  2
*D72
 10
1710
 20
-1816.001327521417
 30
0
 11
1702.1875
 21
-1828.000663760708
 31
0
 70
   32
 71
    5
 72
    0
  3
Standard
 53
0
210
0
220
0
230
1
100
AcDbAlignedDimension
 13
1640
 23
-1840
 33
0
 14
1582.825566692899
 24
-1816.001327521417
 34
0
 50
90
100
AcDbRotatedDimension
  0
LINE
  5
4EA
100
AcDbEntity
  8
0
  6
ByLayer
 62
  256
370
   -1
100
AcDbLine
 10
1276.065464966209
 20
-1831.000263771824
 11
1276.065568996982
 21
-1801.000263772004
  0
LINE
  5
4EB
100
AcDbEntity
  8
0
  6
ByLayer
 62
  256
370
   -1
100
AcDbLine
 10
1378.065464965596
 20
-1831.000617476452
 11
1378.065568996369
 21
-1801.000617476632
  0
LINE
  5
4EC
100
AcDbEntity
  8
0
  6
ByLayer
 62
  256
370
   -1
100
AcDbLine
 10
1480.825514678126
 20
-1831.000973816699
 11
1480.825618708898
 21
-1801.000973816879
  0
LINE
  5
4ED
100
AcDbEntity
  8
0
  6
ByLayer
 62
  256
370
   -1
100
AcDbLine
 10
1582.825514677513
 20
-1831.001327521327
 11
1582.825618708285
 21
-1801.001327521507
  0
LINE
  5
4EE
100
AcDbEntity
  8
0
  6
ByLayer
 62
  256
370
   -1
100
AcDbLine
 10
283.8256228672617
 20
-1430.000006311665
 11
283.8256228672617
 21
-1400.000006311665
  0
LINE
  5
4EF
100
AcDbEntity
  8
0
  6
ByLayer
 62
  256
370
   -1
100
AcDbLine
 10
1267.065464966264
 20
-1831.000232562592
 11
1267.065568997037
 21
-1801.000232562772
  0
LINE
  5
4F0
100
AcDbEntity
  8
0
  6
ByLayer
 62
  256
370
   -1
100
AcDbLine
 10
1387.065516980983
 20
-1817.563117476542
 11
1387.065516980983
 21
-1863.125
  0
LINE
  5
4F1
100
AcDbEntity
  8
0
  6
ByLayer
 62
  256
370
   -1
100
AcDbLine
 10
1471.82551467818
 20
-1831.000942607467
 11
1471.825618708953
 21
-1801.000942607647
  0
LINE
  5
4F2
100
AcDbEntity
  8
0
  6
ByLayer
 62
  256
370
   -1
100
AcDbLine
 10
1591.825566692899
 20
-1817.563827521417
 11
1591.825566692899
 21
-1863.125
  0
LINE
  5
4F3
100
AcDbEntity
  8
0
  6
ByLayer
 62
  256
370
   -1
100
AcDbLine
 10
1261.0654649663
 20
-1831.000211756437
 11
1261.065568997073
 21
-1801.000211756618
  0
LINE
  5
4F4
100
AcDbEntity
  8
0
  6
ByLayer
 62
  256
370
   -1
100
AcDbLine
 10
1393.065516980983
 20
-1817.563117476542
 11
1393.065516980983
 21
-1863.125
  0
LINE
  5
4F5
100
AcDbEntity
  8
0
  6
ByLayer
 62
  256
370
   -1
100
AcDbLine
 10
1465.825514678216
 20
-1831.000921801312
 11
1465.825618708989
 21
-1801.000921801493
  0
LINE
  5
4F6
100
AcDbEntity
  8
0
  6
ByLayer
 62
  256
370
   -1
100
AcDbLine
 10
1597.825566692899
 20
-1817.563827521417
 11
1597.825566692899
 21
-1863.125
  0
LWPOLYLINE
  5
4F7
100
AcDbEntity
  8
trous
  6
ByLayer
 62
  256
370
   -1
100
AcDbPolyline
 90
    4
 70
    1
 43
0
 10
1261.065555126303
 20
-1805.000211756563
 10
1267.065433757032
 20
-1805.000211756563
 10
1267.065433757032
 20
-1840.000232562537
 10
1261.065555126303
 20
-1840.000232562537
  0
LWPOLYLINE
  5
4F8
100
AcDbEntity
  8
trous
  6
ByLayer
 62
  256
370
   -1
100
AcDbPolyline
 90
    4
 70
    1
 43
0
 10
1387.065516980983
 20
-1805.000648685678
 10
1393.065516980983
 20
-1805.000648685678
 10
1393.065516980983
 20
-1840.000669492073
 10
1387.065516980983
 20
-1840.000669492073
  0
LWPOLYLINE
  5
4F9
100
AcDbEntity
  8
trous
  6
ByLayer
 62
  256
370
   -1
100
AcDbPolyline
 90
    4
 70
    1
 43
0
 10
1465.825604838219
 20
-1805.000921801438
 10
1471.825483468948
 20
-1805.000921801438
 10
1471.825483468948
 20
-1840.000942607413
 10
1465.825604838219
 20
-1840.000942607413
  0
LWPOLYLINE
  5
4FA
100
AcDbEntity
  8
trous
  6
ByLayer
 62
  256
370
   -1
100
AcDbPolyline
 90
    4
 70
    1
 43
0
 10
1591.825566692899
 20
-1805.001358730553
 10
1597.825566692899
 20
-1805.001358730553
 10
1597.825566692899
 20
-1840.001379536948
 10
1591.825566692899
 20
-1840.001379536948
  0
DIMENSION
  5
4FB
100
AcDbEntity
  8
legende
  6
ByLayer
 62
  256
370
   -1
100
AcDbDimension
  2
*D73
 10
1390.065516980983
 20
-1790
 30
0
 11
1327.065505711325
 21
-1782.1875
 31
0
 70
   32
 71
    5
 72
    0
  3
Standard
 53
0
210
0
220
0
230
1
100
AcDbAlignedDimension
 13
1264.065494441667
 23
-1805.000211756563
 33
0
 14
1390.065516980983
 24
-1805.000648685678
 34
0
100
AcDbRotatedDimension
  0
DIMENSION
  5
4FC
100
AcDbEntity
  8
legende
  6
ByLayer
 62
  256
370
   -1
100
AcDbDimension
  2
*D74
 10
1199.999982661538
 20
-1790
 30
0
 11
1232.032738551603
 21
-1782.1875
 31
0
 70
   32
 71
    5
 72
    0
  3
Standard
 53
0
210
0
220
0
230
1
100
AcDbAlignedDimension
 13
1264.065494441667
 23
-1805.000211756563
 33
0
 14
1199.999982661538
 24
-1804.99999999994
 34
0
100
AcDbRotatedDimension
  0
DIMENSION
  5
4FD
100
AcDbEntity
  8
legende
  6
ByLayer
 62
  256
370
   -1
100
AcDbDimension
  2
*D75
 10
1468.825544153583
 20
-1790
 30
0
 11
1429.445530567283
 21
-1782.1875
 31
0
 70
   32
 71
    5
 72
    0
  3
Standard
 53
0
210
0
220
0
230
1
100
AcDbAlignedDimension
 13
1390.065516980983
 23
-1805.000648685678
 33
0
 14
1468.825544153583
 24
-1805.000921801438
 34
0
100
AcDbRotatedDimension
  0
DIMENSION
  5
4FE
100
AcDbEntity
  8
legende
  6
ByLayer
 62
  256
370
   -1
100
AcDbDimension
  2
*D76
 10
1594.825566692899
 20
-1790
 30
0
 11
1531.825555423241
 21
-1782.1875
 31
0
 70
   32
 71
    5
 72
    0
  3
Standard
 53
0
210
0
220
0
230
1
100
AcDbAlignedDimension
 13
1468.825544153583
 23
-1805.000921801438
 33
0
 14
1594.825566692899
 24
-1805.001358730553
 34
0
100
AcDbRotatedDimension
  0
DIMENSION
  5
4FF
100
AcDbEntity
  8
legende
  6
ByLayer
 62
  256
370
   -1
100
AcDbDimension
  2
*D77
 10
1639.838563399317
 20
-1790
 30
0
 11
1617.332065046108
 21
-1782.1875
 31
0
 70
   32
 71
    5
 72
    0
  3
Standard
 53
0
210
0
220
0
230
1
100
AcDbAlignedDimension
 13
1594.825566692899
 23
-1805.001358730553
 33
0
 14
1639.838563399317
 24
-1805.001525224858
 34
0
100
AcDbRotatedDimension
  0
MTEXT
  5
500
100
AcDbEntity
  8
cornière
  6
ByLayer
 62
  256
370
    0
100
AcDbMText
 10
1200
 20
-1740
 30
0
 40
20
 41
157.222222222229
 71
    1
 72
    1
  1
carré 35×35
  7
standard
210
0
220
0
230
1
 50
0
 73
    2
 44
1
  0
LWPOLYLINE
  5
501
100
AcDbEntity
  8
trous
  6
ByLayer
 62
  256
370
    0
100
AcDbPolyline
 90
    4
 70
    1
 43
0
 10
265.8256228672617
 20
-1400.000006311665
 10
271.8256228672617
 20
-1400.000006311665
 10
271.8256228672617
 20
-1430.000006311665
 10
265.8256228672617
 20
-1430.000006311665
  0
MTEXT
  5
502
100
AcDbEntity
  8
legende
  6
ByLayer
 62
  256
370
    0
100
AcDbMText
 10
271.8256228672617
 20
-1415.000006311665
 30
0
 40
20
 41
20.00000000000124
 71
    4
 72
    1
  1
15
  7
standard
210
0
220
0
230
1
 50
0
 73
    2
 44
1
  0
LWPOLYLINE
  5
503
100
AcDbEntity
  8
trous
  6
ByLayer
 62
  256
370
    0
100
AcDbPolyline
 90
    4
 70
    1
 43
0
 10
187.0655731541151
 20
-1400.00000395167
 10
193.0655731541151
 20
-1400.00000395167
 10
193.0655731541151
 20
-1430.00000395167
 10
187.0655731541151
 20
-1430.00000395167
  0
MTEXT
  5
504
100
AcDbEntity
  8
legende
  6
ByLayer
 62
  256
370
    0
100
AcDbMText
 10
193.0655731541151
 20
-1415.00000395167
 30
0
 40
20
 41
20.00000000000124
 71
    4
 72
    1
  1
15
  7
standard
210
0
220
0
230
1
 50
0
 73
    2
 44
1
  0
DIMENSION
  5
505
100
AcDbEntity
  8
legende
  6
ByLayer
 62
  256
370
   -1
100
AcDbDimension
  2
*D78
 10
292.8256228672617
 20
-1450
 30
0
 11
229.4128114336308
 21
-1442.1875
 31
0
 70
   32
 71
    5
 72
    0
  3
Standard
 53
0
210
0
220
0
230
1
100
AcDbAlignedDimension
 13
190
 23
-1430
 33
0
 14
268.8256228672617
 24
-1430.000006311665
 34
0
100
AcDbRotatedDimension
  0
LWPOLYLINE
  5
506
100
AcDbEntity
  8
trous
  6
ByLayer
 62
  256
370
    0
100
AcDbPolyline
 90
    4
 70
    1
 43
0
 10
391.8256228672622
 20
-1400.000008654203
 10
397.8256228672622
 20
-1400.000008654203
 10
397.8256228672622
 20
-1430.000008654203
 10
391.8256228672622
 20
-1430.000008654203
  0
MTEXT
  5
507
100
AcDbEntity
  8
legende
  6
ByLayer
 62
  256
370
    0
100
AcDbMText
 10
397.8256228672622
 20
-1415.000008654203
 30
0
 40
20
 41
20.00000000000124
 71
    4
 72
    1
  1
15
  7
standard
210
0
220
0
230
1
 50
0
 73
    2
 44
1
  0
LWPOLYLINE
  5
508
100
AcDbEntity
  8
trous
  6
ByLayer
 62
  256
370
    0
100
AcDbPolyline
 90
    4
 70
    1
 43
0
 10
61.0655731541151
 20
-1400.000001609131
 10
67.0655731541151
 20
-1400.000001609131
 10
67.0655731541151
 20
-1430.000001609131
 10
61.0655731541151
 20
-1430.000001609131
  0
MTEXT
  5
509
100
AcDbEntity
  8
legende
  6
ByLayer
 62
  256
370
    0
100
AcDbMText
 10
67.0655731541151
 20
-1415.000001609131
 30
0
 40
20
 41
20.00000000000124
 71
    4
 72
    1
  1
15
  7
standard
210
0
220
0
230
1
 50
0
 73
    2
 44
1
  0
DIMENSION
  5
50A
100
AcDbEntity
  8
legende
  6
ByLayer
 62
  256
370
   -1
100
AcDbDimension
  2
*D79
 10
64.0655731541151
 20
-1450
 30
0
 11
32.03278657705755
 21
-1442.1875
 31
0
 70
   32
 71
    5
 72
    0
  3
Standard
 53
0
210
0
220
0
230
1
100
AcDbAlignedDimension
 13
0
 23
-1430
 33
0
 14
64.0655731541151
 24
-1430.000001609131
 34
0
100
AcDbRotatedDimension
  0
DIMENSION
  5
50B
100
AcDbEntity
  8
legende
  6
ByLayer
 62
  256
370
   -1
100
AcDbDimension
  2
*D80
 10
166.0655731541151
 20
-1450
 30
0
 11
127.0327865770575
 21
-1442.1875
 31
0
 70
   32
 71
    5
 72
    0
  3
Standard
 53
0
210
0
220
0
230
1
100
AcDbAlignedDimension
 13
64.0655731541151
 23
-1430.000001609131
 33
0
 14
190
 24
-1430
 34
0
100
AcDbRotatedDimension
  0
DIMENSION
  5
50C
100
AcDbEntity
  8
legende
  6
ByLayer
 62
  256
370
   -1
100
AcDbDimension
  2
*D81
 10
394.8256228672622
 20
-1450
 30
0
 11
331.8256228672619
 21
-1442.1875
 31
0
 70
   32
 71
    5
 72
    0
  3
Standard
 53
0
210
0
220
0
230
1
100
AcDbAlignedDimension
 13
268.8256228672617
 23
-1430.000006311665
 33
0
 14
394.8256228672622
 24
-1430.000008654203
 34
0
100
AcDbRotatedDimension
  0
LINE
  5
50D
100
AcDbEntity
  8
alu
  6
ByLayer
 62
  253
420
10526884
370
   -1
100
AcDbLine
 10
853.157059418277
 20
-53.34008024727871
 11
388.6325935760029
 21
-415.5618444157961
  0
LINE
  5
50E
100
AcDbEntity
  8
alu
  6
ByLayer
 62
  253
420
10526884
370
   -1
100
AcDbLine
 10
388.6325935760029
 20
-415.5618444157961
 11
374.138210250141
 21
-388.8215638348308
  0
LINE
  5
50F
100
AcDbEntity
  8
alu
  6
ByLayer
 62
  253
420
10526884
370
   -1
100
AcDbLine
 10
374.138210250141
 20
-388.8215638348308
 11
834.7095038374086
 21
-29.68236072297168
  0
LINE
  5
510
100
AcDbEntity
  8
alu
  6
ByLayer
 62
  253
420
10526884
370
   -1
100
AcDbLine
 10
834.7095038374086
 20
-29.68236072297168
 11
853.157059418277
 21
-53.34008024727871
  0
LINE
  5
511
100
AcDbEntity
  8
alu
  6
ByLayer
 62
  253
420
10526884
370
   -1
100
AcDbLine
 10
811.0517843131015
 20
-48.12991630383988
 11
834.7095038374086
 21
-29.68236072297168
  0
LINE
  5
512
100
AcDbEntity
  8
alu
  6
ByLayer
 62
  253
420
10526884
370
   -1
100
AcDbLine
 10
834.7095038374086
 20
-29.68236072297168
 11
680.9798739968403
 21
167.4653019795868
  0
LINE
  5
513
100
AcDbEntity
  8
alu
  6
ByLayer
 62
  253
420
10526884
370
   -1
100
AcDbLine
 10
680.9798739968403
 20
167.4653019795868
 11
657.3221544725332
 21
149.0177463987186
  0
LINE
  5
514
100
AcDbEntity
  8
alu
  6
ByLayer
 62
  253
420
10526884
370
   -1
100
AcDbLine
 10
657.3221544725332
 20
149.0177463987186
 11
811.0517843131015
 21
-48.12991630383988
  0
LINE
  5
515
100
AcDbEntity
  8
alu
  6
ByLayer
 62
  253
420
10526884
370
   -1
100
AcDbLine
 10
680.9798739968403
 20
167.4653019795868
 11
662.532318415972
 21
191.1230215038938
  0
LINE
  5
516
100
AcDbEntity
  8
alu
  6
ByLayer
 62
  253
420
10526884
370
   -1
100
AcDbLine
 10
662.532318415972
 20
191.1230215038938
 11
-115.1246690560842
 21
-415.2697664612222
  0
LINE
  5
517
100
AcDbEntity
  8
alu
  6
ByLayer
 62
  253
420
10526884
370
   -1
100
AcDbLine
 10
-115.1246690560842
 20
-415.2697664612222
 11
-75.54137481693638
 21
-422.446492826374
  0
LINE
  5
518
100
AcDbEntity
  8
alu
  6
ByLayer
 62
  253
420
10526884
370
   -1
100
AcDbLine
 10
-75.54137481693638
 20
-422.446492826374
 11
680.9798739968403
 21
167.4653019795868
  0
LINE
  5
519
100
AcDbEntity
  8
alu
  6
ByLayer
 62
  253
420
10526884
370
   -1
100
AcDbLine
 10
-115.1246690560842
 20
-415.2697664612222
 11
-27.30989291481377
 21
-558.5647291405007
  0
LINE
  5
51A
100
AcDbEntity
  8
alu
  6
ByLayer
 62
  253
420
10526884
370
   -1
100
AcDbLine
 10
-27.30989291481377
 20
-558.5647291405007
 11
-14.30555960098186
 21
-522.370266951689
  0
LINE
  5
51B
100
AcDbEntity
  8
alu
  6
ByLayer
 62
  253
420
10526884
370
   -1
100
AcDbLine
 10
-14.30555960098186
 20
-522.370266951689
 11
-75.54137481693638
 21
-422.446492826374
  0
LINE
  5
51C
100
AcDbEntity
  8
alu
  6
ByLayer
 62
  253
420
10526884
370
   -1
100
AcDbLine
 10
-75.54137481693638
 20
-422.446492826374
 11
-115.1246690560842
 21
-415.2697664612222
  0
LINE
  5
51D
100
AcDbEntity
  8
alu
  6
ByLayer
 62
  253
420
10526884
370
   -1
100
AcDbLine
 10
-27.30989291481377
 20
-558.5647291405007
 11
388.6325935760029
 21
-415.5618444157961
  0
LINE
  5
51E
100
AcDbEntity
  8
alu
  6
ByLayer
 62
  253
420
10526884
370
   -1
100
AcDbLine
 10
388.6325935760029
 20
-415.5618444157961
 11
374.138210250141
 21
-388.8215638348308
  0
LINE
  5
51F
100
AcDbEntity
  8
alu
  6
ByLayer
 62
  253
420
10526884
370
   -1
100
AcDbLine
 10
374.138210250141
 20
-388.8215638348308
 11
-14.30555960098186
 21
-522.370266951689
  0
LINE
  5
520
100
AcDbEntity
  8
alu
  6
ByLayer
 62
  253
420
10526884
370
   -1
100
AcDbLine
 10
721.2736804862095
 20
67.00431871445426
 11
739.7212360670776
 21
43.34659919014712
  0
LINE
  5
521
100
AcDbEntity
  8
alu
  6
ByLayer
 62
  253
420
10526884
370
   -1
100
AcDbLine
 10
471.9578044647008
 20
-312.5448796296179
 11
448.3000849403936
 21
-330.9924352104861
  0
LINE
  5
522
100
AcDbEntity
  8
alu
  6
ByLayer
 62
  253
420
10526884
370
   -1
100
AcDbLine
 10
318.2281746241322
 20
-115.3972169270594
 11
294.570455099825
 21
-133.8447725079276
  0
LINE
  5
523
100
AcDbEntity
  8
cornière
  6
ByLayer
 62
  253
420
10526884
370
   -1
100
AcDbLine
 10
404.4044065922075
 20
-403.2634740285507
 11
392.1060362049622
 21
-387.491661012346
  0
LINE
  5
524
100
AcDbEntity
  8
cornière
  6
ByLayer
 62
  253
420
10526884
370
   -1
100
AcDbLine
 10
392.1060362049622
 20
-387.491661012346
 11
840.8586890310312
 21
-37.56826723107406
  0
LINE
  5
525
100
AcDbEntity
  8
cornière
  6
ByLayer
 62
  253
420
10526884
370
   -1
100
AcDbLine
 10
840.8586890310312
 20
-37.56826723107406
 11
853.157059418277
 21
-53.34008024727871
  0
LINE
  5
526
100
AcDbEntity
  8
cornière
  6
ByLayer
 62
  253
420
10526884
370
   -1
100
AcDbLine
 10
853.157059418277
 20
-53.34008024727871
 11
404.4044065922075
 21
-403.2634740285507
  0
LINE
  5
527
100
AcDbEntity
  8
cornière
  6
ByLayer
 62
  253
420
10526884
370
   -1
100
AcDbLine
 10
834.7095038374086
 20
-29.68236072297168
 11
818.9376908212039
 21
-41.98073111021711
  0
LINE
  5
528
100
AcDbEntity
  8
cornière
  6
ByLayer
 62
  253
420
10526884
370
   -1
100
AcDbLine
 10
818.9376908212039
 20
-41.98073111021711
 11
665.2080609806355
 21
155.1669315923413
  0
LINE
  5
529
100
AcDbEntity
  8
cornière
  6
ByLayer
 62
  253
420
10526884
370
   -1
100
AcDbLine
 10
665.2080609806355
 20
155.1669315923413
 11
680.9798739968403
 21
167.4653019795868
  0
LINE
  5
52A
100
AcDbEntity
  8
cornière
  6
ByLayer
 62
  253
420
10526884
370
   -1
100
AcDbLine
 10
680.9798739968403
 20
167.4653019795868
 11
834.7095038374086
 21
-29.68236072297168
  0
LINE
  5
52B
100
AcDbEntity
  8
cornière
  6
ByLayer
 62
  253
420
10526884
370
   -1
100
AcDbLine
 10
662.532318415972
 20
191.1230215038938
 11
674.8306888032173
 21
175.3512084876891
  0
LINE
  5
52C
100
AcDbEntity
  8
cornière
  6
ByLayer
 62
  253
420
10526884
370
   -1
100
AcDbLine
 10
674.8306888032173
 20
175.3512084876891
 11
-102.8262986688387
 21
-431.0415794774269
  0
LINE
  5
52D
100
AcDbEntity
  8
cornière
  6
ByLayer
 62
  253
420
10526884
370
   -1
100
AcDbLine
 10
-102.8262986688387
 20
-431.0415794774269
 11
-115.1246690560842
 21
-415.269766461222
  0
LINE
  5
52E
100
AcDbEntity
  8
cornière
  6
ByLayer
 62
  253
420
10526884
370
   -1
100
AcDbLine
 10
-115.1246690560842
 20
-415.269766461222
 11
662.532318415972
 21
191.1230215038938
  0
LWPOLYLINE
  5
52F
100
AcDbEntity
  8
vis
  6
ByLayer
 62
  253
420
10526884
370
   -1
100
AcDbPolyline
 90
    4
 70
    1
 43
0
 10
453.1374869295829
 20
-377.9437804910901
 10
462.6005747393059
 20
-370.5647582587428
 10
456.4513895456829
 20
-362.6788517506405
 10
446.9883017359604
 20
-370.0578739829878
  0
LWPOLYLINE
  5
530
100
AcDbEntity
  8
vis
  6
ByLayer
 62
  253
420
10526884
370
   -1
100
AcDbPolyline
 90
    4
 70
    1
 43
0
 10
428.5407461550921
 20
-346.4001544586808
 10
438.0038339648148
 20
-339.0211322263335
 10
431.854648771192
 20
-331.1352257182311
 10
422.3915609614693
 20
-338.5142479505785
  0
LWPOLYLINE
  5
531
100
AcDbEntity
  8
vis
  6
ByLayer
 62
  253
420
10526884
370
   -1
100
AcDbPolyline
 90
    4
 70
    1
 43
0
 10
823.0310746746288
 20
-89.51223864604572
 10
832.4941624843514
 20
-82.13321641369851
 10
826.3449772907288
 20
-74.24730990559613
 10
816.8818894810058
 20
-81.62633213794345
  0
LWPOLYLINE
  5
532
100
AcDbEntity
  8
vis
  6
ByLayer
 62
  253
420
10526884
370
   -1
100
AcDbPolyline
 90
    4
 70
    1
 43
0
 10
798.4343339001377
 20
-57.96861261363631
 10
807.8974217098605
 20
-50.5895903812891
 10
801.7482365162375
 20
-42.70368387318683
 10
792.2851487065147
 20
-50.08270610553404
  0
LWPOLYLINE
  5
533
100
AcDbEntity
  8
vis
  6
ByLayer
 62
  253
420
10526884
370
   -1
100
AcDbPolyline
 90
    4
 70
    1
 43
0
 10
769.9602777594362
 20
-11.6952063537102
 10
777.8461842675385
 20
-5.546021160087321
 10
770.4671620351914
 20
3.917066649635558
 10
762.5812555270888
 20
-2.232118543987326
  0
LWPOLYLINE
  5
534
100
AcDbEntity
  8
vis
  6
ByLayer
 62
  253
420
10526884
370
   -1
100
AcDbPolyline
 90
    4
 70
    1
 43
0
 10
801.5039037918457
 20
12.90153442078088
 10
809.3898102999481
 20
19.05071961440365
 10
802.010788067601
 20
28.51380742412641
 10
794.1248815594984
 20
22.36462223050376
  0
LWPOLYLINE
  5
535
100
AcDbEntity
  8
vis
  6
ByLayer
 62
  253
420
10526884
370
   -1
100
AcDbPolyline
 90
    4
 70
    1
 43
0
 10
722.0713805505052
 20
131.0305920294569
 10
714.1854740424028
 20
124.8814068358341
 10
721.5644962747501
 20
115.4183190261114
 10
729.4504027828523
 20
121.567504219734
  0
LWPOLYLINE
  5
536
100
AcDbEntity
  8
vis
  6
ByLayer
 62
  253
420
10526884
370
   -1
100
AcDbPolyline
 90
    4
 70
    1
 43
0
 10
697.906776750443
 20
96.97076344524305
 10
690.0208702423404
 20
90.82157825162028
 10
682.6418480099931
 20
100.284666061343
 10
690.5277545180959
 20
106.4338512549659
  0
LWPOLYLINE
  5
537
100
AcDbEntity
  8
vis
  6
ByLayer
 62
  253
420
10526884
370
   -1
100
AcDbPolyline
 90
    4
 70
    1
 43
0
 10
629.5710510948009
 20
178.1016983536787
 10
620.1079632850781
 20
170.7226761213315
 10
626.2571484787011
 20
162.8367696132292
 10
635.7202362884238
 20
170.2157918455764
  0
LWPOLYLINE
  5
538
100
AcDbEntity
  8
vis
  6
ByLayer
 62
  253
420
10526884
370
   -1
100
AcDbPolyline
 90
    4
 70
    1
 43
0
 10
650.8538892531922
 20
131.2931435808198
 10
660.3169770629147
 20
138.6721658131671
 10
654.1677918692922
 20
146.5580723212694
 10
644.7047040595694
 20
139.1790500889222
  0
LWPOLYLINE
  5
539
100
AcDbEntity
  8
vis
  6
ByLayer
 62
  253
420
10526884
370
   -1
100
AcDbPolyline
 90
    4
 70
    1
 43
0
 10
644.5451640467102
 20
126.3737954259216
 10
635.0820762369874
 20
118.9947731935744
 10
628.9328910433646
 20
126.8806797016767
 10
638.3959788530874
 20
134.259701934024
  0
LWPOLYLINE
  5
53A
100
AcDbEntity
  8
vis
  6
ByLayer
 62
  253
420
10526884
370
   -1
100
AcDbPolyline
 90
    4
 70
    1
 43
0
 10
613.7992380785961
 20
165.8033279664332
 10
604.3361502688733
 20
158.424305734086
 10
610.4853354624963
 20
150.5383992259838
 10
619.9484232722191
 20
157.917421458331
  0
LWPOLYLINE
  5
53B
100
AcDbEntity
  8
vis
  6
ByLayer
 62
  253
420
10526884
370
   -1
100
AcDbPolyline
 90
    4
 70
    1
 43
0
 10
259.6774633497554
 20
-110.3298434913656
 10
250.2143755400326
 20
-117.708865723713
 10
256.3635607336554
 20
-125.5947722318152
 10
265.8266485433779
 20
-118.215749999468
  0
LWPOLYLINE
  5
53C
100
AcDbEntity
  8
vis
  6
ByLayer
 62
  253
420
10526884
370
   -1
100
AcDbPolyline
 90
    4
 70
    1
 43
0
 10
280.9603015081462
 20
-157.1383982642246
 10
290.423389317869
 20
-149.7593760318773
 10
284.2742041242462
 20
-141.873469523775
 10
274.8111163145235
 20
-149.2524917561223
  0
LWPOLYLINE
  5
53D
100
AcDbEntity
  8
vis
  6
ByLayer
 62
  253
420
10526884
370
   -1
100
AcDbPolyline
 90
    4
 70
    1
 43
0
 10
-69.22687129623151
 20
-366.7992376752096
 10
-78.68995910595432
 20
-374.1782599075569
 10
-72.54077391233157
 20
-382.0641664156593
 10
-63.07768610260877
 20
-374.685144183312
  0
LWPOLYLINE
  5
53E
100
AcDbEntity
  8
vis
  6
ByLayer
 62
  253
420
10526884
370
   -1
100
AcDbPolyline
 90
    4
 70
    1
 43
0
 10
-47.94403313784054
 20
-413.6077924480687
 10
-38.48094532811773
 20
-406.2287702157214
 10
-44.63013052174048
 20
-398.3428637076192
 10
-54.09321833146329
 20
-405.7218859399666
  0
LWPOLYLINE
  5
53F
100
AcDbEntity
  8
vis
  6
DOTTINY
 62
  253
420
10526884
370
   -1
100
AcDbPolyline
 90
    4
 70
    1
 43
0
 10
455.5032588820135
 20
-376.0990249330034
 10
460.2348027868751
 20
-372.4095138168298
 10
429.4888768187615
 20
-332.9799812763181
 10
424.7573329138999
 20
-336.6694923924917
  0
LWPOLYLINE
  5
540
100
AcDbEntity
  8
vis
  6
DOTTINY
 62
  253
420
10526884
370
   -1
100
AcDbPolyline
 90
    4
 70
    1
 43
0
 10
825.3968466270592
 20
-87.66748308795889
 10
830.1283905319208
 20
-83.97797197178522
 10
799.3824645638069
 20
-44.54843943127355
 10
794.6509206589456
 20
-48.23795054744733
  0
LWPOLYLINE
  5
541
100
AcDbEntity
  8
vis
  6
DOTTINY
 62
  253
420
10526884
370
   -1
100
AcDbPolyline
 90
    4
 70
    1
 43
0
 10
807.5450547418611
 20
21.41649156683445
 10
768.1155222013494
 20
-9.3294344012794
 10
764.4260110851756
 20
-4.597890496418017
 10
803.8555436256875
 20
26.14803547169572
  0
LWPOLYLINE
  5
542
100
AcDbEntity
  8
vis
  6
DOTTINY
 62
  253
420
10526884
370
   -1
100
AcDbPolyline
 90
    4
 70
    1
 43
0
 10
688.1761146842537
 20
93.18735020405097
 10
727.6056472247656
 20
123.9332761721648
 10
723.9161361085919
 20
128.6648200770262
 10
684.4866035680802
 20
97.91889410891247
  0
LWPOLYLINE
  5
543
100
AcDbEntity
  8
vis
  6
DOTTINY
 62
  253
420
10526884
370
   -1
100
AcDbPolyline
 90
    4
 70
    1
 43
0
 10
653.2196612056225
 20
133.1378991389066
 10
657.9512051104839
 20
136.8274102550803
 10
627.2052791423703
 20
176.256942795592
 10
622.4737352375089
 20
172.5674316794183
  0
LWPOLYLINE
  5
544
100
AcDbEntity
  8
vis
  6
DOTTINY
 62
  253
420
10526884
370
   -1
100
AcDbPolyline
 90
    4
 70
    1
 43
0
 10
637.4478481894178
 20
120.8395287516612
 10
642.1793920942794
 20
124.5290398678349
 10
611.4334661261653
 20
163.9585724083464
 10
606.7019222213041
 20
160.2690612921729
  0
LWPOLYLINE
  5
545
100
AcDbEntity
  8
vis
  6
DOTTINY
 62
  253
420
10526884
370
   -1
100
AcDbPolyline
 90
    4
 70
    1
 43
0
 10
283.3260734605768
 20
-155.2936427061379
 10
288.0576173654384
 20
-151.6041315899643
 10
257.3116913973246
 20
-112.1745990494525
 10
252.5801474924632
 20
-115.8641101656261
  0
LWPOLYLINE
  5
546
100
AcDbEntity
  8
vis
  6
DOTTINY
 62
  253
420
10526884
370
   -1
100
AcDbPolyline
 90
    4
 70
    1
 43
0
 10
-45.57826118540984
 20
-411.763036889982
 10
-40.84671728054846
 20
-408.0735257738083
 10
-71.59264324866223
 20
-368.6439932332966
 10
-76.32418715352361
 20
-372.3335043494702
  0
LINE
  5
547
100
AcDbEntity
  8
tube
  6
ByLayer
 62
  253
420
10526884
370
   -1
100
AcDbLine
 10
695.214390714639
 20
181.7351489938578
 11
640.0130451579223
 21
138.6908526384985
  0
LINE
  5
548
100
AcDbEntity
  8
tube
  6
ByLayer
 62
  253
420
10526884
370
   -1
100
AcDbLine
 10
640.0130451579223
 20
138.6908526384985
 11
624.6400821738657
 21
158.4056189087544
  0
LINE
  5
549
100
AcDbEntity
  8
tube
  6
ByLayer
 62
  253
420
10526884
370
   -1
100
AcDbLine
 10
812.1902305793592
 20
-82.11452958836696
 11
796.8172675953024
 21
-62.39976331811113
  0
CIRCLE
  5
54A
100
AcDbEntity
  8
tube
  6
ByLayer
 62
  253
420
10526884
370
   -1
100
AcDbCircle
 10
851.8191881359448
 20
-35.36203529150248
 40
4
  0
CIRCLE
  5
54B
100
AcDbEntity
  8
tube
  6
ByLayer
 62
  253
420
10526884
370
   -1
100
AcDbCircle
 10
679.6420027145082
 20
185.4433469353631
 40
4
  0
LINE
  5
54C
100
AcDbEntity
  8
tube
  6
ByLayer
 62
  253
420
10526884
370
   -1
100
AcDbLine
 10
624.6400821738657
 20
158.4056189087544
 11
679.8414277305822
 21
201.4499152641137
  0
LINE
  5
54D
100
AcDbEntity
  8
tube
  6
ByLayer
 62
  253
420
10526884
370
   -1
100
AcDbLine
 10
679.8414277305822
 20
201.4499152641137
 11
695.214390714639
 21
181.7351489938578
  0
LINE
  5
54E
100
AcDbEntity
  8
tube
  6
ByLayer
 62
  253
420
10526884
370
   -1
100
AcDbLine
 10
796.8172675953024
 20
-62.39976331811113
 11
852.0186131520188
 21
-19.35546696275185
  0
LINE
  5
54F
100
AcDbEntity
  8
tube
  6
ByLayer
 62
  253
420
10526884
370
   -1
100
AcDbLine
 10
852.0186131520188
 20
-19.35546696275185
 11
867.3915761360756
 21
-39.0702332330078
  0
LINE
  5
550
100
AcDbEntity
  8
tube
  6
ByLayer
 62
  253
420
10526884
370
   -1
100
AcDbLine
 10
867.3915761360756
 20
-39.0702332330078
 11
812.1902305793592
 21
-82.11452958836696
  0
LINE
  5
551
100
AcDbEntity
  8
alu
  6
ByLayer
 62
  253
420
10526884
370
   -1
100
AcDbLine
 10
69.8238004643826
 20
-309.0952398550319
 11
796.9959796441326
 21
-59.09019663002357
  0
LINE
  5
552
100
AcDbEntity
  8
alu
  6
ByLayer
 62
  253
420
10526884
370
   -1
100
AcDbLine
 10
724.2297014684243
 20
-115.8310823979899
 11
-2.942477711325324
 21
-365.8361256229982
  0
LINE
  5
553
100
AcDbEntity
  8
alu
  6
ByLayer
 62
  253
420
10526884
370
   -1
100
AcDbLine
 10
238.2209111296701
 20
-435.455044013288
 11
366.259881605956
 21
-238.9027053923052
  0
LINE
  5
554
100
AcDbEntity
  8
alu
  6
ByLayer
 62
  253
420
10526884
370
   -1
100
AcDbLine
 10
284.2775549479757
 20
-419.7160585037366
 11
412.3966856613972
 21
-223.0406660811269
  0
LINE
  5
555
100
AcDbEntity
  8
alu
  6
ByLayer
 62
  253
420
10526884
370
   -1
100
AcDbLine
 10
615.7411074352831
 20
116.5941361880117
 11
415.957757753943
 21
-190.0928392799281
  0
LINE
  5
556
100
AcDbEntity
  8
alu
  6
ByLayer
 62
  253
420
10526884
370
   -1
100
AcDbLine
 10
369.8209536985016
 20
-205.9548785911063
 11
542.9748292595752
 21
59.85325042004536
  0
CIRCLE
  5
557
100
AcDbEntity
  8
alu
  6
ByLayer
 62
  253
420
10526884
370
   -1
100
AcDbCircle
 10
397.0267509664043
 20
-212.4631611265106
 40
5
  0
CIRCLE
  5
558
100
AcDbEntity
  8
alu
  6
ByLayer
 62
  253
420
10526884
370
   -1
100
AcDbCircle
 10
633.4444418557641
 20
-131.1817030038662
 40
5
  0
CIRCLE
  5
559
100
AcDbEntity
  8
alu
  6
ByLayer
 62
  253
420
10526884
370
   -1
100
AcDbCircle
 10
160.6090600770449
 20
-293.7446192491552
 40
5
  0
LWPOLYLINE
  5
55A
100
AcDbEntity
  8
vis
  6
ByLayer
 62
  253
420
10526884
370
   -1
100
AcDbPolyline
 90
    4
 70
    1
 43
0
 10
692.9136172909402
 20
-190.9737943408209
 10
702.3767051006628
 20
-183.5947721084736
 10
696.22751990704
 20
-175.7088656003714
 10
686.7644320973175
 20
-183.0878878327185
  0
LWPOLYLINE
  5
55B
100
AcDbEntity
  8
vis
  6
ByLayer
 62
  253
420
10526884
370
   -1
100
AcDbPolyline
 90
    4
 70
    1
 43
0
 10
668.3168765164492
 20
-159.4301683084116
 10
677.7799643261719
 20
-152.0511460760642
 10
671.6307791325489
 20
-144.165239567962
 10
662.1676913228262
 20
-151.5442618003092
  0
LWPOLYLINE
  5
55C
100
AcDbEntity
  8
vis
  6
DOTTINY
 62
  253
420
10526884
370
   -1
100
AcDbPolyline
 90
    4
 70
    1
 43
0
 10
695.2793892433706
 20
-189.1290387827341
 10
700.0109331482322
 20
-185.4395276665605
 10
669.2650071801186
 20
-146.0099951260488
 10
664.533463275257
 20
-149.6995062422225
  0
LINE
  5
55D
100
AcDbEntity
  8
trous
  6
ByLayer
 62
  253
420
10526884
370
   -1
100
AcDbLine
 10
241.0952357221341
 20
-466.2848172809062
 11
231.3414607474168
 21
-437.9146943741831
  0
LINE
  5
55E
100
AcDbEntity
  8
trous
  6
ByLayer
 62
  253
420
10526884
370
   -1
100
AcDbLine
 10
235.4212111407895
 20
-468.2355722758497
 11
225.6674361660722
 21
-439.8654493691266
  0
LINE
  5
55F
100
AcDbEntity
  8
trous
  6
ByLayer
 62
  253
420
10526884
370
   -1
100
AcDbLine
 10
331.8795140239747
 20
-435.0724028740794
 11
322.1257390492574
 21
-406.7022799673562
  0
LINE
  5
560
100
AcDbEntity
  8
trous
  6
ByLayer
 62
  253
420
10526884
370
   -1
100
AcDbLine
 10
337.5535386053193
 20
-433.1216478791359
 11
327.799763630602
 21
-404.7515249724127
  0
LINE
  5
561
100
AcDbEntity
  8
trous
  6
ByLayer
 62
  253
420
10526884
370
   -1
100
AcDbLine
 10
138.2441523219481
 20
-501.6458559657656
 11
128.4903773472307
 21
-473.2757330590425
  0
LINE
  5
562
100
AcDbEntity
  8
trous
  6
ByLayer
 62
  253
420
10526884
370
   -1
100
AcDbLine
 10
143.9181769032927
 20
-499.6951009708221
 11
134.1644019285754
 21
-471.324978064099
  0
LINE
  5
563
100
AcDbEntity
  8
trous
  6
ByLayer
 62
  253
420
10526884
370
   -1
100
AcDbLine
 10
41.78584943876167
 20
-534.8090253675365
 11
32.03207446404432
 21
-506.4389024608134
  0
LINE
  5
564
100
AcDbEntity
  8
trous
  6
ByLayer
 62
  253
420
10526884
370
   -1
100
AcDbLine
 10
47.45987402010629
 20
-532.858270372593
 11
37.70609904538895
 21
-504.4881474658699
  0
LWPOLYLINE
  5
565
100
AcDbEntity
  8
legende
  6
ByLayer
 62
  256
370
   -1
100
AcDbPolyline
 90
    4
 70
    1
 43
0
 10
-300
 20
-2000
 10
2300
 20
-2000
 10
2300
 20
300
 10
-300
 20
300
  0
MTEXT
  5
566
100
AcDbEntity
  8
tube
  6
ByLayer
 62
  256
370
    0
100
AcDbMText
 10
1980
 20
-1960
 30
0
 40
20
 41
307.7777735377348
 71
    4
 72
    1
  1
STRUCTURE TOIT AMICI\PCAMERA OBSCURA
  7
standard
210
0
220
0
230
1
 50
0
 73
    2
 44
1
  0
LWPOLYLINE
  5
567
100
AcDbEntity
  8
tube
  6
ByLayer
 62
  256
370
    0
100
AcDbPolyline
 90
    4
 70
    1
 43
0
 10
1970
 20
-1920
 10
2300
 20
-1920
 10
2300
 20
-2000
 10
1970
 20
-2000
  0
ENDSEC
  0
SECTION
  2
OBJECTS
  0
DICTIONARY
  5
C
330
0
100
AcDbDictionary
281
    1
  3
ACAD_GROUP
350
D
  0
DICTIONARY
  5
D
330
C
100
AcDbDictionary
281
    1
  0
PLOTSETTINGS
  5
568
100
AcDbPlotSettings
  6
1x1
 40
0
 41
0
 42
0
 43
0
  0
ENDSEC
  0
EOF
