999
dxfrw 0.6.3
  0
SECTION
  2
HEADER
  9
$ACADVER
  1
AC1021
  9
$DWGCODEPAGE
  3
ANSI_1252
  9
$INSBASE
 10
0
 20
0
 30
0
  9
$EXTMIN
 10
10000000000
 20
10000000000
 30
0
  9
$EXTMAX
 10
-10000000000
 20
-10000000000
 30
0
  9
$LIMMIN
 10
0
 20
0
  9
$LIMMAX
 10
420
 20
297
  9
$ORTHOMODE
 70
    0
  9
$REGENMODE
 70
    1
  9
$FILLMODE
 70
    1
  9
$QTEXTMODE
 70
    0
  9
$MIRRTEXT
 70
    0
  9
$LTSCALE
 40
1
  9
$ATTMODE
 70
    0
  9
$TEXTSIZE
 40
2.5
  9
$TRACEWID
 40
15.68
  9
$TEXTSTYLE
  7
STANDARD
  9
$CLAYER
  8
0
  9
$CELTYPE
  6
BYLAYER
  9
$CECOLOR
 62
  256
  9
$CELTSCALE
 40
1
  9
$DISPSILH
 70
    0
  9
$DIMSCALE
 40
2.5
  9
$DIMASZ
 40
2.5
  9
$DIMEXO
 40
0.625
  9
$DIMDLI
 40
3.75
  9
$DIMRND
 40
0
  9
$DIMDLE
 40
0
  9
$DIMEXE
 40
1.25
  9
$DIMTP
 40
0
  9
$DIMTM
 40
0
  9
$DIMTXT
 40
10
  9
$DIMCEN
 40
2.5
  9
$DIMTSZ
 40
0
  9
$DIMTOL
 70
    0
  9
$DIMLIM
 70
    0
  9
$DIMTIH
 70
    0
  9
$DIMTOH
 70
    0
  9
$DIMSE1
 70
    0
  9
$DIMSE2
 70
    0
  9
$DIMTAD
 70
    1
  9
$DIMZIN
 70
    1
  9
$DIMBLK
  1

  9
$DIMASO
 70
    1
  9
$DIMSHO
 70
    1
  9
$DIMPOST
  1

  9
$DIMAPOST
  1

  9
$DIMALT
 70
    0
  9
$DIMALTD
 70
    3
  9
$DIMALTF
 40
0.03937
  9
$DIMLFAC
 40
1
  9
$DIMTOFL
 70
    1
  9
$DIMTVP
 40
0
  9
$DIMTIX
 70
    0
  9
$DIMSOXD
 70
    0
  9
$DIMSAH
 70
    0
  9
$DIMBLK1
  1

  9
$DIMBLK2
  1

  9
$DIMSTYLE
  2
STANDARD
  9
$DIMCLRD
 70
    0
  9
$DIMCLRE
 70
    0
  9
$DIMCLRT
 70
    0
  9
$DIMTFAC
 40
1
  9
$DIMGAP
 40
0.625
  9
$DIMJUST
 70
    0
  9
$DIMSD1
 70
    0
  9
$DIMSD2
 70
    0
  9
$DIMTOLJ
 70
    0
  9
$DIMTZIN
 70
    8
  9
$DIMALTZ
 70
    0
  9
$DIMALTTZ
 70
    0
  9
$DIMUPT
 70
    0
  9
$DIMDEC
 70
    0
  9
$DIMTDEC
 70
    2
  9
$DIMALTU
 70
    2
  9
$DIMALTTD
 70
    3
  9
$DIMTXSTY
  7
standard
  9
$DIMAUNIT
 70
    0
  9
$DIMADEC
 70
    2
  9
$DIMALTRND
 40
0
  9
$DIMAZIN
 70
    0
  9
$DIMDSEP
 70
    0
  9
$DIMATFIT
 70
    3
  9
$DIMFRAC
 70
    0
  9
$DIMLDRBLK
  1
STANDARD
  9
$DIMLUNIT
 70
    2
  9
$DIMLWD
 70
   -2
  9
$DIMLWE
 70
   -2
  9
$DIMTMOVE
 70
    0
  9
$DIMFXL
 40
1
  9
$DIMFXLON
 70
    0
  9
$DIMJOGANG
 40
0.7854
  9
$DIMTFILL
 70
    0
  9
$DIMTFILLCLR
 70
    0
  9
$DIMARCSYM
 70
    0
  9
$DIMLTYPE
  6

  9
$DIMLTEX1
  6

  9
$DIMLTEX2
  6

  9
$LUNITS
 70
    2
  9
$LUPREC
 70
    4
  9
$SKETCHINC
 40
1
  9
$FILLETRAD
 40
0
  9
$AUNITS
 70
    0
  9
$AUPREC
 70
    2
  9
$MENU
  1
.
  9
$ELEVATION
 40
0
  9
$PELEVATION
 40
0
  9
$THICKNESS
 40
0
  9
$LIMCHECK
 70
    0
  9
$CHAMFERA
 40
0
  9
$CHAMFERB
 40
0
  9
$CHAMFERC
 40
0
  9
$CHAMFERD
 40
0
  9
$SKPOLY
 70
    0
  9
$USRTIMER
 70
    1
  9
$ANGBASE
 50
0
  9
$ANGDIR
 70
    0
  9
$PDMODE
 70
   34
  9
$PDSIZE
 40
0
  9
$PLINEWID
 40
0
  9
$SPLFRAME
 70
    0
  9
$SPLINETYPE
 70
    2
  9
$SPLINESEGS
 70
    8
  9
$HANDSEED
  5
20000
  9
$SURFTAB1
 70
    6
  9
$SURFTAB2
 70
    6
  9
$SURFTYPE
 70
    6
  9
$SURFU
 70
    6
  9
$SURFV
 70
    6
  9
$UCSBASE
  2

  9
$UCSNAME
  2

  9
$UCSORG
 10
0
 20
0
 30
0
  9
$UCSXDIR
 10
1
 20
0
 30
0
  9
$UCSYDIR
 10
0
 20
1
 30
0
  9
$UCSORTHOREF
  2

  9
$UCSORTHOVIEW
 70
    0
  9
$UCSORGTOP
 10
0
 20
0
 30
0
  9
$UCSORGBOTTOM
 10
0
 20
0
 30
0
  9
$UCSORGLEFT
 10
0
 20
0
 30
0
  9
$UCSORGRIGHT
 10
0
 20
0
 30
0
  9
$UCSORGFRONT
 10
0
 20
0
 30
0
  9
$UCSORGBACK
 10
0
 20
0
 30
0
  9
$PUCSBASE
  2

  9
$PUCSNAME
  2

  9
$PUCSORG
 10
0
 20
0
 30
0
  9
$PUCSXDIR
 10
1
 20
0
 30
0
  9
$PUCSYDIR
 10
0
 20
1
 30
0
  9
$PUCSORTHOREF
  2

  9
$PUCSORTHOVIEW
 70
    0
  9
$PUCSORGTOP
 10
0
 20
0
 30
0
  9
$PUCSORGBOTTOM
 10
0
 20
0
 30
0
  9
$PUCSORGLEFT
 10
0
 20
0
 30
0
  9
$PUCSORGRIGHT
 10
0
 20
0
 30
0
  9
$PUCSORGFRONT
 10
0
 20
0
 30
0
  9
$PUCSORGBACK
 10
0
 20
0
 30
0
  9
$USERI1
 70
    0
  9
$USERI2
 70
    0
  9
$USERI3
 70
    0
  9
$USERI4
 70
    0
  9
$USERI5
 70
    0
  9
$USERR1
 40
0
  9
$USERR2
 40
0
  9
$USERR3
 40
0
  9
$USERR4
 40
0
  9
$USERR5
 40
0
  9
$WORLDVIEW
 70
    1
  9
$SHADEDGE
 70
    3
  9
$SHADEDIF
 70
   70
  9
$TILEMODE
 70
    1
  9
$MAXACTVP
 70
   64
  9
$PINSBASE
 10
40.30933027544993
 20
104.6669561771878
 30
0
  9
$PLIMCHECK
 70
    0
  9
$PEXTMIN
 10
0
 20
0
 30
0
  9
$PEXTMAX
 10
0
 20
0
 30
0
  9
$GRIDMODE
 70
    1
  9
$SNAPSTYLE
 70
    0
  9
$GRIDUNIT
 10
0
 20
0
  9
$PLIMMIN
 10
0
 20
0
  9
$PLIMMAX
 10
297
 20
210
  9
$UNITMODE
 70
    0
  9
$VISRETAIN
 70
    1
  9
$PLINEGEN
 70
    0
  9
$PSLTSCALE
 70
    1
  9
$TREEDEPTH
 70
 3020
  9
$CMLSTYLE
  2
Standard
  9
$CMLJUST
 70
    0
  9
$CMLSCALE
 40
20
  9
$PROXYGRAPHICS
 70
    1
  9
$MEASUREMENT
 70
    1
  9
$CELWEIGHT
370
   -1
  9
$ENDCAPS
280
    0
  9
$JOINSTYLE
280
    0
  9
$LWDISPLAY
290
    0
  9
$INSUNITS
 70
    0
  9
$HYPERLINKBASE
  1

  9
$STYLESHEET
  1

  9
$XEDIT
290
    1
  9
$CEPSNTYPE
380
    0
  9
$PSTYLEMODE
290
    1
  9
$EXTNAMES
290
    1
  9
$PSVPSCALE
 40
0.09574783849254602
  9
$OLESTARTUP
290
    0
  9
$SORTENTS
280
  127
  9
$INDEXCTL
280
    0
  9
$HIDETEXT
280
    1
  9
$XCLIPFRAME
290
    0
  9
$HALOGAP
280
    0
  9
$OBSCOLOR
 70
  257
  9
$OBSLTYPE
280
    0
  9
$INTERSECTIONDISPLAY
280
    0
  9
$INTERSECTIONCOLOR
 70
  257
  9
$DIMASSOC
280
    1
  9
$PROJECTNAME
  1

  9
$CAMERADISPLAY
290
    0
  9
$LENSLENGTH
 40
50
  9
$CAMERAHEIGHT
 40
0
  9
$STEPSPERSEC
 40
2
  9
$STEPSIZE
 40
50
  9
$3DDWFPREC
 40
2
  9
$PSOLWIDTH
 40
5
  9
$PSOLHEIGHT
 40
80
  9
$LOFTANG1
 40
1.570796326794897
  9
$LOFTANG2
 40
1.570796326794897
  9
$LOFTMAG1
 40
0
  9
$LOFTMAG2
 40
0
  9
$LOFTPARAM
 70
    7
  9
$LOFTNORMALS
280
    1
  9
$LATITUDE
 40
1
  9
$LONGITUDE
 40
1
  9
$NORTHDIRECTION
 40
0
  9
$TIMEZONE
 70
-8000
  9
$LIGHTGLYPHDISPLAY
280
    1
  9
$TILEMODELIGHTSYNCH
280
    1
  9
$SOLIDHIST
280
    1
  9
$SHOWHIST
280
    1
  9
$DWFFRAME
280
    2
  9
$DGNFRAME
280
    0
  9
$REALWORLDSCALE
290
    1
  9
$INTERFERECOLOR
 62
    1
  9
$CSHADOW
280
    0
  9
$SHADOWPLANELOCATION
 40
0
  0
ENDSEC
  0
SECTION
  2
CLASSES
  0
ENDSEC
  0
SECTION
  2
TABLES
  0
TABLE
  2
VPORT
  5
8
330
0
100
AcDbSymbolTable
 70
    1
  0
VPORT
  5
31
330
2
100
AcDbSymbolTableRecord
100
AcDbViewportTableRecord
  2
*ACTIVE
 70
    0
 10
0
 20
0
 11
1
 21
1
 12
3361.277167612701
 22
1068.441508362576
 13
0
 23
0
 14
10
 24
10
 15
10
 25
10
 16
0
 26
0
 36
1
 17
0
 27
0
 37
0
 40
5315.662411170333
 41
1.806491885143571
 42
50
 43
0
 44
0
 50
0
 51
0
 71
    0
 72
  100
 73
    1
 74
    3
 75
    0
 76
    1
 77
    0
 78
    0
281
    0
 65
    1
110
0
120
0
130
0
111
1
121
0
131
0
112
0
122
1
132
0
 79
    0
146
0
348
10020
 60
    7
 61
    5
292
1
282
    1
141
0
142
0
 63
  250
421
3358443
  0
ENDTAB
  0
TABLE
  2
LTYPE
  5
5
330
0
100
AcDbSymbolTable
 70
    4
  0
LTYPE
  5
14
330
5
100
AcDbSymbolTableRecord
100
AcDbLinetypeTableRecord
  2
ByBlock
 70
    0
  3

 72
   65
 73
    0
 40
0
  0
LTYPE
  5
15
330
5
100
AcDbSymbolTableRecord
100
AcDbLinetypeTableRecord
  2
ByLayer
 70
    0
  3

 72
   65
 73
    0
 40
0
  0
LTYPE
  5
16
330
5
100
AcDbSymbolTableRecord
100
AcDbLinetypeTableRecord
  2
Continuous
 70
    0
  3
Solid line
 72
   65
 73
    0
 40
0
  0
LTYPE
  5
32
330
5
100
AcDbSymbolTableRecord
100
AcDbLinetypeTableRecord
  2
DOT
 70
    0
  3
Dot . . . . . . . . . . . . . . . . . . . . . .
 72
   65
 73
    2
 40
6.35
 49
0
 74
    0
 49
-6.35
 74
    0
  0
LTYPE
  5
33
330
5
100
AcDbSymbolTableRecord
100
AcDbLinetypeTableRecord
  2
DOTTINY
 70
    0
  3
Dot (.15x) .....................................
 72
   65
 73
    2
 40
0.9525
 49
0
 74
    0
 49
-0.9525
 74
    0
  0
LTYPE
  5
34
330
5
100
AcDbSymbolTableRecord
100
AcDbLinetypeTableRecord
  2
DOT2
 70
    0
  3
Dot (.5x) .....................................
 72
   65
 73
    2
 40
3.175
 49
0
 74
    0
 49
-3.175
 74
    0
  0
LTYPE
  5
35
330
5
100
AcDbSymbolTableRecord
100
AcDbLinetypeTableRecord
  2
DOTX2
 70
    0
  3
Dot (2x) .  .  .  .  .  .  .  .  .  .  .  .  .
 72
   65
 73
    2
 40
12.7
 49
0
 74
    0
 49
-12.7
 74
    0
  0
LTYPE
  5
36
330
5
100
AcDbSymbolTableRecord
100
AcDbLinetypeTableRecord
  2
DASHED
 70
    0
  3
Dashed _ _ _ _ _ _ _ _ _ _ _ _ _ _ _ _ _
 72
   65
 73
    2
 40
19.05
 49
12.7
 74
    0
 49
-6.35
 74
    0
  0
LTYPE
  5
37
330
5
100
AcDbSymbolTableRecord
100
AcDbLinetypeTableRecord
  2
DASHEDTINY
 70
    0
  3
Dashed (.15x) _ _ _ _ _ _ _ _ _ _ _ _ _ _ _ _ _
 72
   65
 73
    2
 40
2.8575
 49
1.905
 74
    0
 49
-0.9525
 74
    0
  0
LTYPE
  5
38
330
5
100
AcDbSymbolTableRecord
100
AcDbLinetypeTableRecord
  2
DASHED2
 70
    0
  3
Dashed (.5x) _ _ _ _ _ _ _ _ _ _ _ _ _ _ _ _ _
 72
   65
 73
    2
 40
9.524999999999999
 49
6.35
 74
    0
 49
-3.175
 74
    0
  0
LTYPE
  5
39
330
5
100
AcDbSymbolTableRecord
100
AcDbLinetypeTableRecord
  2
DASHEDX2
 70
    0
  3
Dashed (2x) ____  ____  ____  ____  ____  ___
 72
   65
 73
    2
 40
38.09999999999999
 49
25.4
 74
    0
 49
-12.7
 74
    0
  0
LTYPE
  5
3A
330
5
100
AcDbSymbolTableRecord
100
AcDbLinetypeTableRecord
  2
DASHDOT
 70
    0
  3
Dash dot __ . __ . __ . __ . __ . __ . __ . __
 72
   65
 73
    4
 40
25.4
 49
12.7
 74
    0
 49
-6.35
 74
    0
 49
0
 74
    0
 49
-6.35
 74
    0
  0
LTYPE
  5
3B
330
5
100
AcDbSymbolTableRecord
100
AcDbLinetypeTableRecord
  2
DASHDOTTINY
 70
    0
  3
Dash dot (.15x) _._._._._._._._._._._._._._._.
 72
   65
 73
    4
 40
3.81
 49
1.905
 74
    0
 49
-0.9525
 74
    0
 49
0
 74
    0
 49
-0.9525
 74
    0
  0
LTYPE
  5
3C
330
5
100
AcDbSymbolTableRecord
100
AcDbLinetypeTableRecord
  2
DASHDOT2
 70
    0
  3
Dash dot (.5x) _._._._._._._._._._._._._._._.
 72
   65
 73
    4
 40
12.7
 49
6.35
 74
    0
 49
-3.175
 74
    0
 49
0
 74
    0
 49
-3.175
 74
    0
  0
LTYPE
  5
3D
330
5
100
AcDbSymbolTableRecord
100
AcDbLinetypeTableRecord
  2
DASHDOTX2
 70
    0
  3
Dash dot (2x) ____  .  ____  .  ____  .  ___
 72
   65
 73
    4
 40
50.8
 49
25.4
 74
    0
 49
-12.7
 74
    0
 49
0
 74
    0
 49
-12.7
 74
    0
  0
LTYPE
  5
3E
330
5
100
AcDbSymbolTableRecord
100
AcDbLinetypeTableRecord
  2
DIVIDE
 70
    0
  3
Divide ____ . . ____ . . ____ . . ____ . . ____
 72
   65
 73
    6
 40
31.75
 49
12.7
 74
    0
 49
-6.35
 74
    0
 49
0
 74
    0
 49
-6.35
 74
    0
 49
0
 74
    0
 49
-6.35
 74
    0
  0
LTYPE
  5
3F
330
5
100
AcDbSymbolTableRecord
100
AcDbLinetypeTableRecord
  2
DIVIDETINY
 70
    0
  3
Divide (.15x) __..__..__..__..__..__..__..__.._
 72
   65
 73
    6
 40
4.7625
 49
1.905
 74
    0
 49
-0.9525
 74
    0
 49
0
 74
    0
 49
-0.9525
 74
    0
 49
0
 74
    0
 49
-0.9525
 74
    0
  0
LTYPE
  5
40
330
5
100
AcDbSymbolTableRecord
100
AcDbLinetypeTableRecord
  2
DIVIDE2
 70
    0
  3
Divide (.5x) __..__..__..__..__..__..__..__.._
 72
   65
 73
    6
 40
15.875
 49
6.35
 74
    0
 49
-3.175
 74
    0
 49
0
 74
    0
 49
-3.175
 74
    0
 49
0
 74
    0
 49
-3.175
 74
    0
  0
LTYPE
  5
41
330
5
100
AcDbSymbolTableRecord
100
AcDbLinetypeTableRecord
  2
DIVIDEX2
 70
    0
  3
Divide (2x) ________  .  .  ________  .  .  _
 72
   65
 73
    6
 40
63.5
 49
25.4
 74
    0
 49
-12.7
 74
    0
 49
0
 74
    0
 49
-12.7
 74
    0
 49
0
 74
    0
 49
-12.7
 74
    0
  0
LTYPE
  5
42
330
5
100
AcDbSymbolTableRecord
100
AcDbLinetypeTableRecord
  2
BORDER
 70
    0
  3
Border __ __ . __ __ . __ __ . __ __ . __ __ .
 72
   65
 73
    6
 40
44.45
 49
12.7
 74
    0
 49
-6.35
 74
    0
 49
12.7
 74
    0
 49
-6.35
 74
    0
 49
0
 74
    0
 49
-6.35
 74
    0
  0
LTYPE
  5
43
330
5
100
AcDbSymbolTableRecord
100
AcDbLinetypeTableRecord
  2
BORDERTINY
 70
    0
  3
Border (.15x) __.__.__.__.__.__.__.__.__.__.__.
 72
   65
 73
    6
 40
6.6675
 49
1.905
 74
    0
 49
-0.9525
 74
    0
 49
1.905
 74
    0
 49
-0.9525
 74
    0
 49
0
 74
    0
 49
-0.9525
 74
    0
  0
LTYPE
  5
44
330
5
100
AcDbSymbolTableRecord
100
AcDbLinetypeTableRecord
  2
BORDER2
 70
    0
  3
Border (.5x) __.__.__.__.__.__.__.__.__.__.__.
 72
   65
 73
    6
 40
22.225
 49
6.35
 74
    0
 49
-3.175
 74
    0
 49
6.35
 74
    0
 49
-3.175
 74
    0
 49
0
 74
    0
 49
-3.175
 74
    0
  0
LTYPE
  5
45
330
5
100
AcDbSymbolTableRecord
100
AcDbLinetypeTableRecord
  2
BORDERX2
 70
    0
  3
Border (2x) ____  ____  .  ____  ____  .  ___
 72
   65
 73
    6
 40
88.89999999999999
 49
25.4
 74
    0
 49
-12.7
 74
    0
 49
25.4
 74
    0
 49
-12.7
 74
    0
 49
0
 74
    0
 49
-12.7
 74
    0
  0
LTYPE
  5
46
330
5
100
AcDbSymbolTableRecord
100
AcDbLinetypeTableRecord
  2
CENTER
 70
    0
  3
Center ____ _ ____ _ ____ _ ____ _ ____ _ ____
 72
   65
 73
    4
 40
50.8
 49
31.75
 74
    0
 49
-6.35
 74
    0
 49
6.35
 74
    0
 49
-6.35
 74
    0
  0
LTYPE
  5
47
330
5
100
AcDbSymbolTableRecord
100
AcDbLinetypeTableRecord
  2
CENTERTINY
 70
    0
  3
Center (.15x) ___ _ ___ _ ___ _ ___ _ ___ _ ___
 72
   65
 73
    4
 40
7.619999999999999
 49
4.7625
 74
    0
 49
-0.9525
 74
    0
 49
0.9525
 74
    0
 49
-0.9525
 74
    0
  0
LTYPE
  5
48
330
5
100
AcDbSymbolTableRecord
100
AcDbLinetypeTableRecord
  2
CENTER2
 70
    0
  3
Center (.5x) ___ _ ___ _ ___ _ ___ _ ___ _ ___
 72
   65
 73
    4
 40
28.575
 49
19.05
 74
    0
 49
-3.175
 74
    0
 49
3.175
 74
    0
 49
-3.175
 74
    0
  0
LTYPE
  5
49
330
5
100
AcDbSymbolTableRecord
100
AcDbLinetypeTableRecord
  2
CENTERX2
 70
    0
  3
Center (2x) ________  __  ________  __  _____
 72
   65
 73
    4
 40
101.6
 49
63.5
 74
    0
 49
-12.7
 74
    0
 49
12.7
 74
    0
 49
-12.7
 74
    0
  0
ENDTAB
  0
TABLE
  2
LAYER
  5
2
330
0
100
AcDbSymbolTable
 70
    1
  0
LAYER
  5
10
330
2
100
AcDbSymbolTableRecord
100
AcDbLayerTableRecord
  2
0
 70
    0
 62
    7
  6
CONTINUOUS
370
    0
390
F
  0
LAYER
  5
4A
330
2
100
AcDbSymbolTableRecord
100
AcDbLayerTableRecord
  2
acoudoir
 70
    0
 62
    7
  6
CONTINUOUS
370
    0
390
F
  0
LAYER
  5
4B
330
2
100
AcDbSymbolTableRecord
100
AcDbLayerTableRecord
  2
acoudoir levé
 70
    0
 62
  253
420
10526884
  6
DOTTINY
370
    0
390
F
  0
LAYER
  5
4C
330
2
100
AcDbSymbolTableRecord
100
AcDbLayerTableRecord
  2
assise
 70
    0
 62
    7
  6
CONTINUOUS
370
    0
390
F
  0
LAYER
  5
4D
330
2
100
AcDbSymbolTableRecord
100
AcDbLayerTableRecord
  2
dossier
 70
    0
 62
    7
  6
CONTINUOUS
370
    0
390
F
  0
LAYER
  5
4E
330
2
100
AcDbSymbolTableRecord
100
AcDbLayerTableRecord
  2
pied
 70
    0
 62
    7
  6
CONTINUOUS
370
    0
390
F
  0
LAYER
  5
4F
330
2
100
AcDbSymbolTableRecord
100
AcDbLayerTableRecord
  2
sections
 70
    0
 62
    7
  6
CONTINUOUS
370
    0
390
F
  0
LAYER
  5
50
330
2
100
AcDbSymbolTableRecord
100
AcDbLayerTableRecord
  2
tissu
 70
    1
 62
    1
  6
CONTINUOUS
370
    0
390
F
  0
ENDTAB
  0
TABLE
  2
STYLE
  5
3
330
0
100
AcDbSymbolTable
 70
    3
  0
STYLE
  5
51
330
2
100
AcDbSymbolTableRecord
100
AcDbTextStyleTableRecord
  2
standard
 70
    0
 40
0
 41
1
 50
0
 71
    0
 42
1
  3
standard
  4

  0
ENDTAB
  0
TABLE
  2
VIEW
  5
6
330
0
100
AcDbSymbolTable
 70
    0
  0
ENDTAB
  0
TABLE
  2
UCS
  5
7
330
0
100
AcDbSymbolTable
 70
    0
  0
ENDTAB
  0
TABLE
  2
APPID
  5
9
330
0
100
AcDbSymbolTable
 70
    1
  0
APPID
  5
12
330
9
100
AcDbSymbolTableRecord
100
AcDbRegAppTableRecord
  2
ACAD
 70
    0
  0
APPID
  5
52
330
9
100
AcDbSymbolTableRecord
100
AcDbRegAppTableRecord
  2
LibreCad
 70
    0
  0
ENDTAB
  0
TABLE
  2
DIMSTYLE
  5
A
330
0
100
AcDbSymbolTable
 70
    1
100
AcDbDimStyleTable
 71
    1
  0
DIMSTYLE
105
53
330
A
100
AcDbSymbolTableRecord
100
AcDbDimStyleTableRecord
  2
Standard
 70
    0
 40
2.5
 41
2.5
 42
0.625
 43
0.38
 44
1.25
 45
0
 46
0
 47
0
 48
0
 49
1
140
10
141
0.09
142
0
143
25.4
144
1
145
0
146
1
147
0.625
148
0
 71
    0
 72
    0
 73
    0
 74
    1
 75
    0
 76
    0
 77
    0
 78
    1
 79
    0
170
    0
171
    2
172
    0
173
    0
174
    0
175
    0
176
    0
177
    0
178
    0
179
    2
271
    0
272
    4
273
    2
274
    2
275
    0
276
    0
277
    2
278
    0
279
    0
280
    0
281
    0
282
    0
283
    1
284
    0
285
    0
286
    0
288
    0
289
    3
340
standard
341

371
   -2
372
   -2
  0
ENDTAB
  0
TABLE
  2
BLOCK_RECORD
  5
1
330
0
100
AcDbSymbolTable
 70
    2
  0
BLOCK_RECORD
  5
1F
330
1
100
AcDbSymbolTableRecord
100
AcDbBlockTableRecord
  2
*Model_Space
 70
    0
280
    1
281
    0
  0
BLOCK_RECORD
  5
1E
330
1
100
AcDbSymbolTableRecord
100
AcDbBlockTableRecord
  2
*Paper_Space
 70
    0
280
    1
281
    0
  0
BLOCK_RECORD
  5
54
330
1
100
AcDbSymbolTableRecord
100
AcDbBlockTableRecord
  2
*D25
 70
    0
280
    1
281
    0
  0
BLOCK_RECORD
  5
57
330
1
100
AcDbSymbolTableRecord
100
AcDbBlockTableRecord
  2
*D12
 70
    0
280
    1
281
    0
  0
BLOCK_RECORD
  5
5A
330
1
100
AcDbSymbolTableRecord
100
AcDbBlockTableRecord
  2
*D6
 70
    0
280
    1
281
    0
  0
BLOCK_RECORD
  5
5D
330
1
100
AcDbSymbolTableRecord
100
AcDbBlockTableRecord
  2
*D3
 70
    0
280
    1
281
    0
  0
BLOCK_RECORD
  5
60
330
1
100
AcDbSymbolTableRecord
100
AcDbBlockTableRecord
  2
*D18
 70
    0
280
    1
281
    0
  0
BLOCK_RECORD
  5
63
330
1
100
AcDbSymbolTableRecord
100
AcDbBlockTableRecord
  2
*D15
 70
    0
280
    1
281
    0
  0
BLOCK_RECORD
  5
66
330
1
100
AcDbSymbolTableRecord
100
AcDbBlockTableRecord
  2
*D8
 70
    0
280
    1
281
    0
  0
BLOCK_RECORD
  5
69
330
1
100
AcDbSymbolTableRecord
100
AcDbBlockTableRecord
  2
*D1
 70
    0
280
    1
281
    0
  0
BLOCK_RECORD
  5
6C
330
1
100
AcDbSymbolTableRecord
100
AcDbBlockTableRecord
  2
*D23
 70
    0
280
    1
281
    0
  0
BLOCK_RECORD
  5
6F
330
1
100
AcDbSymbolTableRecord
100
AcDbBlockTableRecord
  2
*D2
 70
    0
280
    1
281
    0
  0
BLOCK_RECORD
  5
72
330
1
100
AcDbSymbolTableRecord
100
AcDbBlockTableRecord
  2
*D5
 70
    0
280
    1
281
    0
  0
BLOCK_RECORD
  5
75
330
1
100
AcDbSymbolTableRecord
100
AcDbBlockTableRecord
  2
*D4
 70
    0
280
    1
281
    0
  0
BLOCK_RECORD
  5
78
330
1
100
AcDbSymbolTableRecord
100
AcDbBlockTableRecord
  2
*D26
 70
    0
280
    1
281
    0
  0
BLOCK_RECORD
  5
7B
330
1
100
AcDbSymbolTableRecord
100
AcDbBlockTableRecord
  2
*D24
 70
    0
280
    1
281
    0
  0
BLOCK_RECORD
  5
7E
330
1
100
AcDbSymbolTableRecord
100
AcDbBlockTableRecord
  2
*D14
 70
    0
280
    1
281
    0
  0
BLOCK_RECORD
  5
81
330
1
100
AcDbSymbolTableRecord
100
AcDbBlockTableRecord
  2
*D10
 70
    0
280
    1
281
    0
  0
BLOCK_RECORD
  5
84
330
1
100
AcDbSymbolTableRecord
100
AcDbBlockTableRecord
  2
*D16
 70
    0
280
    1
281
    0
  0
BLOCK_RECORD
  5
87
330
1
100
AcDbSymbolTableRecord
100
AcDbBlockTableRecord
  2
*D9
 70
    0
280
    1
281
    0
  0
BLOCK_RECORD
  5
8A
330
1
100
AcDbSymbolTableRecord
100
AcDbBlockTableRecord
  2
*D19
 70
    0
280
    1
281
    0
  0
BLOCK_RECORD
  5
8D
330
1
100
AcDbSymbolTableRecord
100
AcDbBlockTableRecord
  2
*D11
 70
    0
280
    1
281
    0
  0
BLOCK_RECORD
  5
90
330
1
100
AcDbSymbolTableRecord
100
AcDbBlockTableRecord
  2
*D13
 70
    0
280
    1
281
    0
  0
BLOCK_RECORD
  5
93
330
1
100
AcDbSymbolTableRecord
100
AcDbBlockTableRecord
  2
*D21
 70
    0
280
    1
281
    0
  0
BLOCK_RECORD
  5
96
330
1
100
AcDbSymbolTableRecord
100
AcDbBlockTableRecord
  2
*D20
 70
    0
280
    1
281
    0
  0
BLOCK_RECORD
  5
99
330
1
100
AcDbSymbolTableRecord
100
AcDbBlockTableRecord
  2
*D7
 70
    0
280
    1
281
    0
  0
BLOCK_RECORD
  5
9C
330
1
100
AcDbSymbolTableRecord
100
AcDbBlockTableRecord
  2
*D17
 70
    0
280
    1
281
    0
  0
BLOCK_RECORD
  5
9F
330
1
100
AcDbSymbolTableRecord
100
AcDbBlockTableRecord
  2
*D22
 70
    0
280
    1
281
    0
  0
BLOCK_RECORD
  5
A2
330
1
100
AcDbSymbolTableRecord
100
AcDbBlockTableRecord
  2
*D27
 70
    0
280
    1
281
    0
  0
ENDTAB
  0
ENDSEC
  0
SECTION
  2
BLOCKS
  0
BLOCK
  5
20
330
1F
100
AcDbEntity
  8
0
100
AcDbBlockBegin
  2
*Model_Space
 70
    0
 10
0
 20
0
 30
0
  3
*Model_Space
  1

  0
ENDBLK
  5
21
330
1F
100
AcDbEntity
  8
0
100
AcDbBlockEnd
  0
BLOCK
  5
1C
330
1B
100
AcDbEntity
  8
0
100
AcDbBlockBegin
  2
*Paper_Space
 70
    0
 10
0
 20
0
 30
0
  3
*Paper_Space
  1

  0
ENDBLK
  5
1D
330
1F
100
AcDbEntity
  8
0
100
AcDbBlockEnd
  0
BLOCK
  5
55
330
54
100
AcDbEntity
  8
0
100
AcDbBlockBegin
  2
*D25
 70
    1
 10
0
 20
0
  3
*D25
  1

  0
LINE
  5
A5
100
AcDbEntity
  8
sections
  6
ByBlock
 62
    0
370
   -2
100
AcDbLine
 10
1958.077140785388
 20
-59.12081691846077
 11
1986.922859214612
 21
-50.87918308153923
  0
MTEXT
  5
A6
100
AcDbEntity
  8
sections
  6
CONTINUOUS
 62
    0
370
   -2
100
AcDbMText
 10
1977.88472488535
 20
-38.83628641589883
 30
0
 40
25
 41
11.11111111111266
 71
    5
 72
    1
  1
5
  7
standard
210
0
220
0
230
1
 50
15.94539590092342
 73
    2
 44
1
  0
SOLID
  5
A7
100
AcDbEntity
  8
sections
  6
ByBlock
 62
    0
370
   -2
100
AcDbTrace
 10
1970.096190130898
 20
-55.68680281974343
 30
0
 11
1964.372570934917
 21
-58.40447903781222
 31
0
 12
1963.800759981369
 22
-56.40314070039197
 32
0
 13
1963.800759981369
 23
-56.40314070039197
 33
0
  0
SOLID
  5
A8
100
AcDbEntity
  8
sections
  6
ByBlock
 62
    0
370
   -2
100
AcDbTrace
 10
1974.903809869102
 20
-54.31319718025657
 30
0
 11
1980.627429065083
 21
-51.59552096218778
 31
0
 12
1981.199240018631
 22
-53.59685929960803
 32
0
 13
1981.199240018631
 23
-53.59685929960803
 33
0
  0
ENDBLK
  5
56
330
54
100
AcDbEntity
  8
0
100
AcDbBlockEnd
  0
BLOCK
  5
58
330
57
100
AcDbEntity
  8
0
100
AcDbBlockBegin
  2
*D12
 70
    1
 10
0
 20
0
  3
*D12
  1

  0
LINE
  5
A9
100
AcDbEntity
  8
sections
  6
ByBlock
 62
    0
370
   -2
100
AcDbLine
 10
1900
 20
431.5624999999999
 11
1900
 21
453.1250000000001
  0
LINE
  5
AA
100
AcDbEntity
  8
sections
  6
ByBlock
 62
    0
370
   -2
100
AcDbLine
 10
2305.590312201964
 20
431.5624999999998
 11
2305.590312201964
 21
453.125
  0
LINE
  5
AB
100
AcDbEntity
  8
sections
  6
ByBlock
 62
    0
370
   -2
100
AcDbLine
 10
1900
 20
450.0000000000001
 11
2305.590312201964
 21
450
  0
MTEXT
  5
AC
100
AcDbEntity
  8
sections
  6
CONTINUOUS
 62
    0
370
   -2
100
AcDbMText
 10
2102.795156100982
 20
464.0625000000001
 30
0
 40
25
 41
52.77777777777932
 71
    5
 72
    1
  1
406
  7
standard
210
0
220
0
230
1
 50
0
 73
    2
 44
1
  0
SOLID
  5
AD
100
AcDbEntity
  8
sections
  6
ByBlock
 62
    0
370
   -2
100
AcDbTrace
 10
1900
 20
450.0000000000001
 30
0
 11
1906.25
 21
451.0407116444322
 31
0
 12
1906.25
 22
448.959288355568
 32
0
 13
1906.25
 23
448.959288355568
 33
0
  0
SOLID
  5
AE
100
AcDbEntity
  8
sections
  6
ByBlock
 62
    0
370
   -2
100
AcDbTrace
 10
2305.590312201964
 20
450
 30
0
 11
2299.340312201964
 21
448.9592883555679
 31
0
 12
2299.340312201964
 22
451.0407116444321
 32
0
 13
2299.340312201964
 23
451.0407116444321
 33
0
  0
ENDBLK
  5
59
330
57
100
AcDbEntity
  8
0
100
AcDbBlockEnd
  0
BLOCK
  5
5B
330
5A
100
AcDbEntity
  8
0
100
AcDbBlockBegin
  2
*D6
 70
    1
 10
0
 20
0
  3
*D6
  1

  0
LINE
  5
AF
100
AcDbEntity
  8
sections
  6
ByBlock
 62
    0
370
   -2
100
AcDbLine
 10
1900
 20
428.4374999999999
 11
1900
 21
376.8750000000003
  0
LINE
  5
B0
100
AcDbEntity
  8
sections
  6
ByBlock
 62
    0
370
   -2
100
AcDbLine
 10
2600
 20
428.4374999999995
 11
2600
 21
376.8749999999999
  0
LINE
  5
B1
100
AcDbEntity
  8
sections
  6
ByBlock
 62
    0
370
   -2
100
AcDbLine
 10
1900
 20
380.0000000000003
 11
2600
 21
379.9999999999999
  0
MTEXT
  5
B2
100
AcDbEntity
  8
sections
  6
CONTINUOUS
 62
    0
370
   -2
100
AcDbMText
 10
2250
 20
394.0625000000001
 30
0
 40
25
 41
50
 71
    5
 72
    1
  1
700
  7
standard
210
0
220
0
230
1
 50
0
 73
    2
 44
1
  0
SOLID
  5
B3
100
AcDbEntity
  8
sections
  6
ByBlock
 62
    0
370
   -2
100
AcDbTrace
 10
1900
 20
380.0000000000003
 30
0
 11
1906.25
 21
381.0407116444324
 31
0
 12
1906.25
 22
378.9592883555682
 32
0
 13
1906.25
 23
378.9592883555682
 33
0
  0
SOLID
  5
B4
100
AcDbEntity
  8
sections
  6
ByBlock
 62
    0
370
   -2
100
AcDbTrace
 10
2600
 20
379.9999999999999
 30
0
 11
2593.75
 21
378.9592883555678
 31
0
 12
2593.75
 22
381.040711644432
 32
0
 13
2593.75
 23
381.040711644432
 33
0
  0
ENDBLK
  5
5C
330
5A
100
AcDbEntity
  8
0
100
AcDbBlockEnd
  0
BLOCK
  5
5E
330
5D
100
AcDbEntity
  8
0
100
AcDbBlockBegin
  2
*D3
 70
    1
 10
0
 20
0
  3
*D3
  1

  0
LINE
  5
B5
100
AcDbEntity
  8
sections
  6
ByBlock
 62
    0
370
   -2
100
AcDbLine
 10
1900.00003459916
 20
618.4373162977937
 11
1900.000041512495
 21
596.8748589276275
  0
LINE
  5
B6
100
AcDbEntity
  8
sections
  6
ByBlock
 62
    0
370
   -2
100
AcDbLine
 10
2343.439691838019
 20
618.4374584729991
 11
2343.439698751354
 21
596.8750011028329
  0
LINE
  5
B7
100
AcDbEntity
  8
sections
  6
ByBlock
 62
    0
370
   -2
100
AcDbLine
 10
1900.00004051056
 20
599.9998589276274
 11
2343.439697749419
 21
600.0000011028328
  0
MTEXT
  5
B8
100
AcDbEntity
  8
sections
  6
CONTINUOUS
 62
    0
370
   -2
100
AcDbMText
 10
2121.719864621285
 20
614.0624300152294
 30
0
 40
25
 41
55.55555555555711
 71
    5
 72
    1
  1
443
  7
standard
210
0
220
0
230
1
 50
1.837011887856573e-05
 73
    2
 44
1
  0
SOLID
  5
B9
100
AcDbEntity
  8
sections
  6
ByBlock
 62
    0
370
   -2
100
AcDbTrace
 10
1900.00004051056
 20
599.9998589276274
 30
0
 11
1906.250040176888
 21
601.0405725759285
 31
0
 12
1906.250040844232
 22
598.9591492870645
 32
0
 13
1906.250040844232
 23
598.9591492870645
 33
0
  0
SOLID
  5
BA
100
AcDbEntity
  8
sections
  6
ByBlock
 62
    0
370
   -2
100
AcDbTrace
 10
2343.439697749419
 20
600.0000011028328
 30
0
 11
2337.189698083092
 21
598.9592874545317
 31
0
 12
2337.189697415748
 22
601.0407107433957
 32
0
 13
2337.189697415748
 23
601.0407107433957
 33
0
  0
ENDBLK
  5
5F
330
5D
100
AcDbEntity
  8
0
100
AcDbBlockEnd
  0
BLOCK
  5
61
330
60
100
AcDbEntity
  8
0
100
AcDbBlockBegin
  2
*D18
 70
    1
 10
0
 20
0
  3
*D18
  1

  0
LINE
  5
BB
100
AcDbEntity
  8
sections
  6
ByBlock
 62
    0
370
   -2
100
AcDbLine
 10
2315.736835664841
 20
419.054879850229
 11
2315.736835664841
 21
493.125
  0
LINE
  5
BC
100
AcDbEntity
  8
sections
  6
ByBlock
 62
    0
370
   -2
100
AcDbLine
 10
2325.874833663017
 20
419.054879850229
 11
2325.874833663017
 21
493.125
  0
LINE
  5
BD
100
AcDbEntity
  8
sections
  6
ByBlock
 62
    0
370
   -2
100
AcDbLine
 10
2303.236835664841
 20
490
 11
2338.374833663017
 21
490
  0
MTEXT
  5
BE
100
AcDbEntity
  8
sections
  6
CONTINUOUS
 62
    0
370
   -2
100
AcDbMText
 10
2339.937333663017
 20
504.0625
 30
0
 40
25
 41
25
 71
    5
 72
    1
  1
10
  7
standard
210
0
220
0
230
1
 50
0
 73
    2
 44
1
  0
SOLID
  5
BF
100
AcDbEntity
  8
sections
  6
ByBlock
 62
    0
370
   -2
100
AcDbTrace
 10
2315.736835664841
 20
490
 30
0
 11
2309.486835664841
 21
488.9592883555679
 31
0
 12
2309.486835664841
 22
491.0407116444321
 32
0
 13
2309.486835664841
 23
491.0407116444321
 33
0
  0
SOLID
  5
C0
100
AcDbEntity
  8
sections
  6
ByBlock
 62
    0
370
   -2
100
AcDbTrace
 10
2325.874833663017
 20
490
 30
0
 11
2332.124833663017
 21
491.0407116444321
 31
0
 12
2332.124833663017
 22
488.9592883555679
 32
0
 13
2332.124833663017
 23
488.9592883555679
 33
0
  0
ENDBLK
  5
62
330
60
100
AcDbEntity
  8
0
100
AcDbBlockEnd
  0
BLOCK
  5
64
330
63
100
AcDbEntity
  8
0
100
AcDbBlockBegin
  2
*D15
 70
    1
 10
0
 20
0
  3
*D15
  1

  0
LINE
  5
C1
100
AcDbEntity
  8
sections
  6
ByBlock
 62
    0
370
   -2
100
AcDbLine
 10
2327.299335664841
 20
429.9999999999998
 11
2373.125
 21
429.9999999999998
  0
LINE
  5
C2
100
AcDbEntity
  8
sections
  6
ByBlock
 62
    0
370
   -2
100
AcDbLine
 10
2327.299335664841
 20
414.9999999999998
 11
2373.125
 21
414.9999999999998
  0
LINE
  5
C3
100
AcDbEntity
  8
sections
  6
ByBlock
 62
    0
370
   -2
100
AcDbLine
 10
2370
 20
442.4999999999998
 11
2370
 21
402.4999999999998
  0
MTEXT
  5
C4
100
AcDbEntity
  8
sections
  6
CONTINUOUS
 62
    0
370
   -2
100
AcDbMText
 10
2355.9375
 20
444.0625000000006
 30
0
 40
25
 41
25.00000000000155
 71
    5
 72
    1
  1
15
  7
standard
210
0
220
0
230
1
 50
90
 73
    2
 44
1
  0
SOLID
  5
C5
100
AcDbEntity
  8
sections
  6
ByBlock
 62
    0
370
   -2
100
AcDbTrace
 10
2370
 20
429.9999999999998
 30
0
 11
2368.959288355568
 21
436.2499999999998
 31
0
 12
2371.040711644432
 22
436.2499999999998
 32
0
 13
2371.040711644432
 23
436.2499999999998
 33
0
  0
SOLID
  5
C6
100
AcDbEntity
  8
sections
  6
ByBlock
 62
    0
370
   -2
100
AcDbTrace
 10
2370
 20
414.9999999999998
 30
0
 11
2371.040711644432
 21
408.7499999999998
 31
0
 12
2368.959288355568
 22
408.7499999999998
 32
0
 13
2368.959288355568
 23
408.7499999999998
 33
0
  0
ENDBLK
  5
65
330
63
100
AcDbEntity
  8
0
100
AcDbBlockEnd
  0
BLOCK
  5
67
330
66
100
AcDbEntity
  8
0
100
AcDbBlockBegin
  2
*D8
 70
    1
 10
0
 20
0
  3
*D8
  1

  0
LINE
  5
C7
100
AcDbEntity
  8
sections
  6
ByBlock
 62
    0
370
   -2
100
AcDbLine
 10
2605.669541534929
 20
405.6938452747809
 11
2605.669541534929
 21
356.8749999999999
  0
LINE
  5
C8
100
AcDbEntity
  8
sections
  6
ByBlock
 62
    0
370
   -2
100
AcDbLine
 10
1900
 20
405.6938452747809
 11
1900
 21
356.8749999999999
  0
LINE
  5
C9
100
AcDbEntity
  8
sections
  6
ByBlock
 62
    0
370
   -2
100
AcDbLine
 10
2605.669541534929
 20
359.9999999999999
 11
1900
 21
359.9999999999999
  0
MTEXT
  5
CA
100
AcDbEntity
  8
sections
  6
CONTINUOUS
 62
    0
370
   -2
100
AcDbMText
 10
2252.834770767465
 20
374.0624999999999
 30
0
 40
25
 41
50.00000000000155
 71
    5
 72
    1
  1
706
  7
standard
210
0
220
0
230
1
 50
0
 73
    2
 44
1
  0
SOLID
  5
CB
100
AcDbEntity
  8
sections
  6
ByBlock
 62
    0
370
   -2
100
AcDbTrace
 10
2605.669541534929
 20
359.9999999999999
 30
0
 11
2599.419541534929
 21
358.9592883555678
 31
0
 12
2599.419541534929
 22
361.040711644432
 32
0
 13
2599.419541534929
 23
361.040711644432
 33
0
  0
SOLID
  5
CC
100
AcDbEntity
  8
sections
  6
ByBlock
 62
    0
370
   -2
100
AcDbTrace
 10
1900
 20
359.9999999999999
 30
0
 11
1906.25
 21
361.040711644432
 31
0
 12
1906.25
 22
358.9592883555678
 32
0
 13
1906.25
 23
358.9592883555678
 33
0
  0
ENDBLK
  5
68
330
66
100
AcDbEntity
  8
0
100
AcDbBlockEnd
  0
BLOCK
  5
6A
330
69
100
AcDbEntity
  8
0
100
AcDbBlockBegin
  2
*D1
 70
    1
 10
0
 20
0
  3
*D1
  1

  0
LINE
  5
CD
100
AcDbEntity
  8
sections
  6
ByBlock
 62
    0
370
   -2
100
AcDbLine
 10
1900
 20
898.4375000000002
 11
1900
 21
876.8750000000006
  0
LINE
  5
CE
100
AcDbEntity
  8
sections
  6
ByBlock
 62
    0
370
   -2
100
AcDbLine
 10
2259.095910207547
 20
898.4374999999999
 11
2259.095910207547
 21
876.8750000000002
  0
LINE
  5
CF
100
AcDbEntity
  8
sections
  6
ByBlock
 62
    0
370
   -2
100
AcDbLine
 10
1900
 20
880.0000000000006
 11
2259.095910207547
 21
880.0000000000002
  0
MTEXT
  5
D0
100
AcDbEntity
  8
sections
  6
CONTINUOUS
 62
    0
370
   -2
100
AcDbMText
 10
2079.547955103773
 20
894.0625000000005
 30
0
 40
25
 41
50.00000000000311
 71
    5
 72
    1
  1
359
  7
standard
210
0
220
0
230
1
 50
359.9999999999999
 73
    2
 44
1
  0
SOLID
  5
D1
100
AcDbEntity
  8
sections
  6
ByBlock
 62
    0
370
   -2
100
AcDbTrace
 10
1900
 20
880.0000000000006
 30
0
 11
1906.25
 21
881.0407116444327
 31
0
 12
1906.25
 22
878.9592883555684
 32
0
 13
1906.25
 23
878.9592883555684
 33
0
  0
SOLID
  5
D2
100
AcDbEntity
  8
sections
  6
ByBlock
 62
    0
370
   -2
100
AcDbTrace
 10
2259.095910207547
 20
880.0000000000002
 30
0
 11
2252.845910207547
 21
878.9592883555681
 31
0
 12
2252.845910207547
 22
881.0407116444323
 32
0
 13
2252.845910207547
 23
881.0407116444323
 33
0
  0
ENDBLK
  5
6B
330
69
100
AcDbEntity
  8
0
100
AcDbBlockEnd
  0
BLOCK
  5
6D
330
6C
100
AcDbEntity
  8
0
100
AcDbBlockBegin
  2
*D23
 70
    1
 10
0
 20
0
  3
*D23
  1

  0
LINE
  5
D3
100
AcDbEntity
  8
sections
  6
ByBlock
 62
    0
370
   -2
100
AcDbLine
 10
1900
 20
-61.5625
 11
1900
 21
-83.125
  0
LINE
  5
D4
100
AcDbEntity
  8
sections
  6
ByBlock
 62
    0
370
   -2
100
AcDbLine
 10
1980
 20
-61.5625
 11
1980
 21
-83.125
  0
LINE
  5
D5
100
AcDbEntity
  8
sections
  6
ByBlock
 62
    0
370
   -2
100
AcDbLine
 10
1900
 20
-80
 11
1980
 21
-80
  0
MTEXT
  5
D6
100
AcDbEntity
  8
sections
  6
CONTINUOUS
 62
    0
370
   -2
100
AcDbMText
 10
1940
 20
-65.9375
 30
0
 40
25
 41
30.55555555555555
 71
    5
 72
    1
  1
80
  7
standard
210
0
220
0
230
1
 50
0
 73
    2
 44
1
  0
SOLID
  5
D7
100
AcDbEntity
  8
sections
  6
ByBlock
 62
    0
370
   -2
100
AcDbTrace
 10
1900
 20
-80
 30
0
 11
1906.25
 21
-78.95928835556791
 31
0
 12
1906.25
 22
-81.04071164443211
 32
0
 13
1906.25
 23
-81.04071164443211
 33
0
  0
SOLID
  5
D8
100
AcDbEntity
  8
sections
  6
ByBlock
 62
    0
370
   -2
100
AcDbTrace
 10
1980
 20
-80
 30
0
 11
1973.75
 21
-81.04071164443211
 31
0
 12
1973.75
 22
-78.95928835556789
 32
0
 13
1973.75
 23
-78.95928835556789
 33
0
  0
ENDBLK
  5
6E
330
6C
100
AcDbEntity
  8
0
100
AcDbBlockEnd
  0
BLOCK
  5
70
330
6F
100
AcDbEntity
  8
0
100
AcDbBlockBegin
  2
*D2
 70
    1
 10
0
 20
0
  3
*D2
  1

  0
LINE
  5
D9
100
AcDbEntity
  8
sections
  6
ByBlock
 62
    0
370
   -2
100
AcDbLine
 10
1900
 20
718.4375000000002
 11
1900
 21
696.8750000000002
  0
LINE
  5
DA
100
AcDbEntity
  8
sections
  6
ByBlock
 62
    0
370
   -2
100
AcDbLine
 10
2270
 20
718.4375000000002
 11
2270
 21
696.8750000000002
  0
LINE
  5
DB
100
AcDbEntity
  8
sections
  6
ByBlock
 62
    0
370
   -2
100
AcDbLine
 10
1900
 20
700.0000000000002
 11
2270
 21
700.0000000000002
  0
MTEXT
  5
DC
100
AcDbEntity
  8
sections
  6
CONTINUOUS
 62
    0
370
   -2
100
AcDbMText
 10
2085
 20
714.0625000000002
 30
0
 40
25
 41
50.00000000000155
 71
    5
 72
    1
  1
370
  7
standard
210
0
220
0
230
1
 50
0
 73
    2
 44
1
  0
SOLID
  5
DD
100
AcDbEntity
  8
sections
  6
ByBlock
 62
    0
370
   -2
100
AcDbTrace
 10
1900
 20
700.0000000000002
 30
0
 11
1906.25
 21
701.0407116444323
 31
0
 12
1906.25
 22
698.9592883555681
 32
0
 13
1906.25
 23
698.9592883555681
 33
0
  0
SOLID
  5
DE
100
AcDbEntity
  8
sections
  6
ByBlock
 62
    0
370
   -2
100
AcDbTrace
 10
2270
 20
700.0000000000002
 30
0
 11
2263.75
 21
698.9592883555681
 31
0
 12
2263.75
 22
701.0407116444323
 32
0
 13
2263.75
 23
701.0407116444323
 33
0
  0
ENDBLK
  5
71
330
6F
100
AcDbEntity
  8
0
100
AcDbBlockEnd
  0
BLOCK
  5
73
330
72
100
AcDbEntity
  8
0
100
AcDbBlockBegin
  2
*D5
 70
    1
 10
0
 20
0
  3
*D5
  1

  0
ARC
  5
DF
100
AcDbEntity
  8
sections
  6
ByBlock
 62
    0
370
   -2
100
AcDbCircle
 10
2343.439691337051
 20
619.999958472999
 40
20.29367235312431
100
AcDbArc
 50
76.00259999999854
 51
180.000018370119
  0
SOLID
  5
E0
100
AcDbEntity
  8
sections
  6
ByBlock
 62
    0
370
   -2
100
AcDbTrace
 10
2348.3482814733
 20
639.6910447927095
 30
0
 11
2342.029891502126
 21
639.2182563632496
 31
0
 12
2342.217613223172
 22
641.291197139749
 32
0
 13
2342.217613223172
 23
641.291197139749
 33
0
  0
SOLID
  5
E1
100
AcDbEntity
  8
sections
  6
ByBlock
 62
    0
370
   -2
100
AcDbTrace
 10
2323.146018983928
 20
619.9999519664608
 30
0
 11
2323.076251349579
 21
626.3356218761115
 31
0
 12
2325.13304551206
 22
626.0163716911275
 32
0
 13
2325.13304551206
 23
626.0163716911275
 33
0
  0
MTEXT
  5
E2
100
AcDbEntity
  8
sections
  6
CONTINUOUS
 62
    0
370
   -2
100
AcDbMText
 10
2329.983294488494
 20
637.2225498512908
 30
0
 40
25
 41
111.1111111111111
 71
    8
 72
    1
  1
104.00%%D
  7
standard
210
0
220
0
230
1
 50
398.0013091850582
 73
    2
 44
1
  0
ENDBLK
  5
74
330
72
100
AcDbEntity
  8
0
100
AcDbBlockEnd
  0
BLOCK
  5
76
330
75
100
AcDbEntity
  8
0
100
AcDbBlockBegin
  2
*D4
 70
    1
 10
0
 20
0
  3
*D4
  1

  0
LINE
  5
E3
100
AcDbEntity
  8
sections
  6
ByBlock
 62
    0
370
   -2
100
AcDbLine
 10
1899.999999864411
 20
648.4375000000002
 11
1899.999993654441
 21
576.8750399173852
  0
LINE
  5
E4
100
AcDbEntity
  8
sections
  6
ByBlock
 62
    0
370
   -2
100
AcDbLine
 10
2350.918085916002
 20
648.4374608707163
 11
2350.918079706033
 21
576.8750007881013
  0
LINE
  5
E5
100
AcDbEntity
  8
sections
  6
ByBlock
 62
    0
370
   -2
100
AcDbLine
 10
1899.999993925619
 20
580.0000399173852
 11
2350.91807997721
 21
580.0000007881013
  0
MTEXT
  5
E6
100
AcDbEntity
  8
sections
  6
CONTINUOUS
 62
    0
370
   -2
100
AcDbMText
 10
2125.459038171715
 20
594.0625203527431
 30
0
 40
25
 41
47.22222222222377
 71
    5
 72
    1
  1
451
  7
standard
210
0
220
0
230
1
 50
359.9999950280485
 73
    2
 44
1
  0
SOLID
  5
E7
100
AcDbEntity
  8
sections
  6
ByBlock
 62
    0
370
   -2
100
AcDbTrace
 10
1899.999993925619
 20
580.0000399173852
 30
0
 11
1906.249994015929
 21
581.0407510194615
 31
0
 12
1906.249993835309
 22
578.9593277305972
 32
0
 13
1906.249993835309
 23
578.9593277305972
 33
0
  0
SOLID
  5
E8
100
AcDbEntity
  8
sections
  6
ByBlock
 62
    0
370
   -2
100
AcDbTrace
 10
2350.91807997721
 20
580.0000007881013
 30
0
 11
2344.668079886901
 21
578.9592896860249
 31
0
 12
2344.66808006752
 22
581.0407129748892
 32
0
 13
2344.66808006752
 23
581.0407129748892
 33
0
  0
ENDBLK
  5
77
330
75
100
AcDbEntity
  8
0
100
AcDbBlockEnd
  0
BLOCK
  5
79
330
78
100
AcDbEntity
  8
0
100
AcDbBlockBegin
  2
*D26
 70
    1
 10
0
 20
0
  3
*D26
  1

  0
LINE
  5
E9
100
AcDbEntity
  8
sections
  6
ByBlock
 62
    0
370
   -2
100
AcDbLine
 10
1900
 20
-126.5625
 11
1900
 21
-153.125
  0
LINE
  5
EA
100
AcDbEntity
  8
sections
  6
ByBlock
 62
    0
370
   -2
100
AcDbLine
 10
1925
 20
-126.5625
 11
1925
 21
-153.125
  0
LINE
  5
EB
100
AcDbEntity
  8
sections
  6
ByBlock
 62
    0
370
   -2
100
AcDbLine
 10
1900
 20
-150
 11
1925
 21
-150
  0
MTEXT
  5
EC
100
AcDbEntity
  8
sections
  6
CONTINUOUS
 62
    0
370
   -2
100
AcDbMText
 10
1941.840277777779
 20
-135.9375
 30
0
 40
25
 41
30.55555555555711
 71
    5
 72
    1
  1
25
  7
standard
210
0
220
0
230
1
 50
0
 73
    2
 44
1
  0
SOLID
  5
ED
100
AcDbEntity
  8
sections
  6
ByBlock
 62
    0
370
   -2
100
AcDbTrace
 10
1900
 20
-150
 30
0
 11
1906.25
 21
-148.9592883555679
 31
0
 12
1906.25
 22
-151.0407116444321
 32
0
 13
1906.25
 23
-151.0407116444321
 33
0
  0
SOLID
  5
EE
100
AcDbEntity
  8
sections
  6
ByBlock
 62
    0
370
   -2
100
AcDbTrace
 10
1925
 20
-150
 30
0
 11
1918.75
 21
-151.0407116444321
 31
0
 12
1918.75
 22
-148.9592883555679
 32
0
 13
1918.75
 23
-148.9592883555679
 33
0
  0
ENDBLK
  5
7A
330
78
100
AcDbEntity
  8
0
100
AcDbBlockEnd
  0
BLOCK
  5
7C
330
7B
100
AcDbEntity
  8
0
100
AcDbBlockBegin
  2
*D24
 70
    1
 10
0
 20
0
  3
*D24
  1

  0
LINE
  5
EF
100
AcDbEntity
  8
sections
  6
ByBlock
 62
    0
370
   -2
100
AcDbLine
 10
1972.5
 20
-53.43749999999977
 11
1972.5
 21
-36.87499999999977
  0
LINE
  5
F0
100
AcDbEntity
  8
sections
  6
ByBlock
 62
    0
370
   -2
100
AcDbLine
 10
1900
 20
-53.4375
 11
1900
 21
-36.875
  0
LINE
  5
F1
100
AcDbEntity
  8
sections
  6
ByBlock
 62
    0
370
   -2
100
AcDbLine
 10
1972.5
 20
-39.99999999999977
 11
1900
 21
-40
  0
MTEXT
  5
F2
100
AcDbEntity
  8
sections
  6
CONTINUOUS
 62
    0
370
   -2
100
AcDbMText
 10
1936.25
 20
-25.93749999999989
 30
0
 40
25
 41
30.55555555555711
 71
    5
 72
    1
  1
73
  7
standard
210
0
220
0
230
1
 50
2.035554996136651e-13
 73
    2
 44
1
  0
SOLID
  5
F3
100
AcDbEntity
  8
sections
  6
ByBlock
 62
    0
370
   -2
100
AcDbTrace
 10
1972.5
 20
-39.99999999999977
 30
0
 11
1966.25
 21
-41.04071164443189
 31
0
 12
1966.25
 22
-38.95928835556769
 32
0
 13
1966.25
 23
-38.95928835556769
 33
0
  0
SOLID
  5
F4
100
AcDbEntity
  8
sections
  6
ByBlock
 62
    0
370
   -2
100
AcDbTrace
 10
1900
 20
-40
 30
0
 11
1906.25
 21
-38.95928835556788
 31
0
 12
1906.25
 22
-41.04071164443208
 32
0
 13
1906.25
 23
-41.04071164443208
 33
0
  0
ENDBLK
  5
7D
330
7B
100
AcDbEntity
  8
0
100
AcDbBlockEnd
  0
BLOCK
  5
7F
330
7E
100
AcDbEntity
  8
0
100
AcDbBlockBegin
  2
*D14
 70
    1
 10
0
 20
0
  3
*D14
  1

  0
LINE
  5
F5
100
AcDbEntity
  8
sections
  6
ByBlock
 62
    0
370
   -2
100
AcDbLine
 10
2317.152812201964
 20
429.9999999999998
 11
2353.125
 21
429.9999999999998
  0
LINE
  5
F6
100
AcDbEntity
  8
sections
  6
ByBlock
 62
    0
370
   -2
100
AcDbLine
 10
2317.152812201964
 20
422.5355056125591
 11
2353.125
 21
422.5355056125591
  0
LINE
  5
F7
100
AcDbEntity
  8
sections
  6
ByBlock
 62
    0
370
   -2
100
AcDbLine
 10
2350
 20
442.4999999999998
 11
2350
 21
410.0355056125591
  0
MTEXT
  5
F8
100
AcDbEntity
  8
sections
  6
CONTINUOUS
 62
    0
370
   -2
100
AcDbMText
 10
2335.9375
 20
437.1180555555553
 30
0
 40
25
 41
11.11111111111111
 71
    5
 72
    1
  1
7
  7
standard
210
0
220
0
230
1
 50
90
 73
    2
 44
1
  0
SOLID
  5
F9
100
AcDbEntity
  8
sections
  6
ByBlock
 62
    0
370
   -2
100
AcDbTrace
 10
2350
 20
429.9999999999998
 30
0
 11
2348.959288355568
 21
436.2499999999998
 31
0
 12
2351.040711644432
 22
436.2499999999998
 32
0
 13
2351.040711644432
 23
436.2499999999998
 33
0
  0
SOLID
  5
FA
100
AcDbEntity
  8
sections
  6
ByBlock
 62
    0
370
   -2
100
AcDbTrace
 10
2350
 20
422.5355056125591
 30
0
 11
2351.040711644432
 21
416.2855056125591
 31
0
 12
2348.959288355568
 22
416.2855056125591
 32
0
 13
2348.959288355568
 23
416.2855056125591
 33
0
  0
ENDBLK
  5
80
330
7E
100
AcDbEntity
  8
0
100
AcDbBlockEnd
  0
BLOCK
  5
82
330
81
100
AcDbEntity
  8
0
100
AcDbBlockBegin
  2
*D10
 70
    1
 10
0
 20
0
  3
*D10
  1

  0
ARC
  5
FB
100
AcDbEntity
  8
sections
  6
ByBlock
 62
    0
370
   -2
100
AcDbCircle
 10
2600
 20
429.9999999999995
 40
10
100
AcDbArc
 50
283.997418370121
 51
180
  0
SOLID
  5
FC
100
AcDbEntity
  8
sections
  6
ByBlock
 62
    0
370
   -2
100
AcDbTrace
 10
2602.418781758261
 20
420.296933742063
 30
0
 11
2607.174731211473
 21
424.483403080939
 31
0
 12
2608.274707527532
 22
422.7163787428112
 32
0
 13
2608.274707527532
 23
422.7163787428112
 33
0
  0
SOLID
  5
FD
100
AcDbEntity
  8
sections
  6
ByBlock
 62
    0
370
   -2
100
AcDbTrace
 10
2590
 20
429.9999999999995
 30
0
 11
2590.931182872125
 21
436.2672545173713
 31
0
 12
2592.911798560129
 22
435.6273448332299
 32
0
 13
2592.911798560129
 23
435.6273448332299
 33
0
  0
MTEXT
  5
FE
100
AcDbEntity
  8
sections
  6
CONTINUOUS
 62
    0
370
   -2
100
AcDbMText
 10
2607.118791076532
 20
439.1112139618537
 30
0
 40
25
 41
113.888888888892
 71
    8
 72
    1
  1
256.00%%D
  7
standard
210
0
220
0
230
1
 50
321.9987091850611
 73
    2
 44
1
  0
ENDBLK
  5
83
330
81
100
AcDbEntity
  8
0
100
AcDbBlockEnd
  0
BLOCK
  5
85
330
84
100
AcDbEntity
  8
0
100
AcDbBlockBegin
  2
*D16
 70
    1
 10
0
 20
0
  3
*D16
  1

  0
LINE
  5
FF
100
AcDbEntity
  8
sections
  6
ByBlock
 62
    0
370
   -2
100
AcDbLine
 10
2337.437333663017
 20
429.9999999999998
 11
2393.125
 21
429.9999999999998
  0
LINE
  5
100
100
AcDbEntity
  8
sections
  6
ByBlock
 62
    0
370
   -2
100
AcDbLine
 10
2337.437333663017
 20
407.492379850229
 11
2393.125
 21
407.492379850229
  0
LINE
  5
101
100
AcDbEntity
  8
sections
  6
ByBlock
 62
    0
370
   -2
100
AcDbLine
 10
2390
 20
429.9999999999998
 11
2390
 21
407.492379850229
  0
MTEXT
  5
102
100
AcDbEntity
  8
sections
  6
CONTINUOUS
 62
    0
370
   -2
100
AcDbMText
 10
2375.9375
 20
446.8402777777783
 30
0
 40
25
 41
30.55555555555711
 71
    5
 72
    1
  1
23
  7
standard
210
0
220
0
230
1
 50
90
 73
    2
 44
1
  0
SOLID
  5
103
100
AcDbEntity
  8
sections
  6
ByBlock
 62
    0
370
   -2
100
AcDbTrace
 10
2390
 20
429.9999999999998
 30
0
 11
2391.040711644432
 21
423.7499999999998
 31
0
 12
2388.959288355568
 22
423.7499999999998
 32
0
 13
2388.959288355568
 23
423.7499999999998
 33
0
  0
SOLID
  5
104
100
AcDbEntity
  8
sections
  6
ByBlock
 62
    0
370
   -2
100
AcDbTrace
 10
2390
 20
407.492379850229
 30
0
 11
2388.959288355568
 21
413.742379850229
 31
0
 12
2391.040711644432
 22
413.742379850229
 32
0
 13
2391.040711644432
 23
413.742379850229
 33
0
  0
ENDBLK
  5
86
330
84
100
AcDbEntity
  8
0
100
AcDbBlockEnd
  0
BLOCK
  5
88
330
87
100
AcDbEntity
  8
0
100
AcDbBlockBegin
  2
*D9
 70
    1
 10
0
 20
0
  3
*D9
  1

  0
ARC
  5
105
100
AcDbEntity
  8
sections
  6
ByBlock
 62
    0
370
   -2
100
AcDbCircle
 10
2576.56016568308
 20
399.9999473556554
 40
10.57513654841006
100
AcDbArc
 50
13.99743412606156
 51
179.999995541714
  0
SOLID
  5
106
100
AcDbEntity
  8
sections
  6
ByBlock
 62
    0
370
   -2
100
AcDbTrace
 10
2586.821290041272
 20
402.5578449148344
 30
0
 11
2582.716250032937
 21
407.3842542692953
 31
0
 12
2584.501712675002
 22
408.4540421273388
 32
0
 13
2584.501712675002
 23
408.4540421273388
 33
0
  0
SOLID
  5
107
100
AcDbEntity
  8
sections
  6
ByBlock
 62
    0
370
   -2
100
AcDbTrace
 10
2565.98502913467
 20
399.9999481785255
 30
0
 11
2566.809567757404
 21
406.2821227054291
 31
0
 12
2568.800772444254
 22
405.6759652980725
 32
0
 13
2568.800772444254
 23
405.6759652980725
 33
0
  0
MTEXT
  5
108
100
AcDbEntity
  8
sections
  6
CONTINUOUS
 62
    0
370
   -2
100
AcDbMText
 10
2575.081230109285
 20
412.0471449779185
 30
0
 40
25
 41
108.3333333333364
 71
    8
 72
    1
  1
166.00%%D
  7
standard
210
0
220
0
230
1
 50
366.9987148338877
 73
    2
 44
1
  0
ENDBLK
  5
89
330
87
100
AcDbEntity
  8
0
100
AcDbBlockEnd
  0
BLOCK
  5
8B
330
8A
100
AcDbEntity
  8
0
100
AcDbBlockBegin
  2
*D19
 70
    1
 10
0
 20
0
  3
*D19
  1

  0
LINE
  5
109
100
AcDbEntity
  8
sections
  6
ByBlock
 62
    0
370
   -2
100
AcDbLine
 10
1900
 20
188.4375
 11
1900
 21
156.875
  0
LINE
  5
10A
100
AcDbEntity
  8
sections
  6
ByBlock
 62
    0
370
   -2
100
AcDbLine
 10
1920
 20
188.4375
 11
1920
 21
156.875
  0
LINE
  5
10B
100
AcDbEntity
  8
sections
  6
ByBlock
 62
    0
370
   -2
100
AcDbLine
 10
1900
 20
160
 11
1920
 21
160
  0
MTEXT
  5
10C
100
AcDbEntity
  8
sections
  6
CONTINUOUS
 62
    0
370
   -2
100
AcDbMText
 10
1936.840277777778
 20
174.0625
 30
0
 40
25
 41
30.55555555555555
 71
    5
 72
    1
  1
20
  7
standard
210
0
220
0
230
1
 50
0
 73
    2
 44
1
  0
SOLID
  5
10D
100
AcDbEntity
  8
sections
  6
ByBlock
 62
    0
370
   -2
100
AcDbTrace
 10
1900
 20
160
 30
0
 11
1906.25
 21
161.0407116444321
 31
0
 12
1906.25
 22
158.9592883555679
 32
0
 13
1906.25
 23
158.9592883555679
 33
0
  0
SOLID
  5
10E
100
AcDbEntity
  8
sections
  6
ByBlock
 62
    0
370
   -2
100
AcDbTrace
 10
1920
 20
160
 30
0
 11
1913.75
 21
158.9592883555679
 31
0
 12
1913.75
 22
161.0407116444321
 32
0
 13
1913.75
 23
161.0407116444321
 33
0
  0
ENDBLK
  5
8C
330
8A
100
AcDbEntity
  8
0
100
AcDbBlockEnd
  0
BLOCK
  5
8E
330
8D
100
AcDbEntity
  8
0
100
AcDbBlockBegin
  2
*D11
 70
    1
 10
0
 20
0
  3
*D11
  1

  0
LINE
  5
10F
100
AcDbEntity
  8
sections
  6
ByBlock
 62
    0
370
   -2
100
AcDbLine
 10
1900
 20
258.4374999999999
 11
1900
 21
236.8749999999999
  0
LINE
  5
110
100
AcDbEntity
  8
sections
  6
ByBlock
 62
    0
370
   -2
100
AcDbLine
 10
2210
 20
258.4374999999999
 11
2210
 21
236.8749999999999
  0
LINE
  5
111
100
AcDbEntity
  8
sections
  6
ByBlock
 62
    0
370
   -2
100
AcDbLine
 10
1900
 20
239.9999999999999
 11
2210
 21
239.9999999999999
  0
MTEXT
  5
112
100
AcDbEntity
  8
sections
  6
CONTINUOUS
 62
    0
370
   -2
100
AcDbMText
 10
2055
 20
254.0624999999999
 30
0
 40
25
 41
44.44444444444599
 71
    5
 72
    1
  1
310
  7
standard
210
0
220
0
230
1
 50
0
 73
    2
 44
1
  0
SOLID
  5
113
100
AcDbEntity
  8
sections
  6
ByBlock
 62
    0
370
   -2
100
AcDbTrace
 10
1900
 20
239.9999999999999
 30
0
 11
1906.25
 21
241.040711644432
 31
0
 12
1906.25
 22
238.9592883555678
 32
0
 13
1906.25
 23
238.9592883555678
 33
0
  0
SOLID
  5
114
100
AcDbEntity
  8
sections
  6
ByBlock
 62
    0
370
   -2
100
AcDbTrace
 10
2210
 20
239.9999999999999
 30
0
 11
2203.75
 21
238.9592883555678
 31
0
 12
2203.75
 22
241.040711644432
 32
0
 13
2203.75
 23
241.040711644432
 33
0
  0
ENDBLK
  5
8F
330
8D
100
AcDbEntity
  8
0
100
AcDbBlockEnd
  0
BLOCK
  5
91
330
90
100
AcDbEntity
  8
0
100
AcDbBlockBegin
  2
*D13
 70
    1
 10
0
 20
0
  3
*D13
  1

  0
LINE
  5
115
100
AcDbEntity
  8
sections
  6
ByBlock
 62
    0
370
   -2
100
AcDbLine
 10
2294.452929897016
 20
409.0370347586642
 11
2316.72769450691
 21
436.033976466454
  0
MTEXT
  5
116
100
AcDbEntity
  8
sections
  6
CONTINUOUS
 62
    0
370
   -2
100
AcDbMText
 10
2306.875118133687
 20
446.1888792877415
 30
0
 40
25
 41
25
 71
    5
 72
    1
  1
10
  7
standard
210
0
220
0
230
1
 50
50.47447992245031
 73
    2
 44
1
  0
SOLID
  5
117
100
AcDbEntity
  8
sections
  6
ByBlock
 62
    0
370
   -2
100
AcDbTrace
 10
2302.408202971978
 20
418.6787996543034
 30
0
 11
2299.233310194478
 21
413.1955855805838
 31
0
 12
2297.627822674515
 22
414.5202488323839
 32
0
 13
2297.627822674515
 23
414.5202488323839
 33
0
  0
SOLID
  5
118
100
AcDbEntity
  8
sections
  6
ByBlock
 62
    0
370
   -2
100
AcDbTrace
 10
2308.772421431948
 20
426.3922115708148
 30
0
 11
2311.947314209448
 21
431.8754256445345
 31
0
 12
2313.55280172941
 22
430.5507623927344
 32
0
 13
2313.55280172941
 23
430.5507623927344
 33
0
  0
ENDBLK
  5
92
330
90
100
AcDbEntity
  8
0
100
AcDbBlockEnd
  0
BLOCK
  5
94
330
93
100
AcDbEntity
  8
0
100
AcDbBlockBegin
  2
*D21
 70
    1
 10
0
 20
0
  3
*D21
  1

  0
LINE
  5
119
100
AcDbEntity
  8
sections
  6
ByBlock
 62
    0
370
   -2
100
AcDbLine
 10
1899.999999969253
 20
28.4375
 11
1899.999999544949
 21
6.875000393558136
  0
LINE
  5
11A
100
AcDbEntity
  8
sections
  6
ByBlock
 62
    0
370
   -2
100
AcDbLine
 10
2259.616563084296
 20
28.43749292350572
 11
2259.616562659992
 21
6.874993317063855
  0
LINE
  5
11B
100
AcDbEntity
  8
sections
  6
ByBlock
 62
    0
370
   -2
100
AcDbLine
 10
1899.999999606442
 20
10.00000039355814
 11
2259.616562721485
 21
9.999993317063854
  0
MTEXT
  5
11C
100
AcDbEntity
  8
sections
  6
CONTINUOUS
 62
    0
370
   -2
100
AcDbMText
 10
2079.808281440683
 20
24.06249685531099
 30
0
 40
25
 41
50.0000000000031
 71
    5
 72
    1
  1
360
  7
standard
210
0
220
0
230
1
 50
359.9999988725401
 73
    2
 44
1
  0
SOLID
  5
11D
100
AcDbEntity
  8
sections
  6
ByBlock
 62
    0
370
   -2
100
AcDbTrace
 10
1899.999999606442
 20
10.00000039355814
 30
0
 11
1906.249999626921
 21
11.04071191500344
 31
0
 12
1906.249999585963
 22
8.959288626139237
 32
0
 13
1906.249999585963
 23
8.959288626139237
 33
0
  0
SOLID
  5
11E
100
AcDbEntity
  8
sections
  6
ByBlock
 62
    0
370
   -2
100
AcDbTrace
 10
2259.616562721485
 20
9.999993317063854
 30
0
 11
2253.366562701006
 21
8.959281795618553
 31
0
 12
2253.366562741964
 22
11.04070508448276
 32
0
 13
2253.366562741964
 23
11.04070508448276
 33
0
  0
ENDBLK
  5
95
330
93
100
AcDbEntity
  8
0
100
AcDbBlockEnd
  0
BLOCK
  5
97
330
96
100
AcDbEntity
  8
0
100
AcDbBlockBegin
  2
*D20
 70
    1
 10
0
 20
0
  3
*D20
  1

  0
LINE
  5
11F
100
AcDbEntity
  8
sections
  6
ByBlock
 62
    0
370
   -2
100
AcDbLine
 10
2245.503571655354
 20
34.63251290094149
 11
2273.700394969398
 21
55.36748709905851
  0
MTEXT
  5
120
100
AcDbEntity
  8
sections
  6
CONTINUOUS
 62
    0
370
   -2
100
AcDbMText
 10
2266.628165305603
 20
67.62223638586721
 30
0
 40
25
 41
25
 71
    5
 72
    1
  1
10
  7
standard
210
0
220
0
230
1
 50
36.32948463169475
 73
    2
 44
1
  0
SOLID
  5
121
100
AcDbEntity
  8
sections
  6
ByBlock
 62
    0
370
   -2
100
AcDbTrace
 10
2255.573865696084
 20
42.03786082884039
 30
0
 11
2251.155265221289
 21
37.49676508320749
 31
0
 12
2249.922172130148
 22
39.17360864657437
 32
0
 13
2249.922172130148
 23
39.17360864657437
 33
0
  0
SOLID
  5
122
100
AcDbEntity
  8
sections
  6
ByBlock
 62
    0
370
   -2
100
AcDbTrace
 10
2263.630100928668
 20
47.96213917115961
 30
0
 11
2268.048701403462
 21
52.5032349167925
 31
0
 12
2269.281794494604
 22
50.82639135342563
 32
0
 13
2269.281794494604
 23
50.82639135342563
 33
0
  0
ENDBLK
  5
98
330
96
100
AcDbEntity
  8
0
100
AcDbBlockEnd
  0
BLOCK
  5
9A
330
99
100
AcDbEntity
  8
0
100
AcDbBlockBegin
  2
*D7
 70
    1
 10
0
 20
0
  3
*D7
  1

  0
LINE
  5
123
100
AcDbEntity
  8
sections
  6
ByBlock
 62
    0
370
   -2
100
AcDbLine
 10
1899.999999878419
 20
398.4374999999998
 11
1899.999995088136
 21
336.8750529120044
  0
LINE
  5
124
100
AcDbEntity
  8
sections
  6
ByBlock
 62
    0
370
   -2
100
AcDbLine
 10
2576.560165561499
 20
398.4374473556553
 11
2576.560160771216
 21
336.8750002676599
  0
LINE
  5
125
100
AcDbEntity
  8
sections
  6
ByBlock
 62
    0
370
   -2
100
AcDbLine
 10
1899.999995331298
 20
340.0000529120044
 11
2576.560161014378
 21
340.0000002676599
  0
MTEXT
  5
126
100
AcDbEntity
  8
sections
  6
CONTINUOUS
 62
    0
370
   -2
100
AcDbMText
 10
2238.280079267066
 20
354.0625265898321
 30
0
 40
25
 41
50.00000000000155
 71
    5
 72
    1
  1
677
  7
standard
210
0
220
0
230
1
 50
359.9999955417139
 73
    2
 44
1
  0
SOLID
  5
127
100
AcDbEntity
  8
sections
  6
ByBlock
 62
    0
370
   -2
100
AcDbTrace
 10
1899.999995331298
 20
340.0000529120044
 30
0
 11
1906.249995412277
 21
341.0407640701129
 31
0
 12
1906.249995250318
 22
338.9593407812487
 32
0
 13
1906.249995250318
 23
338.9593407812487
 33
0
  0
SOLID
  5
128
100
AcDbEntity
  8
sections
  6
ByBlock
 62
    0
370
   -2
100
AcDbTrace
 10
2576.560161014378
 20
340.0000002676599
 30
0
 11
2570.310160933398
 21
338.9592891095514
 31
0
 12
2570.310161095357
 22
341.0407123984156
 32
0
 13
2570.310161095357
 23
341.0407123984156
 33
0
  0
ENDBLK
  5
9B
330
99
100
AcDbEntity
  8
0
100
AcDbBlockEnd
  0
BLOCK
  5
9D
330
9C
100
AcDbEntity
  8
0
100
AcDbBlockBegin
  2
*D17
 70
    1
 10
0
 20
0
  3
*D17
  1

  0
LINE
  5
129
100
AcDbEntity
  8
sections
  6
ByBlock
 62
    0
370
   -2
100
AcDbLine
 10
2305.590312201964
 20
434.0980056125591
 11
2305.590312201964
 21
473.125
  0
LINE
  5
12A
100
AcDbEntity
  8
sections
  6
ByBlock
 62
    0
370
   -2
100
AcDbLine
 10
2315.736835664841
 20
434.0980056125591
 11
2315.736835664841
 21
473.125
  0
LINE
  5
12B
100
AcDbEntity
  8
sections
  6
ByBlock
 62
    0
370
   -2
100
AcDbLine
 10
2293.090312201964
 20
470
 11
2328.236835664841
 21
470
  0
MTEXT
  5
12C
100
AcDbEntity
  8
sections
  6
CONTINUOUS
 62
    0
370
   -2
100
AcDbMText
 10
2329.79933566484
 20
484.0625
 30
0
 40
25
 41
25
 71
    5
 72
    1
  1
10
  7
standard
210
0
220
0
230
1
 50
0
 73
    2
 44
1
  0
SOLID
  5
12D
100
AcDbEntity
  8
sections
  6
ByBlock
 62
    0
370
   -2
100
AcDbTrace
 10
2305.590312201964
 20
470
 30
0
 11
2299.340312201964
 21
468.9592883555679
 31
0
 12
2299.340312201964
 22
471.0407116444321
 32
0
 13
2299.340312201964
 23
471.0407116444321
 33
0
  0
SOLID
  5
12E
100
AcDbEntity
  8
sections
  6
ByBlock
 62
    0
370
   -2
100
AcDbTrace
 10
2315.736835664841
 20
470
 30
0
 11
2321.986835664841
 21
471.0407116444321
 31
0
 12
2321.986835664841
 22
468.9592883555679
 32
0
 13
2321.986835664841
 23
468.9592883555679
 33
0
  0
ENDBLK
  5
9E
330
9C
100
AcDbEntity
  8
0
100
AcDbBlockEnd
  0
BLOCK
  5
A0
330
9F
100
AcDbEntity
  8
0
100
AcDbBlockBegin
  2
*D22
 70
    1
 10
0
 20
0
  3
*D22
  1

  0
LINE
  5
12F
100
AcDbEntity
  8
sections
  6
ByBlock
 62
    0
370
   -2
100
AcDbLine
 10
1900
 20
43.4375
 11
1900
 21
-13.125
  0
LINE
  5
130
100
AcDbEntity
  8
sections
  6
ByBlock
 62
    0
370
   -2
100
AcDbLine
 10
2274.616570202594
 20
43.4375
 11
2274.616570202594
 21
-13.125
  0
LINE
  5
131
100
AcDbEntity
  8
sections
  6
ByBlock
 62
    0
370
   -2
100
AcDbLine
 10
1900
 20
-10
 11
2274.616570202594
 21
-10
  0
MTEXT
  5
132
100
AcDbEntity
  8
sections
  6
CONTINUOUS
 62
    0
370
   -2
100
AcDbMText
 10
2087.308285101297
 20
4.0625
 30
0
 40
25
 41
50.00000000000311
 71
    5
 72
    1
  1
375
  7
standard
210
0
220
0
230
1
 50
0
 73
    2
 44
1
  0
SOLID
  5
133
100
AcDbEntity
  8
sections
  6
ByBlock
 62
    0
370
   -2
100
AcDbTrace
 10
1900
 20
-10
 30
0
 11
1906.25
 21
-8.959288355567899
 31
0
 12
1906.25
 22
-11.0407116444321
 32
0
 13
1906.25
 23
-11.0407116444321
 33
0
  0
SOLID
  5
134
100
AcDbEntity
  8
sections
  6
ByBlock
 62
    0
370
   -2
100
AcDbTrace
 10
2274.616570202594
 20
-10
 30
0
 11
2268.366570202594
 21
-11.0407116444321
 31
0
 12
2268.366570202594
 22
-8.959288355567899
 32
0
 13
2268.366570202594
 23
-8.959288355567899
 33
0
  0
ENDBLK
  5
A1
330
9F
100
AcDbEntity
  8
0
100
AcDbBlockEnd
  0
BLOCK
  5
A3
330
A2
100
AcDbEntity
  8
0
100
AcDbBlockBegin
  2
*D27
 70
    1
 10
0
 20
0
  3
*D27
  1

  0
LINE
  5
135
100
AcDbEntity
  8
pied
  6
ByBlock
 62
    0
370
   -2
100
AcDbLine
 10
-78.99999999999997
 20
0
 11
226.4962420111871
 21
0
  0
MTEXT
  5
136
100
AcDbEntity
  8
pied
  6
CONTINUOUS
 62
    0
370
   -2
100
AcDbMText
 10
73.74812100559356
 20
14.0625
 30
0
 40
25
 41
50.00000000000311
 71
    5
 72
    1
  1
305
  7
standard
210
0
220
0
230
1
 50
0
 73
    2
 44
1
  0
SOLID
  5
137
100
AcDbEntity
  8
pied
  6
ByBlock
 62
    0
370
   -2
100
AcDbTrace
 10
-78.99999999999997
 20
0
 30
0
 11
-72.74999999999997
 21
1.040711644432101
 31
0
 12
-72.74999999999997
 22
-1.040711644432102
 32
0
 13
-72.74999999999997
 23
-1.040711644432102
 33
0
  0
SOLID
  5
138
100
AcDbEntity
  8
pied
  6
ByBlock
 62
    0
370
   -2
100
AcDbTrace
 10
226.4962420111871
 20
0
 30
0
 11
220.2462420111871
 21
-1.040711644432101
 31
0
 12
220.2462420111871
 22
1.040711644432101
 32
0
 13
220.2462420111871
 23
1.040711644432101
 33
0
  0
LINE
  5
139
100
AcDbEntity
  8
pied
  6
ByBlock
 62
    0
370
   -2
100
AcDbLine
 10
-79
 20
-1.5625
 11
-78.99999999999997
 21
-3.125
  0
LINE
  5
13A
100
AcDbEntity
  8
pied
  6
ByBlock
 62
    0
370
   -2
100
AcDbLine
 10
226.4962420111871
 20
996.6230376044692
 11
226.4962420111871
 21
-3.125
  0
ENDBLK
  5
A4
330
A2
100
AcDbEntity
  8
0
100
AcDbBlockEnd
  0
ENDSEC
  0
SECTION
  2
ENTITIES
  0
HATCH
  5
13B
100
AcDbEntity
  8
0
  6
ByLayer
 62
  256
370
   -1
100
AcDbHatch
 10
0
 20
0
 30
0
210
0
220
0
230
1
  2
ansi31
 70
    0
 71
    0
 91
    1
 92
    0
 93
    4
 72
    1
 10
1900
 20
-120
 11
1925
 21
-120
 72
    1
 10
1925
 20
-120
 11
1925
 21
-125
 72
    1
 10
1925
 20
-125
 11
1900
 21
-125
 72
    1
 10
1900
 20
-125
 11
1900
 21
-120
 97
    0
 75
    0
 76
    1
 52
1.570796326794897
 41
3
 77
    0
 78
    0
 98
    0
  0
LINE
  5
13C
100
AcDbEntity
  8
assise
  6
ByLayer
 62
  256
370
   -1
100
AcDbLine
 10
-420.994843747969
 20
352
 11
-1.571429999999978
 21
330
  0
LINE
  5
13D
100
AcDbEntity
  8
assise
  6
ByLayer
 62
  256
370
   -1
100
AcDbLine
 10
-1.571429999999978
 20
330
 11
-1.428571388295552e-06
 21
359.9588152677121
  0
LINE
  5
13E
100
AcDbEntity
  8
assise
  6
ByLayer
 62
  256
370
   -1
100
AcDbLine
 10
-419.4234151765404
 20
381.9588152677121
 11
-420.994843747969
 21
352
  0
LINE
  5
13F
100
AcDbEntity
  8
assise
  6
ByLayer
 62
  256
370
   -1
100
AcDbLine
 10
2.220446049250313e-14
 20
359.959
 11
-419.4234299999999
 21
381.959
  0
LINE
  5
140
100
AcDbEntity
  8
assise
  6
ByLayer
 62
  256
370
   -1
100
AcDbLine
 10
-389.4645999088297
 20
380.3873866962835
 11
-391.0360284802583
 21
350.4285714285714
  0
LINE
  5
141
100
AcDbEntity
  8
assise
  6
ByLayer
 62
  256
370
   -1
100
AcDbLine
 10
-31.53024526771168
 20
331.5714285714286
 11
-29.95881669628309
 21
361.5302438391406
  0
LINE
  5
142
100
AcDbEntity
  8
assise
  6
ByLayer
 62
  256
370
   -1
100
AcDbLine
 10
-1.398881011027697e-14
 20
359.9588151927792
 11
30.87561507379711
 21
358.3392977567981
  0
LINE
  5
143
100
AcDbEntity
  8
assise
  6
ByLayer
 62
  256
370
   -1
100
AcDbLine
 10
30.87561507379711
 20
358.3392977567981
 11
21.8360487052713
 21
328.7722084303443
  0
LINE
  5
144
100
AcDbEntity
  8
assise
  6
ByLayer
 62
  256
370
   -1
100
AcDbLine
 10
21.8360487052713
 20
328.7722084303443
 11
-1.571429999999978
 21
330
  0
LINE
  5
145
100
AcDbEntity
  8
assise
  6
ByLayer
 62
  256
370
   -1
100
AcDbLine
 10
600
 20
381.959
 11
600
 21
352
  0
LINE
  5
146
100
AcDbEntity
  8
assise
  6
ByLayer
 62
  256
370
   -1
100
AcDbLine
 10
600
 20
352
 11
1050
 21
352
  0
LINE
  5
147
100
AcDbEntity
  8
assise
  6
ByLayer
 62
  256
370
   -1
100
AcDbLine
 10
1050
 20
352
 11
1050
 21
381.959
  0
LINE
  5
148
100
AcDbEntity
  8
assise
  6
ByLayer
 62
  256
370
   -1
100
AcDbLine
 10
1050
 20
381.959
 11
600
 21
381.959
  0
LINE
  5
149
100
AcDbEntity
  8
assise
  6
ByLayer
 62
  256
370
   -1
100
AcDbLine
 10
640
 20
350.4285714285714
 11
1010
 21
350.4285714285714
  0
LINE
  5
14A
100
AcDbEntity
  8
assise
  6
ByLayer
 62
  256
370
   -1
100
AcDbLine
 10
1010
 20
350.4285714285714
 11
1010
 21
381.9589999999999
  0
LINE
  5
14B
100
AcDbEntity
  8
assise
  6
ByLayer
 62
  256
370
   -1
100
AcDbLine
 10
640
 20
350.4285714285714
 11
640
 21
381.9589999999999
  0
LINE
  5
14C
100
AcDbEntity
  8
assise
  6
ByLayer
 62
  256
370
   -1
100
AcDbLine
 10
640
 20
328.7722084303443
 11
640
 21
352
  0
LINE
  5
14D
100
AcDbEntity
  8
assise
  6
ByLayer
 62
  256
370
   -1
100
AcDbLine
 10
600
 20
352
 11
600
 21
328.7722084303443
  0
LINE
  5
14E
100
AcDbEntity
  8
assise
  6
ByLayer
 62
  256
370
   -1
100
AcDbLine
 10
600
 20
328.7722084303443
 11
640
 21
328.7722084303443
  0
LINE
  5
14F
100
AcDbEntity
  8
assise
  6
ByLayer
 62
  256
370
   -1
100
AcDbLine
 10
1010
 20
352
 11
1010
 21
328.7722084303443
  0
LINE
  5
150
100
AcDbEntity
  8
assise
  6
ByLayer
 62
  256
370
   -1
100
AcDbLine
 10
1010
 20
328.7722084303443
 11
1050
 21
328.7722084303443
  0
LINE
  5
151
100
AcDbEntity
  8
assise
  6
ByLayer
 62
  256
370
   -1
100
AcDbLine
 10
1050
 20
328.7722084303443
 11
1050
 21
352
  0
LINE
  5
152
100
AcDbEntity
  8
assise
  6
ByLayer
 62
  256
370
   -1
100
AcDbLine
 10
1010
 20
328.7722084303443
 11
640
 21
328.7722084303443
  0
LINE
  5
153
100
AcDbEntity
  8
assise
  6
ByLayer
 62
  256
370
   -1
100
AcDbLine
 10
599.9999999999999
 20
-1000
 11
639.9999999999999
 21
-1000
  0
LINE
  5
154
100
AcDbEntity
  8
assise
  6
ByLayer
 62
  256
370
   -1
100
AcDbLine
 10
639.9999999999999
 20
-1000
 11
639.9999999999999
 21
-548.1295411782338
  0
LINE
  5
155
100
AcDbEntity
  8
assise
  6
ByLayer
 62
  256
370
   -1
100
AcDbLine
 10
639.9999999999999
 20
-548.1295411782338
 11
599.9999999999999
 21
-548.1295411782338
  0
LINE
  5
156
100
AcDbEntity
  8
assise
  6
ByLayer
 62
  256
370
   -1
100
AcDbLine
 10
599.9999999999999
 20
-548.1295411782338
 11
599.9999999999999
 21
-1000
  0
LINE
  5
157
100
AcDbEntity
  8
assise
  6
ByLayer
 62
  256
370
   -1
100
AcDbLine
 10
1050
 20
-548.1295411782338
 11
1010
 21
-548.1295411782338
  0
LINE
  5
158
100
AcDbEntity
  8
assise
  6
ByLayer
 62
  256
370
   -1
100
AcDbLine
 10
1010
 20
-548.1295411782338
 11
1010
 21
-1000
  0
LINE
  5
159
100
AcDbEntity
  8
assise
  6
ByLayer
 62
  256
370
   -1
100
AcDbLine
 10
1010
 20
-1000
 11
1050
 21
-1000
  0
LINE
  5
15A
100
AcDbEntity
  8
assise
  6
ByLayer
 62
  256
370
   -1
100
AcDbLine
 10
1050
 20
-1000
 11
1050
 21
-548.1295411782338
  0
LINE
  5
15B
100
AcDbEntity
  8
assise
  6
ByLayer
 62
  256
370
   -1
100
AcDbLine
 10
1050
 20
-557.1691075467596
 11
1010
 21
-557.1691075467596
  0
LINE
  5
15C
100
AcDbEntity
  8
assise
  6
ByLayer
 62
  256
370
   -1
100
AcDbLine
 10
639.9999999999999
 20
-557.1691075467596
 11
599.9999999999999
 21
-557.1691075467596
  0
LINE
  5
15D
100
AcDbEntity
  8
assise
  6
ByLayer
 62
  256
370
   -1
100
AcDbLine
 10
599.9999999999999
 20
-998.4285862520309
 11
639.9999999999999
 21
-998.4285862520309
  0
LINE
  5
15E
100
AcDbEntity
  8
assise
  6
ByLayer
 62
  256
370
   -1
100
AcDbLine
 10
1010
 20
-998.4285862520309
 11
1050
 21
-998.4285862520309
  0
LINE
  5
15F
100
AcDbEntity
  8
assise
  6
ByLayer
 62
  256
370
   -1
100
AcDbLine
 10
639.9999999999999
 20
-1000
 11
1010
 21
-1000
  0
LINE
  5
160
100
AcDbEntity
  8
assise
  6
ByLayer
 62
  256
370
   -1
100
AcDbLine
 10
639.9999999999999
 20
-998.4285862520308
 11
1010
 21
-998.4285862520308
  0
LINE
  5
161
100
AcDbEntity
  8
assise
  6
ByLayer
 62
  256
370
   -1
100
AcDbLine
 10
639.9999999999999
 20
-970.0411847322891
 11
1010
 21
-970.0411847322891
  0
LINE
  5
162
100
AcDbEntity
  8
assise
  6
ByLayer
 62
  256
370
   -1
100
AcDbLine
 10
639.9999999999999
 20
-968.4697561608606
 11
1010
 21
-968.4697561608606
  0
LINE
  5
163
100
AcDbEntity
  8
assise
  6
ByLayer
 62
  256
370
   -1
100
AcDbLine
 10
639.9999999999999
 20
-610.5354015197427
 11
1010
 21
-610.5354015197427
  0
LINE
  5
164
100
AcDbEntity
  8
assise
  6
ByLayer
 62
  256
370
   -1
100
AcDbLine
 10
639.9999999999999
 20
-608.963972948314
 11
1010
 21
-608.963972948314
  0
LINE
  5
165
100
AcDbEntity
  8
assise
  6
ByLayer
 62
  256
370
   -1
100
AcDbLine
 10
639.9999999999999
 20
-580.5765862520309
 11
1010
 21
-580.5765862520309
  0
LINE
  5
166
100
AcDbEntity
  8
assise
  6
ByLayer
 62
  256
370
   -1
100
AcDbLine
 10
639.9999999999999
 20
-579.0051562520309
 11
1010
 21
-579.0051562520309
  0
LINE
  5
167
100
AcDbEntity
  8
assise
  6
ByLayer
 62
  256
370
   -1
100
AcDbLine
 10
640
 20
361.5302438391407
 11
1010
 21
361.5302438391407
  0
LINE
  5
168
100
AcDbEntity
  8
assise
  6
ByLayer
 62
  256
370
   -1
100
AcDbLine
 10
640
 20
359.9590000000001
 11
1010
 21
359.9590000000001
  0
LINE
  5
169
100
AcDbEntity
  8
assise
  6
ByLayer
 62
  256
370
   -1
100
AcDbLine
 10
640
 20
330
 11
1010
 21
330
  0
LINE
  5
16A
100
AcDbEntity
  8
assise
  6
ByLayer
 62
  256
370
   -1
100
AcDbLine
 10
640
 20
331.5714285714284
 11
1010
 21
331.5714285714284
  0
LINE
  5
16B
100
AcDbEntity
  8
assise
  6
ByLayer
 62
  256
370
   -1
100
AcDbLine
 10
640
 20
380.3873866962836
 11
1010
 21
380.3873866962836
  0
LINE
  5
16C
100
AcDbEntity
  8
assise
  6
ByLayer
 62
  256
370
   -1
100
AcDbLine
 10
640
 20
350.4285714285716
 11
1010
 21
350.4285714285716
  0
LINE
  5
16D
100
AcDbEntity
  8
assise
  6
ByLayer
 62
  256
370
   -1
100
AcDbLine
 10
640
 20
352
 11
1010
 21
352
  0
LINE
  5
16E
100
AcDbEntity
  8
assise
  6
ByLayer
 62
  256
370
   -1
100
AcDbLine
 10
640
 20
381.9590000000001
 11
1010
 21
381.9590000000001
  0
LINE
  5
16F
100
AcDbEntity
  8
pied
  6
ByLayer
 62
  256
370
   -1
100
AcDbLine
 10
-78.99999999999999
 20
359.095910207547
 11
-109
 21
359.095910207547
  0
LINE
  5
170
100
AcDbEntity
  8
pied
  6
ByLayer
 62
  256
370
   -1
100
AcDbLine
 10
-109
 20
-1.387778780781446e-16
 11
-79
 21
-1.387778780781446e-16
  0
LINE
  5
171
100
AcDbEntity
  8
pied
  6
ByLayer
 62
  256
370
   -1
100
AcDbLine
 10
-79
 20
-1.387778780781446e-16
 11
-78.99999999999999
 21
359.095910207547
  0
LINE
  5
172
100
AcDbEntity
  8
pied
  6
ByLayer
 62
  256
370
   -1
100
AcDbLine
 10
-109
 20
359.095910207547
 11
-109
 21
-1.387778780781446e-16
  0
LINE
  5
173
100
AcDbEntity
  8
pied
  6
ByLayer
 62
  256
370
   -1
100
AcDbLine
 10
640
 20
359.095910207547
 11
640
 21
-1.387778780781446e-16
  0
LINE
  5
174
100
AcDbEntity
  8
pied
  6
ByLayer
 62
  256
370
   -1
100
AcDbLine
 10
640
 20
-1.387778780781446e-16
 11
670
 21
-1.714505518806295e-14
  0
LINE
  5
175
100
AcDbEntity
  8
pied
  6
ByLayer
 62
  256
370
   -1
100
AcDbLine
 10
640
 20
359.095910207547
 11
670
 21
359.095910207547
  0
LINE
  5
176
100
AcDbEntity
  8
pied
  6
ByLayer
 62
  256
370
   -1
100
AcDbLine
 10
670
 20
359.095910207547
 11
670
 21
-1.387778780781446e-16
  0
LINE
  5
177
100
AcDbEntity
  8
pied
  6
ByLayer
 62
  256
370
   -1
100
AcDbLine
 10
980
 20
359.095910207547
 11
980
 21
-1.387778780781446e-16
  0
LINE
  5
178
100
AcDbEntity
  8
pied
  6
ByLayer
 62
  256
370
   -1
100
AcDbLine
 10
980
 20
-1.387778780781446e-16
 11
1010
 21
-1.387778780781446e-16
  0
LINE
  5
179
100
AcDbEntity
  8
pied
  6
ByLayer
 62
  256
370
   -1
100
AcDbLine
 10
1010
 20
-1.387778780781446e-16
 11
1010
 21
359.095910207547
  0
LINE
  5
17A
100
AcDbEntity
  8
pied
  6
ByLayer
 62
  256
370
   -1
100
AcDbLine
 10
1010
 20
359.095910207547
 11
980
 21
359.095910207547
  0
LINE
  5
17B
100
AcDbEntity
  8
pied
  6
ByLayer
 62
  256
370
   -1
100
AcDbLine
 10
669.9999999999999
 20
-688.0051562520309
 11
639.9999999999999
 21
-688.0051562520309
  0
LINE
  5
17C
100
AcDbEntity
  8
pied
  6
ByLayer
 62
  256
370
   -1
100
AcDbLine
 10
639.9999999999999
 20
-688.0051562520309
 11
639.9999999999999
 21
-658.0051562520309
  0
LINE
  5
17D
100
AcDbEntity
  8
pied
  6
ByLayer
 62
  256
370
   -1
100
AcDbLine
 10
639.9999999999999
 20
-658.0051562520309
 11
669.9999999999999
 21
-658.0051562520309
  0
LINE
  5
17E
100
AcDbEntity
  8
pied
  6
ByLayer
 62
  256
370
   -1
100
AcDbLine
 10
669.9999999999999
 20
-658.0051562520309
 11
669.9999999999999
 21
-688.0051562520309
  0
LINE
  5
17F
100
AcDbEntity
  8
pied
  6
ByLayer
 62
  256
370
   -1
100
AcDbLine
 10
980
 20
-658.0051562520309
 11
980
 21
-688.0051562520309
  0
LINE
  5
180
100
AcDbEntity
  8
pied
  6
ByLayer
 62
  256
370
   -1
100
AcDbLine
 10
980
 20
-688.0051562520309
 11
1010
 21
-688.0051562520309
  0
LINE
  5
181
100
AcDbEntity
  8
pied
  6
ByLayer
 62
  256
370
   -1
100
AcDbLine
 10
1010
 20
-688.0051562520309
 11
1010
 21
-658.0051562520309
  0
LINE
  5
182
100
AcDbEntity
  8
pied
  6
ByLayer
 62
  256
370
   -1
100
AcDbLine
 10
1010
 20
-658.0051562520309
 11
980
 21
-658.0051562520309
  0
LINE
  5
183
100
AcDbEntity
  8
assise
  6
ByLayer
 62
  256
370
   -1
100
AcDbLine
 10
600
 20
358.3392977567981
 11
640
 21
358.3392977567981
  0
LINE
  5
184
100
AcDbEntity
  8
assise
  6
ByLayer
 62
  256
370
   -1
100
AcDbLine
 10
1010
 20
358.3392977567981
 11
1050
 21
358.3392977567981
  0
LINE
  5
185
100
AcDbEntity
  8
dossier
  6
ByLayer
 62
  256
370
   -1
100
AcDbLine
 10
640
 20
328.7722084303443
 11
670
 21
328.7722084303443
  0
LINE
  5
186
100
AcDbEntity
  8
dossier
  6
ByLayer
 62
  256
370
   -1
100
AcDbLine
 10
670
 20
328.7722084303443
 11
670.0000000000001
 21
1006.956688746151
  0
LINE
  5
187
100
AcDbEntity
  8
dossier
  6
ByLayer
 62
  256
370
   -1
100
AcDbLine
 10
670.0000000000001
 20
1006.956688746151
 11
640.0000000000001
 21
1006.956688746151
  0
LINE
  5
188
100
AcDbEntity
  8
dossier
  6
ByLayer
 62
  256
370
   -1
100
AcDbLine
 10
640.0000000000001
 20
1006.956688746151
 11
640
 21
328.7722084303443
  0
LINE
  5
189
100
AcDbEntity
  8
dossier
  6
ByLayer
 62
  256
370
   -1
100
AcDbLine
 10
980
 20
328.7722084303443
 11
1010
 21
328.7722084303443
  0
LINE
  5
18A
100
AcDbEntity
  8
dossier
  6
ByLayer
 62
  256
370
   -1
100
AcDbLine
 10
1010
 20
328.7722084303443
 11
1010
 21
1006.956688746151
  0
LINE
  5
18B
100
AcDbEntity
  8
dossier
  6
ByLayer
 62
  256
370
   -1
100
AcDbLine
 10
1010
 20
1006.956688746151
 11
980.0000000000001
 21
1006.956688746151
  0
LINE
  5
18C
100
AcDbEntity
  8
dossier
  6
ByLayer
 62
  256
370
   -1
100
AcDbLine
 10
980.0000000000001
 20
1006.956688746151
 11
980
 21
328.7722084303443
  0
LINE
  5
18D
100
AcDbEntity
  8
dossier
  6
ByLayer
 62
  256
370
   -1
100
AcDbLine
 10
640
 20
-352.5089142408438
 11
670
 21
-352.5089142408438
  0
LINE
  5
18E
100
AcDbEntity
  8
dossier
  6
ByLayer
 62
  256
370
   -1
100
AcDbLine
 10
670
 20
-352.5089142408438
 11
669.9999999999999
 21
-580.5765862520309
  0
LINE
  5
18F
100
AcDbEntity
  8
dossier
  6
ByLayer
 62
  256
370
   -1
100
AcDbLine
 10
669.9999999999999
 20
-580.5765862520309
 11
639.9999999999999
 21
-580.5765862520309
  0
LINE
  5
190
100
AcDbEntity
  8
dossier
  6
ByLayer
 62
  256
370
   -1
100
AcDbLine
 10
639.9999999999999
 20
-580.5765862520309
 11
640
 21
-352.5089142408438
  0
LINE
  5
191
100
AcDbEntity
  8
dossier
  6
ByLayer
 62
  256
370
   -1
100
AcDbLine
 10
980
 20
-352.5089142408438
 11
1010
 21
-352.5089142408438
  0
LINE
  5
192
100
AcDbEntity
  8
dossier
  6
ByLayer
 62
  256
370
   -1
100
AcDbLine
 10
1010
 20
-352.5089142408438
 11
1010
 21
-580.5765862520309
  0
LINE
  5
193
100
AcDbEntity
  8
dossier
  6
ByLayer
 62
  256
370
   -1
100
AcDbLine
 10
1010
 20
-580.5765862520309
 11
979.9999999999999
 21
-580.5765862520309
  0
LINE
  5
194
100
AcDbEntity
  8
dossier
  6
ByLayer
 62
  256
370
   -1
100
AcDbLine
 10
979.9999999999999
 20
-580.5765862520309
 11
980
 21
-352.5089142408438
  0
LINE
  5
195
100
AcDbEntity
  8
dossier
  6
ByLayer
 62
  256
370
   -1
100
AcDbLine
 10
639.9999999999999
 20
-361.2800653825258
 11
669.9999999999999
 21
-361.2800653825258
  0
LINE
  5
196
100
AcDbEntity
  8
dossier
  6
ByLayer
 62
  256
370
   -1
100
AcDbLine
 10
979.9999999999999
 20
-361.2800653825258
 11
1010
 21
-361.2800653825258
  0
LINE
  5
197
100
AcDbEntity
  8
dossier
  6
ByLayer
 62
  256
370
   -1
100
AcDbLine
 10
979.9999999999998
 20
-579.0051562520309
 11
1010
 21
-579.0051562520309
  0
LINE
  5
198
100
AcDbEntity
  8
dossier
  6
ByLayer
 62
  256
370
   -1
100
AcDbLine
 10
639.9999999999998
 20
-579.0051562520309
 11
669.9999999999998
 21
-579.0051562520309
  0
LINE
  5
199
100
AcDbEntity
  8
dossier
  6
ByLayer
 62
  256
370
   -1
100
AcDbLine
 10
639.9999999999999
 20
-557.1691075467597
 11
669.9999999999999
 21
-557.1691075467597
  0
LINE
  5
19A
100
AcDbEntity
  8
dossier
  6
ByLayer
 62
  256
370
   -1
100
AcDbLine
 10
979.9999999999999
 20
-557.1691075467597
 11
1010
 21
-557.1691075467597
  0
LINE
  5
19B
100
AcDbEntity
  8
dossier
  6
ByLayer
 62
  256
370
   -1
100
AcDbLine
 10
979.9999999999999
 20
-352.5089142408438
 11
670
 21
-352.5089142408438
  0
LINE
  5
19C
100
AcDbEntity
  8
dossier
  6
ByLayer
 62
  256
370
   -1
100
AcDbLine
 10
670
 20
-361.2800653825258
 11
979.9999999999999
 21
-361.2800653825258
  0
LINE
  5
19D
100
AcDbEntity
  8
dossier
  6
ByLayer
 62
  256
370
   -1
100
AcDbLine
 10
979.9999999999999
 20
-381.1980569197348
 11
670
 21
-381.1980569197348
  0
LINE
  5
19E
100
AcDbEntity
  8
dossier
  6
ByLayer
 62
  256
370
   -1
100
AcDbLine
 10
670
 20
-389.96921029377
 11
980
 21
-389.96921029377
  0
LINE
  5
19F
100
AcDbEntity
  8
dossier
  6
ByLayer
 62
  256
370
   -1
100
AcDbLine
 10
669.9999999999999
 20
-527.3839464869864
 11
979.9999999999999
 21
-527.3839464869864
  0
LINE
  5
1A0
100
AcDbEntity
  8
dossier
  6
ByLayer
 62
  256
370
   -1
100
AcDbLine
 10
979.9999999999999
 20
-518.6127581394211
 11
669.9999999999999
 21
-518.6127581394211
  0
LINE
  5
1A1
100
AcDbEntity
  8
dossier
  6
ByLayer
 62
  256
370
   -1
100
AcDbLine
 10
669.9999999999999
 20
-498.6947666022122
 11
979.9999999999999
 21
-498.6947666022122
  0
LINE
  5
1A2
100
AcDbEntity
  8
dossier
  6
ByLayer
 62
  256
370
   -1
100
AcDbLine
 10
979.9999999999999
 20
-489.9236154605301
 11
669.9999999999999
 21
-489.9236154605301
  0
LINE
  5
1A3
100
AcDbEntity
  8
dossier
  6
ByLayer
 62
  256
370
   -1
100
AcDbLine
 10
640
 20
329.9999999999999
 11
670
 21
329.9999999999999
  0
LINE
  5
1A4
100
AcDbEntity
  8
dossier
  6
ByLayer
 62
  256
370
   -1
100
AcDbLine
 10
640.0000000000001
 20
359.9590000000001
 11
670.0000000000001
 21
359.9590000000001
  0
LINE
  5
1A5
100
AcDbEntity
  8
dossier
  6
ByLayer
 62
  256
370
   -1
100
AcDbLine
 10
980
 20
329.9999999999999
 11
1010
 21
329.9999999999999
  0
LINE
  5
1A6
100
AcDbEntity
  8
dossier
  6
ByLayer
 62
  256
370
   -1
100
AcDbLine
 10
1010
 20
359.9590000000001
 11
980.0000000000001
 21
359.9590000000001
  0
LINE
  5
1A7
100
AcDbEntity
  8
dossier
  6
ByLayer
 62
  256
370
   -1
100
AcDbLine
 10
670.0000000000001
 20
520.0331596229516
 11
980.0000000000001
 21
520.0331596229516
  0
LINE
  5
1A8
100
AcDbEntity
  8
dossier
  6
ByLayer
 62
  256
370
   -1
100
AcDbLine
 10
980.0000000000001
 20
528.8043107646338
 11
670.0000000000001
 21
528.8043107646338
  0
LINE
  5
1A9
100
AcDbEntity
  8
dossier
  6
ByLayer
 62
  256
370
   -1
100
AcDbLine
 10
670.0000000000001
 20
548.7223023018425
 11
980.0000000000001
 21
548.7223023018425
  0
LINE
  5
1AA
100
AcDbEntity
  8
dossier
  6
ByLayer
 62
  256
370
   -1
100
AcDbLine
 10
980.0000000000001
 20
557.4934534435248
 11
670.0000000000001
 21
557.4934534435248
  0
LINE
  5
1AB
100
AcDbEntity
  8
dossier
  6
ByLayer
 62
  256
370
   -1
100
AcDbLine
 10
640.0000000000001
 20
998.1855376044693
 11
1010
 21
998.1855376044693
  0
LINE
  5
1AC
100
AcDbEntity
  8
dossier
  6
ByLayer
 62
  256
370
   -1
100
AcDbLine
 10
980.0000000000001
 20
1006.956688746151
 11
670.0000000000001
 21
1006.956688746151
  0
LINE
  5
1AD
100
AcDbEntity
  8
dossier
  6
ByLayer
 62
  256
370
   -1
100
AcDbLine
 10
670.0000000000001
 20
978.2675460672605
 11
980.0000000000001
 21
978.2675460672605
  0
LINE
  5
1AE
100
AcDbEntity
  8
dossier
  6
ByLayer
 62
  256
370
   -1
100
AcDbLine
 10
980.0000000000001
 20
969.4963949255783
 11
670.0000000000001
 21
969.4963949255783
  0
LINE
  5
1AF
100
AcDbEntity
  8
dossier
  6
ByLayer
 62
  256
370
   -1
100
AcDbLine
 10
5.684341886080801e-14
 20
359.9590000000001
 11
-1.571429999999978
 21
330
  0
LINE
  5
1B0
100
AcDbEntity
  8
dossier
  6
ByLayer
 62
  256
370
   -1
100
AcDbLine
 10
-1.571429999999978
 20
330
 11
21.8360487052713
 21
328.7722084303443
  0
LINE
  5
1B1
100
AcDbEntity
  8
dossier
  6
ByLayer
 62
  256
370
   -1
100
AcDbLine
 10
21.8360487052713
 20
328.7722084303443
 11
226.4962420111871
 21
998.1855376044693
  0
LINE
  5
1B2
100
AcDbEntity
  8
dossier
  6
ByLayer
 62
  256
370
   -1
100
AcDbLine
 10
226.4962420111871
 20
998.1855376044693
 11
197.8070993322961
 21
1006.956688746151
  0
LINE
  5
1B3
100
AcDbEntity
  8
dossier
  6
ByLayer
 62
  256
370
   -1
100
AcDbLine
 10
197.8070993322961
 20
1006.956688746151
 11
5.684341886080801e-14
 21
359.9590000000001
  0
LINE
  5
1B4
100
AcDbEntity
  8
dossier
  6
ByLayer
 62
  256
370
   -1
100
AcDbLine
 10
80.3103896498187
 20
520.0331596229516
 11
51.62124697092769
 21
528.8043107646338
  0
LINE
  5
1B5
100
AcDbEntity
  8
dossier
  6
ByLayer
 62
  256
370
   -1
100
AcDbLine
 10
60.39239811260983
 20
557.4934534435248
 11
89.08154079150084
 21
548.7223023018427
  0
LINE
  5
1B6
100
AcDbEntity
  8
dossier
  6
ByLayer
 62
  256
370
   -1
100
AcDbLine
 10
217.725090869505
 20
969.4963949255783
 11
189.035945958261
 21
978.2675467497594
  0
CIRCLE
  5
1B7
100
AcDbEntity
  8
dossier
  6
ByLayer
 62
  256
370
   -1
100
AcDbCircle
 10
90.60198331237568
 20
605.0000000000001
 40
5
  0
LINE
  5
1B8
100
AcDbEntity
  8
acoudoir
  6
ByLayer
 62
  256
370
   -1
100
AcDbLine
 10
605
 20
619.9999999999999
 11
635.0000000000001
 21
619.9999999999999
  0
LINE
  5
1B9
100
AcDbEntity
  8
acoudoir
  6
ByLayer
 62
  256
370
   -1
100
AcDbLine
 10
635.0000000000001
 20
619.9999999999999
 11
635.0000000000001
 21
589.9999999999999
  0
LINE
  5
1BA
100
AcDbEntity
  8
acoudoir
  6
ByLayer
 62
  256
370
   -1
100
AcDbLine
 10
635.0000000000001
 20
589.9999999999999
 11
605
 21
589.9999999999999
  0
LINE
  5
1BB
100
AcDbEntity
  8
acoudoir
  6
ByLayer
 62
  256
370
   -1
100
AcDbLine
 10
605
 20
589.9999999999999
 11
605
 21
619.9999999999999
  0
LINE
  5
1BC
100
AcDbEntity
  8
acoudoir
  6
ByLayer
 62
  256
370
   -1
100
AcDbLine
 10
1045
 20
619.9999999999999
 11
1015
 21
619.9999999999999
  0
LINE
  5
1BD
100
AcDbEntity
  8
acoudoir
  6
ByLayer
 62
  256
370
   -1
100
AcDbLine
 10
1015
 20
619.9999999999999
 11
1015
 21
589.9999999999999
  0
LINE
  5
1BE
100
AcDbEntity
  8
acoudoir
  6
ByLayer
 62
  256
370
   -1
100
AcDbLine
 10
1015
 20
589.9999999999999
 11
1045
 21
589.9999999999999
  0
LINE
  5
1BF
100
AcDbEntity
  8
acoudoir
  6
ByLayer
 62
  256
370
   -1
100
AcDbLine
 10
1045
 20
589.9999999999999
 11
1045
 21
619.9999999999999
  0
LINE
  5
1C0
100
AcDbEntity
  8
acoudoir
  6
ByLayer
 62
  256
370
   -1
100
AcDbLine
 10
634.9999999999999
 20
-473.4031729396564
 11
634.9999999999999
 21
-848.0051562520309
  0
LINE
  5
1C1
100
AcDbEntity
  8
acoudoir
  6
ByLayer
 62
  256
370
   -1
100
AcDbLine
 10
634.9999999999999
 20
-848.0051562520309
 11
604.9999999999998
 21
-848.0051562520309
  0
LINE
  5
1C2
100
AcDbEntity
  8
acoudoir
  6
ByLayer
 62
  256
370
   -1
100
AcDbLine
 10
604.9999999999998
 20
-848.0051562520309
 11
604.9999999999998
 21
-473.4031729396564
  0
LINE
  5
1C3
100
AcDbEntity
  8
acoudoir
  6
ByLayer
 62
  256
370
   -1
100
AcDbLine
 10
604.9999999999998
 20
-473.4031729396564
 11
634.9999999999999
 21
-473.4031729396564
  0
LINE
  5
1C4
100
AcDbEntity
  8
acoudoir
  6
ByLayer
 62
  256
370
   -1
100
AcDbLine
 10
634.9999999999999
 20
-477.3037568142279
 11
604.9999999999998
 21
-477.3037568142279
  0
LINE
  5
1C5
100
AcDbEntity
  8
acoudoir
  6
ByLayer
 62
  256
370
   -1
100
AcDbLine
 10
1045
 20
-473.4031729396564
 11
1015
 21
-473.4031729396564
  0
LINE
  5
1C6
100
AcDbEntity
  8
acoudoir
  6
ByLayer
 62
  256
370
   -1
100
AcDbLine
 10
1015
 20
-473.4031729396564
 11
1015
 21
-848.0051562520309
  0
LINE
  5
1C7
100
AcDbEntity
  8
acoudoir
  6
ByLayer
 62
  256
370
   -1
100
AcDbLine
 10
1015
 20
-848.0051562520309
 11
1045
 21
-848.0051562520309
  0
LINE
  5
1C8
100
AcDbEntity
  8
acoudoir
  6
ByLayer
 62
  256
370
   -1
100
AcDbLine
 10
1045
 20
-848.0051562520309
 11
1045
 21
-473.4031729396564
  0
LINE
  5
1C9
100
AcDbEntity
  8
acoudoir
  6
ByLayer
 62
  256
370
   -1
100
AcDbLine
 10
1045
 20
-477.3037568142279
 11
1015
 21
-477.3037568142279
  0
LINE
  5
1CA
100
AcDbEntity
  8
acoudoir
  6
ByLayer
 62
  256
370
   -1
100
AcDbLine
 10
79.50253426276315
 20
619.9999999999997
 11
-269.0000000000001
 21
619.9999999999999
  0
LINE
  5
1CB
100
AcDbEntity
  8
acoudoir
  6
ByLayer
 62
  256
370
   -1
100
AcDbLine
 10
-269.0000000000001
 20
619.9999999999999
 11
-269
 21
589.9999999999999
  0
LINE
  5
1CC
100
AcDbEntity
  8
acoudoir
  6
ByLayer
 62
  256
370
   -1
100
AcDbLine
 10
-269
 20
589.9999999999999
 11
70.33064674318838
 21
589.9999999999998
  0
LINE
  5
1CD
100
AcDbEntity
  8
acoudoir
  6
ByLayer
 62
  256
370
   -1
100
AcDbLine
 10
90.60198936274823
 20
589.9999999999998
 11
70.33064674318838
 21
589.9999999999998
  0
LINE
  5
1CE
100
AcDbEntity
  8
dossier
  6
DOTTINY
 62
  256
370
   -1
100
AcDbLine
 10
1010
 20
610.0000000000001
 11
980.0000000000001
 21
610.0000000000001
  0
LINE
  5
1CF
100
AcDbEntity
  8
dossier
  6
DOTTINY
 62
  256
370
   -1
100
AcDbLine
 10
980.0000000000001
 20
600.0000000000001
 11
1010
 21
600.0000000000001
  0
LINE
  5
1D0
100
AcDbEntity
  8
dossier
  6
DOTTINY
 62
  256
370
   -1
100
AcDbLine
 10
640.0000000000001
 20
610.0000000000001
 11
670.0000000000001
 21
610.0000000000001
  0
LINE
  5
1D1
100
AcDbEntity
  8
dossier
  6
DOTTINY
 62
  256
370
   -1
100
AcDbLine
 10
670.0000000000001
 20
600.0000000000001
 11
640.0000000000001
 21
600.0000000000001
  0
LINE
  5
1D2
100
AcDbEntity
  8
acoudoir
  6
DOTTINY
 62
  256
370
   -1
100
AcDbLine
 10
605
 20
610.0000000000001
 11
635.0000000000001
 21
610.0000000000001
  0
LINE
  5
1D3
100
AcDbEntity
  8
acoudoir
  6
DOTTINY
 62
  256
370
   -1
100
AcDbLine
 10
635.0000000000001
 20
600.0000000000001
 11
605
 21
600.0000000000001
  0
LINE
  5
1D4
100
AcDbEntity
  8
acoudoir
  6
DOTTINY
 62
  256
370
   -1
100
AcDbLine
 10
1015
 20
610.0000000000001
 11
1045
 21
610.0000000000001
  0
LINE
  5
1D5
100
AcDbEntity
  8
acoudoir
  6
DOTTINY
 62
  256
370
   -1
100
AcDbLine
 10
1045
 20
600.0000000000001
 11
1015
 21
600.0000000000001
  0
LINE
  5
1D6
100
AcDbEntity
  8
acoudoir
  6
CONTINUOUS
 62
  256
370
   -1
100
AcDbLine
 10
79.50253426276336
 20
619.9999999999999
 11
90.60197544697638
 21
620
  0
ARC
  5
1D7
100
AcDbEntity
  8
acoudoir
  6
CONTINUOUS
 62
  256
370
   -1
100
AcDbCircle
 10
90.61656311504339
 20
605.0000000110746
 40
15.00000708759618
100
AcDbArc
 50
269.9443453024536
 51
90.05574172853585
  0
LINE
  5
1D8
100
AcDbEntity
  8
acoudoir
  6
ByLayer
 62
  256
370
   -1
100
AcDbLine
 10
103.1019833123757
 20
607.5000000000001
 11
103.1019833123757
 21
602.5000000000001
  0
LINE
  5
1D9
100
AcDbEntity
  8
acoudoir
  6
ByLayer
 62
  256
370
   -1
100
AcDbLine
 10
103.1019833123757
 20
602.5000000000001
 11
78.10198331237568
 21
602.5000000000001
  0
LINE
  5
1DA
100
AcDbEntity
  8
acoudoir
  6
ByLayer
 62
  256
370
   -1
100
AcDbLine
 10
78.10198331237568
 20
602.5000000000001
 11
78.10198331237568
 21
607.5000000000001
  0
LINE
  5
1DB
100
AcDbEntity
  8
acoudoir
  6
ByLayer
 62
  256
370
   -1
100
AcDbLine
 10
78.10198331237568
 20
607.5000000000001
 11
103.1019833123757
 21
607.5000000000001
  0
CIRCLE
  5
1DC
100
AcDbEntity
  8
dossier
  6
ByLayer
 62
  256
370
   -1
100
AcDbCircle
 10
80.45834669998351
 20
597.5000000000001
 40
5
  0
CIRCLE
  5
1DD
100
AcDbEntity
  8
dossier
  6
ByLayer
 62
  256
370
   -1
100
AcDbCircle
 10
100.7747795301033
 20
612.500000022149
 40
5
  0
LINE
  5
1DE
100
AcDbEntity
  8
acoudoir
  6
ByLayer
 62
  256
370
   -1
100
AcDbLine
 10
635.0000000000001
 20
610.0000000000001
 11
685
 21
610.0000000000001
  0
LINE
  5
1DF
100
AcDbEntity
  8
acoudoir
  6
ByLayer
 62
  256
370
   -1
100
AcDbLine
 10
685
 20
610.0000000000001
 11
685
 21
600.0000000000001
  0
LINE
  5
1E0
100
AcDbEntity
  8
acoudoir
  6
ByLayer
 62
  256
370
   -1
100
AcDbLine
 10
685
 20
600.0000000000001
 11
635.0000000000001
 21
600.0000000000001
  0
CIRCLE
  5
1E1
100
AcDbEntity
  8
acoudoir
  6
ByLayer
 62
  256
370
   -1
100
AcDbCircle
 10
677.5
 20
605
 40
2.5
  0
LINE
  5
1E2
100
AcDbEntity
  8
acoudoir
  6
ByLayer
 62
  256
370
   -1
100
AcDbLine
 10
1015
 20
610.0000000000001
 11
965.0000000000002
 21
610.0000000000001
  0
LINE
  5
1E3
100
AcDbEntity
  8
acoudoir
  6
ByLayer
 62
  256
370
   -1
100
AcDbLine
 10
965.0000000000002
 20
610.0000000000001
 11
965.0000000000002
 21
600.0000000000001
  0
LINE
  5
1E4
100
AcDbEntity
  8
acoudoir
  6
ByLayer
 62
  256
370
   -1
100
AcDbLine
 10
965.0000000000002
 20
600.0000000000001
 11
1015
 21
600.0000000000001
  0
CIRCLE
  5
1E5
100
AcDbEntity
  8
acoudoir
  6
ByLayer
 62
  256
370
   -1
100
AcDbCircle
 10
972.5000000000002
 20
605.0000000000001
 40
2.5
  0
LINE
  5
1E6
100
AcDbEntity
  8
dossier
  6
ByLayer
 62
  256
370
   -1
100
AcDbLine
 10
670.0000000000001
 20
617.500000022149
 11
685
 21
617.500000022149
  0
LINE
  5
1E7
100
AcDbEntity
  8
dossier
  6
ByLayer
 62
  256
370
   -1
100
AcDbLine
 10
685
 20
617.500000022149
 11
685
 21
607.5000000000001
  0
LINE
  5
1E8
100
AcDbEntity
  8
dossier
  6
ByLayer
 62
  256
370
   -1
100
AcDbLine
 10
685
 20
607.5000000000001
 11
670.0000000000001
 21
607.5000000000001
  0
LINE
  5
1E9
100
AcDbEntity
  8
dossier
  6
ByLayer
 62
  256
370
   -1
100
AcDbLine
 10
670.0000000000001
 20
602.5000000000001
 11
685
 21
602.5000000000001
  0
LINE
  5
1EA
100
AcDbEntity
  8
dossier
  6
ByLayer
 62
  256
370
   -1
100
AcDbLine
 10
685
 20
602.5000000000001
 11
685
 21
592.5000000000001
  0
LINE
  5
1EB
100
AcDbEntity
  8
dossier
  6
ByLayer
 62
  256
370
   -1
100
AcDbLine
 10
685
 20
592.5000000000001
 11
670.0000000000001
 21
592.5000000000001
  0
LINE
  5
1EC
100
AcDbEntity
  8
dossier
  6
ByLayer
 62
  256
370
   -1
100
AcDbLine
 10
980.0000000000001
 20
617.500000022149
 11
965.0000000000002
 21
617.500000022149
  0
LINE
  5
1ED
100
AcDbEntity
  8
dossier
  6
ByLayer
 62
  256
370
   -1
100
AcDbLine
 10
965.0000000000002
 20
617.500000022149
 11
965.0000000000002
 21
607.5000000000001
  0
LINE
  5
1EE
100
AcDbEntity
  8
dossier
  6
ByLayer
 62
  256
370
   -1
100
AcDbLine
 10
965.0000000000002
 20
607.5000000000001
 11
980.0000000000001
 21
607.5000000000001
  0
LINE
  5
1EF
100
AcDbEntity
  8
dossier
  6
ByLayer
 62
  256
370
   -1
100
AcDbLine
 10
980.0000000000001
 20
602.5000000000001
 11
965.0000000000002
 21
602.5000000000001
  0
LINE
  5
1F0
100
AcDbEntity
  8
dossier
  6
ByLayer
 62
  256
370
   -1
100
AcDbLine
 10
965.0000000000002
 20
602.5000000000001
 11
965.0000000000002
 21
592.5000000000001
  0
LINE
  5
1F1
100
AcDbEntity
  8
dossier
  6
ByLayer
 62
  256
370
   -1
100
AcDbLine
 10
965.0000000000002
 20
592.5000000000001
 11
980.0000000000001
 21
592.5000000000001
  0
LINE
  5
1F2
100
AcDbEntity
  8
acoudoir levé
  6
ByLayer
 62
  256
370
   -1
100
AcDbLine
 10
91.88044753417002
 20
617.6847387224194
 11
96.66197131398519
 21
616.2228801988057
  0
LINE
  5
1F3
100
AcDbEntity
  8
acoudoir levé
  6
ByLayer
 62
  256
370
   -1
100
AcDbLine
 10
96.66197131398519
 20
616.2228801988057
 11
89.35267869591677
 21
592.3152612997297
  0
LINE
  5
1F4
100
AcDbEntity
  8
acoudoir levé
  6
ByLayer
 62
  256
370
   -1
100
AcDbLine
 10
89.35267869591677
 20
592.3152612997297
 11
84.57115491610159
 21
593.7771198233435
  0
LINE
  5
1F5
100
AcDbEntity
  8
acoudoir levé
  6
ByLayer
 62
  256
370
   -1
100
AcDbLine
 10
84.57115491610159
 20
593.7771198233435
 11
91.88044753417002
 21
617.6847387224194
  0
LINE
  5
1F6
100
AcDbEntity
  8
acoudoir levé
  6
ByLayer
 62
  256
370
   -1
100
AcDbLine
 10
108.2105620057768
 20
611.2428230928175
 11
210.102842048375
 21
944.5174540734688
  0
LINE
  5
1F7
100
AcDbEntity
  8
acoudoir levé
  6
ByLayer
 62
  256
370
   -1
100
AcDbLine
 10
210.102842048375
 20
944.5174540734688
 11
181.4136993694839
 21
953.2886052151507
  0
LINE
  5
1F8
100
AcDbEntity
  8
acoudoir levé
  6
ByLayer
 62
  256
370
   -1
100
AcDbLine
 10
181.4136993694839
 20
953.2886052151507
 11
82.20301971650909
 21
628.785093890627
  0
LINE
  5
1F9
100
AcDbEntity
  8
acoudoir levé
  6
ByLayer
 62
  256
370
   -1
100
AcDbLine
 10
76.27625271780971
 20
609.3995125337857
 11
82.20301971650909
 21
628.785093890627
  0
LINE
  5
1FA
100
AcDbEntity
  8
acoudoir levé
  6
CONTINUOUS
 62
  256
370
   -1
100
AcDbLine
 10
108.2105620057769
 20
611.2428230928173
 11
104.9653994652789
 21
600.6283746998223
  0
ARC
  5
1FB
100
AcDbEntity
  8
acoudoir levé
  6
CONTINUOUS
 62
  256
370
   -1
100
AcDbCircle
 10
90.61656311504339
 20
605.0000000110746
 40
15.00000708759618
100
AcDbArc
 50
162.9443453024536
 51
343.0557417285358
  0
LINE
  5
1FC
100
AcDbEntity
  8
pied
  6
ByLayer
 62
  256
370
   -1
100
AcDbLine
 10
226.4962420111871
 20
998.1855376044692
 11
226.4962420111871
 21
999.1855376044692
  0
LINE
  5
1FD
100
AcDbEntity
  8
dossier
  6
ByLayer
 62
  256
370
   -1
100
AcDbLine
 10
980.0000000000001
 20
607.500000022149
 11
985
 21
607.500000022149
  0
LINE
  5
1FE
100
AcDbEntity
  8
dossier
  6
ByLayer
 62
  256
370
   -1
100
AcDbLine
 10
985
 20
607.500000022149
 11
985
 21
617.500000022149
  0
LINE
  5
1FF
100
AcDbEntity
  8
dossier
  6
ByLayer
 62
  256
370
   -1
100
AcDbLine
 10
985
 20
617.500000022149
 11
980.0000000000001
 21
617.500000022149
  0
LINE
  5
200
100
AcDbEntity
  8
dossier
  6
ByLayer
 62
  256
370
   -1
100
AcDbLine
 10
670.0000000000001
 20
617.500000022149
 11
665.0000000000001
 21
617.500000022149
  0
LINE
  5
201
100
AcDbEntity
  8
dossier
  6
ByLayer
 62
  256
370
   -1
100
AcDbLine
 10
665.0000000000001
 20
617.500000022149
 11
665.0000000000001
 21
607.500000022149
  0
LINE
  5
202
100
AcDbEntity
  8
dossier
  6
ByLayer
 62
  256
370
   -1
100
AcDbLine
 10
665.0000000000001
 20
607.500000022149
 11
670.0000000000001
 21
607.500000022149
  0
LINE
  5
203
100
AcDbEntity
  8
dossier
  6
ByLayer
 62
  256
370
   -1
100
AcDbLine
 10
980.0000000000001
 20
592.5000000000001
 11
985
 21
592.5000000000001
  0
LINE
  5
204
100
AcDbEntity
  8
dossier
  6
ByLayer
 62
  256
370
   -1
100
AcDbLine
 10
985
 20
592.5000000000001
 11
985
 21
602.5000000000001
  0
LINE
  5
205
100
AcDbEntity
  8
dossier
  6
ByLayer
 62
  256
370
   -1
100
AcDbLine
 10
985
 20
602.5000000000001
 11
980.0000000000001
 21
602.5000000000001
  0
LINE
  5
206
100
AcDbEntity
  8
dossier
  6
ByLayer
 62
  256
370
   -1
100
AcDbLine
 10
670.0000000000001
 20
602.5000000000001
 11
665.0000000000001
 21
602.5000000000001
  0
LINE
  5
207
100
AcDbEntity
  8
dossier
  6
ByLayer
 62
  256
370
   -1
100
AcDbLine
 10
665.0000000000001
 20
602.5000000000001
 11
665.0000000000001
 21
592.5000000000001
  0
LINE
  5
208
100
AcDbEntity
  8
dossier
  6
ByLayer
 62
  256
370
   -1
100
AcDbLine
 10
665.0000000000001
 20
592.5000000000001
 11
670.0000000000001
 21
592.5000000000001
  0
LINE
  5
209
100
AcDbEntity
  8
sections
  6
ByLayer
 62
  256
370
   -1
100
AcDbLine
 10
1900
 20
930
 11
1900
 21
900
  0
LINE
  5
20A
100
AcDbEntity
  8
sections
  6
ByLayer
 62
  256
370
   -1
100
AcDbLine
 10
1900
 20
900
 11
2259.095910207547
 21
899.9999999999999
  0
LINE
  5
20B
100
AcDbEntity
  8
sections
  6
ByLayer
 62
  256
370
   -1
100
AcDbLine
 10
2259.095910207547
 20
929.9999999999999
 11
1900
 21
930
  0
LINE
  5
20C
100
AcDbEntity
  8
sections
  6
ByLayer
 62
  256
370
   -1
100
AcDbLine
 10
2259.095910207547
 20
929.9999999999999
 11
2259.095910207547
 21
899.9999999999999
  0
MTEXT
  5
20D
100
AcDbEntity
  8
sections
  6
ByLayer
 62
  256
370
   -1
100
AcDbMText
 10
2310
 20
920.0000000000002
 30
0
 40
30
 41
36.66666666666667
 71
    6
 72
    1
  1
×2
  7
standard
210
0
220
0
230
1
 50
0
 73
    2
 44
1
  0
MTEXT
  5
20E
100
AcDbEntity
  8
sections
  6
ByLayer
 62
  256
370
   -1
100
AcDbMText
 10
1900
 20
940.0000000000002
 30
0
 40
30
 41
103.3333269732707
 71
    7
 72
    1
  1
PIEDS
  7
standard
210
0
220
0
230
1
 50
0
 73
    2
 44
1
  0
MTEXT
  5
20F
100
AcDbEntity
  8
sections
  6
ByLayer
 62
  256
370
   -1
100
AcDbMText
 10
1900
 20
760.0000000000002
 30
0
 40
30
 41
133.3333142531399
 71
    7
 72
    1
  1
ASSISE
  7
standard
210
0
220
0
230
1
 50
0
 73
    2
 44
1
  0
LWPOLYLINE
  5
210
100
AcDbEntity
  8
sections
  6
ByLayer
 62
  256
370
   -1
100
AcDbPolyline
 90
    4
 70
    1
 43
0
 10
1900
 20
720.0000000000002
 10
2270
 20
720.0000000000002
 10
2270
 20
750.0000000000002
 10
1900
 20
750.0000000000002
  0
DIMENSION
  5
211
100
AcDbEntity
  8
sections
  6
ByLayer
 62
  256
370
   -1
100
AcDbDimension
  2
*D1
 10
2259.095910207547
 20
880.0000000000002
 30
0
 11
2079.547955103773
 21
894.0625000000005
 31
0
 70
   33
 71
    5
 72
    0
  3
Standard
 53
0
210
0
220
0
230
1
100
AcDbAlignedDimension
 13
1900
 23
900.0000000000002
 33
0
 14
2259.095910207547
 24
899.9999999999999
 34
0
  0
DIMENSION
  5
212
100
AcDbEntity
  8
sections
  6
ByLayer
 62
  256
370
   -1
100
AcDbDimension
  2
*D2
 10
2270
 20
700.0000000000002
 30
0
 11
2085
 21
714.0625000000002
 31
0
 70
   33
 71
    5
 72
    0
  3
Standard
 53
0
210
0
220
0
230
1
100
AcDbAlignedDimension
 13
1900
 23
720.0000000000002
 33
0
 14
2270
 24
720.0000000000002
 34
0
  0
MTEXT
  5
213
100
AcDbEntity
  8
sections
  6
ByLayer
 62
  256
370
   -1
100
AcDbMText
 10
2320.904089792453
 20
740.0000000000005
 30
0
 40
30
 41
36.66666666666667
 71
    6
 72
    1
  1
×2
  7
standard
210
0
220
0
230
1
 50
0
 73
    2
 44
1
  0
LINE
  5
214
100
AcDbEntity
  8
sections
  6
ByLayer
 62
  256
370
   -1
100
AcDbLine
 10
1900.000034098193
 20
619.9998162977936
 11
2320.000034098171
 21
619.9999509577981
  0
LINE
  5
215
100
AcDbEntity
  8
sections
  6
ByLayer
 62
  256
370
   -1
100
AcDbLine
 10
2320.000016229698
 20
650.0001355113068
 11
1900
 21
650.0000000000002
  0
LINE
  5
216
100
AcDbEntity
  8
sections
  6
ByLayer
 62
  256
370
   -1
100
AcDbLine
 10
2320.000025910135
 20
649.999950957797
 11
2350.918086051591
 21
649.9999608707163
  0
LINE
  5
217
100
AcDbEntity
  8
sections
  6
ByLayer
 62
  256
370
   -1
100
AcDbLine
 10
2350.918086051591
 20
649.9999608707163
 11
2343.439691337052
 21
619.999958472999
  0
LINE
  5
218
100
AcDbEntity
  8
sections
  6
ByLayer
 62
  256
370
   -1
100
AcDbLine
 10
2343.439691337052
 20
619.999958472999
 11
2320.000034098171
 21
619.9999509577981
  0
DIMENSION
  5
219
100
AcDbEntity
  8
sections
  6
ByLayer
 62
  256
370
   -1
100
AcDbDimension
  2
*D3
 10
2343.439697749419
 20
600.0000011028328
 30
0
 11
2121.719864621285
 21
614.0624300152294
 31
0
 70
   33
 71
    5
 72
    0
  3
Standard
 53
0
210
0
220
0
230
1
100
AcDbAlignedDimension
 13
1900.000034098193
 23
619.9998162977936
 33
0
 14
2343.439691337052
 24
619.999958472999
 34
0
  0
DIMENSION
  5
21A
100
AcDbEntity
  8
sections
  6
ByLayer
 62
  256
370
   -1
100
AcDbDimension
  2
*D4
 10
2350.91807997721
 20
580.0000007881013
 30
0
 11
2125.459038171715
 21
594.0625203527431
 31
0
 70
   33
 71
    5
 72
    0
  3
Standard
 53
0
210
0
220
0
230
1
100
AcDbAlignedDimension
 13
1900
 23
650.0000000000002
 33
0
 14
2350.918086051591
 24
649.9999608707163
 34
0
  0
DIMENSION
  5
21B
100
AcDbEntity
  8
sections
  6
ByLayer
 62
  256
370
   -1
100
AcDbDimension
  2
*D5
 10
2320.000034098171
 20
619.9999509577981
 30
0
 11
-99.99999999999977
 21
930.0000000000002
 31
0
 70
   34
 71
    5
 72
    0
  3
Standard
 53
0
210
0
220
0
230
1
100
AcDb2LineAngularDimension
 13
2343.439691337052
 23
619.999958472999
 33
0
 14
2350.918086051591
 24
649.9999608707163
 34
0
 15
2343.439691337052
 25
619.999958472999
 35
0
 16
2340
 26
640.0000000000002
 36
0
  0
MTEXT
  5
21C
100
AcDbEntity
  8
sections
  6
ByLayer
 62
  256
370
   -1
100
AcDbMText
 10
1770
 20
620.0000000000002
 30
0
 40
30
 41
110.0000000000019
 71
    7
 72
    1
  1
40×30
  7
standard
210
0
220
0
230
1
 50
0
 73
    2
 44
1
  0
MTEXT
  5
21D
100
AcDbEntity
  8
sections
  6
ByLayer
 62
  256
370
   -1
100
AcDbMText
 10
1770
 20
720.0000000000002
 30
0
 40
30
 41
106.6666666666704
 71
    7
 72
    1
  1
30×30
  7
standard
210
0
220
0
230
1
 50
0
 73
    2
 44
1
  0
MTEXT
  5
21E
100
AcDbEntity
  8
sections
  6
ByLayer
 62
  256
370
   -1
100
AcDbMText
 10
1770
 20
880.0000000000002
 30
0
 40
30
 41
106.6666666666704
 71
    7
 72
    1
  1
30×30
  7
standard
210
0
220
0
230
1
 50
0
 73
    2
 44
1
  0
MTEXT
  5
21F
100
AcDbEntity
  8
sections
  6
ByLayer
 62
  256
370
   -1
100
AcDbMText
 10
2400.904089792453
 20
640.0000000000005
 30
0
 40
30
 41
36.66666666666667
 71
    6
 72
    1
  1
×2
  7
standard
210
0
220
0
230
1
 50
0
 73
    2
 44
1
  0
LINE
  5
220
100
AcDbEntity
  8
sections
  6
ByLayer
 62
  256
370
   -1
100
AcDbLine
 10
2576.56016568308
 20
399.9999473556553
 11
2605.669541534929
 21
407.2563452747809
  0
LINE
  5
221
100
AcDbEntity
  8
sections
  6
ByLayer
 62
  256
370
   -1
100
AcDbLine
 10
2605.669541534929
 20
407.2563452747809
 11
2600
 21
429.9999999999995
  0
LINE
  5
222
100
AcDbEntity
  8
sections
  6
ByLayer
 62
  256
370
   -1
100
AcDbLine
 10
2600
 20
429.9999999999995
 11
1900
 21
429.9999999999999
  0
LINE
  5
223
100
AcDbEntity
  8
sections
  6
ByLayer
 62
  256
370
   -1
100
AcDbLine
 10
1900
 20
429.9999999999999
 11
1900
 21
399.9999999999998
  0
DIMENSION
  5
224
100
AcDbEntity
  8
sections
  6
ByLayer
 62
  256
370
   -1
100
AcDbDimension
  2
*D6
 10
2600
 20
379.9999999999999
 30
0
 11
2250
 21
394.0625000000001
 31
0
 70
   33
 71
    5
 72
    0
  3
Standard
 53
0
210
0
220
0
230
1
100
AcDbAlignedDimension
 13
1900
 23
429.9999999999999
 33
0
 14
2600
 24
429.9999999999995
 34
0
  0
DIMENSION
  5
225
100
AcDbEntity
  8
sections
  6
ByLayer
 62
  256
370
   -1
100
AcDbDimension
  2
*D7
 10
2576.560161014378
 20
340.0000002676599
 30
0
 11
2238.280079267066
 21
354.0625265898321
 31
0
 70
   33
 71
    5
 72
    0
  3
Standard
 53
0
210
0
220
0
230
1
100
AcDbAlignedDimension
 13
1900
 23
399.9999999999998
 33
0
 14
2576.56016568308
 24
399.9999473556553
 34
0
  0
DIMENSION
  5
226
100
AcDbEntity
  8
sections
  6
ByLayer
 62
  256
370
   -1
100
AcDbDimension
  2
*D8
 10
1900
 20
359.9999999999999
 30
0
 11
2252.834770767465
 21
374.0624999999999
 31
0
 70
   33
 71
    5
 72
    0
  3
Standard
 53
0
210
0
220
0
230
1
100
AcDbAlignedDimension
 13
2605.669541534929
 23
407.2563452747809
 33
0
 14
1900
 24
407.2563452747809
 34
0
  0
DIMENSION
  5
227
100
AcDbEntity
  8
sections
  6
ByLayer
 62
  256
370
   -1
100
AcDbDimension
  2
*D9
 10
1900
 20
399.9999999999998
 30
0
 11
-100
 21
919.9999999999999
 31
0
 70
   34
 71
    5
 72
    0
  3
Standard
 53
0
210
0
220
0
230
1
100
AcDb2LineAngularDimension
 13
2576.56016568308
 23
399.9999473556553
 33
0
 14
2605.669541534929
 24
407.2563452747809
 34
0
 15
2576.56016568308
 25
399.9999473556553
 35
0
 16
2580
 26
409.9999999999999
 36
0
  0
DIMENSION
  5
228
100
AcDbEntity
  8
sections
  6
ByLayer
 62
  256
370
   -1
100
AcDbDimension
  2
*D10
 10
1900
 20
429.9999999999999
 30
0
 11
-100
 21
919.9999999999999
 31
0
 70
   34
 71
    5
 72
    0
  3
Standard
 53
0
210
0
220
0
230
1
100
AcDb2LineAngularDimension
 13
2600
 23
429.9999999999995
 33
0
 14
2605.669541534929
 24
407.2563452747809
 34
0
 15
2600
 25
429.9999999999995
 35
0
 16
2610
 26
429.9999999999999
 36
0
  0
LWPOLYLINE
  5
229
100
AcDbEntity
  8
sections
  6
ByLayer
 62
  256
370
   -1
100
AcDbPolyline
 90
    4
 70
    1
 43
0
 10
1900
 20
259.9999999999999
 10
2210
 20
259.9999999999999
 10
2210
 20
289.9999999999999
 10
1900
 20
289.9999999999999
  0
DIMENSION
  5
22A
100
AcDbEntity
  8
sections
  6
ByLayer
 62
  256
370
   -1
100
AcDbDimension
  2
*D11
 10
2210
 20
239.9999999999999
 30
0
 11
2055
 21
254.0624999999999
 31
0
 70
   33
 71
    5
 72
    0
  3
Standard
 53
0
210
0
220
0
230
1
100
AcDbAlignedDimension
 13
1900
 23
259.9999999999999
 33
0
 14
2210
 24
259.9999999999999
 34
0
  0
MTEXT
  5
22B
100
AcDbEntity
  8
sections
  6
ByLayer
 62
  256
370
   -1
100
AcDbMText
 10
1770
 20
399.9999999999999
 30
0
 40
30
 41
106.6666666666704
 71
    7
 72
    1
  1
30×30
  7
standard
210
0
220
0
230
1
 50
0
 73
    2
 44
1
  0
MTEXT
  5
22C
100
AcDbEntity
  8
sections
  6
ByLayer
 62
  256
370
   -1
100
AcDbMText
 10
1770
 20
259.9999999999999
 30
0
 40
30
 41
106.6666666666704
 71
    7
 72
    1
  1
30×30
  7
standard
210
0
220
0
230
1
 50
0
 73
    2
 44
1
  0
MTEXT
  5
22D
100
AcDbEntity
  8
sections
  6
ByLayer
 62
  256
370
   -1
100
AcDbMText
 10
2680.904089792453
 20
420.0000000000002
 30
0
 40
30
 41
36.66666666666667
 71
    6
 72
    1
  1
×2
  7
standard
210
0
220
0
230
1
 50
0
 73
    2
 44
1
  0
MTEXT
  5
22E
100
AcDbEntity
  8
sections
  6
ByLayer
 62
  256
370
   -1
100
AcDbMText
 10
2260.904089792453
 20
280.0000000000001
 30
0
 40
30
 41
36.66666666666667
 71
    6
 72
    1
  1
×2
  7
standard
210
0
220
0
230
1
 50
0
 73
    2
 44
1
  0
LINE
  5
22F
100
AcDbEntity
  8
sections
  6
ByLayer
 62
  256
370
   -1
100
AcDbLine
 10
1900
 20
399.9999999999999
 11
2576.56016568308
 21
399.9999473556554
  0
CIRCLE
  5
230
100
AcDbEntity
  8
sections
  6
ByLayer
 62
  256
370
   -1
100
AcDbCircle
 10
2315.736835664841
 20
414.9999999999998
 40
5
  0
CIRCLE
  5
231
100
AcDbEntity
  8
sections
  6
ByLayer
 62
  256
370
   -1
100
AcDbCircle
 10
2325.874833663017
 20
407.492379850229
 40
5
  0
DIMENSION
  5
232
100
AcDbEntity
  8
sections
  6
ByLayer
 62
  256
370
   -1
100
AcDbDimension
  2
*D12
 10
2305.590312201964
 20
450
 30
0
 11
2102.795156100982
 21
464.0625000000001
 31
0
 70
   33
 71
    5
 72
    0
  3
Standard
 53
0
210
0
220
0
230
1
100
AcDbAlignedDimension
 13
1900
 23
429.9999999999999
 33
0
 14
2305.590312201964
 24
429.9999999999998
 34
0
  0
CIRCLE
  5
233
100
AcDbEntity
  8
sections
  6
ByLayer
 62
  256
370
   -1
100
AcDbCircle
 10
2305.590312201964
 20
422.5355056125591
 40
5
  0
DIMENSION
  5
234
100
AcDbEntity
  8
sections
  6
ByLayer
 62
  256
370
   -1
100
AcDbDimension
  2
*D13
 10
2302.408202971978
 20
418.6787996543034
 30
0
 11
2294.743326694369
 21
431.4851878218917
 31
0
 70
   35
 71
    5
 72
    0
  3
Standard
 53
0
210
0
220
0
230
1
100
AcDbDiametricDimension
 15
2308.772421431948
 25
426.3922115708148
 35
0
 40
0
  0
DIMENSION
  5
235
100
AcDbEntity
  8
sections
  6
ByLayer
 62
  256
370
   -1
100
AcDbDimension
  2
*D14
 10
2350
 20
422.5355056125591
 30
0
 11
2335.9375
 21
426.2677528062794
 31
0
 70
   33
 71
    5
 72
    0
  3
Standard
 53
0
210
0
220
0
230
1
100
AcDbAlignedDimension
 13
2315.590312201964
 23
429.9999999999998
 33
0
 14
2315.590312201964
 24
422.5355056125591
 34
0
  0
DIMENSION
  5
236
100
AcDbEntity
  8
sections
  6
ByLayer
 62
  256
370
   -1
100
AcDbDimension
  2
*D15
 10
2370
 20
414.9999999999998
 30
0
 11
2355.9375
 21
422.4999999999998
 31
0
 70
   33
 71
    5
 72
    0
  3
Standard
 53
0
210
0
220
0
230
1
100
AcDbAlignedDimension
 13
2325.736835664841
 23
429.9999999999998
 33
0
 14
2325.736835664841
 24
414.9999999999998
 34
0
  0
DIMENSION
  5
237
100
AcDbEntity
  8
sections
  6
ByLayer
 62
  256
370
   -1
100
AcDbDimension
  2
*D16
 10
2390
 20
407.492379850229
 30
0
 11
2375.9375
 21
418.7461899251144
 31
0
 70
   33
 71
    5
 72
    0
  3
Standard
 53
0
210
0
220
0
230
1
100
AcDbAlignedDimension
 13
2335.874833663017
 23
429.9999999999998
 33
0
 14
2335.874833663017
 24
407.492379850229
 34
0
  0
DIMENSION
  5
238
100
AcDbEntity
  8
sections
  6
ByLayer
 62
  256
370
   -1
100
AcDbDimension
  2
*D17
 10
2315.736835664841
 20
470
 30
0
 11
2310.663573933402
 21
484.0625
 31
0
 70
   33
 71
    5
 72
    0
  3
Standard
 53
0
210
0
220
0
230
1
100
AcDbAlignedDimension
 13
2305.590312201964
 23
432.5355056125591
 33
0
 14
2315.736835664841
 24
432.5355056125591
 34
0
  0
DIMENSION
  5
239
100
AcDbEntity
  8
sections
  6
ByLayer
 62
  256
370
   -1
100
AcDbDimension
  2
*D18
 10
2325.874833663017
 20
490
 30
0
 11
2320.805834663929
 21
504.0625
 31
0
 70
   33
 71
    5
 72
    0
  3
Standard
 53
0
210
0
220
0
230
1
100
AcDbAlignedDimension
 13
2315.736835664841
 23
417.492379850229
 33
0
 14
2325.874833663017
 24
417.492379850229
 34
0
  0
LINE
  5
23A
100
AcDbEntity
  8
sections
  6
ByLayer
 62
  256
370
   -1
100
AcDbLine
 10
1915
 20
200.0000000221489
 11
1900
 21
200.0000000221489
  0
LINE
  5
23B
100
AcDbEntity
  8
sections
  6
ByLayer
 62
  256
370
   -1
100
AcDbLine
 10
1900
 20
200.0000000221489
 11
1900
 21
190
  0
LINE
  5
23C
100
AcDbEntity
  8
sections
  6
ByLayer
 62
  256
370
   -1
100
AcDbLine
 10
1900
 20
190
 11
1915
 21
190
  0
LINE
  5
23D
100
AcDbEntity
  8
sections
  6
ByLayer
 62
  256
370
   -1
100
AcDbLine
 10
1915
 20
190.0000000221489
 11
1920
 21
190.0000000221489
  0
LINE
  5
23E
100
AcDbEntity
  8
sections
  6
ByLayer
 62
  256
370
   -1
100
AcDbLine
 10
1920
 20
190.0000000221489
 11
1920
 21
200.0000000221489
  0
DIMENSION
  5
23F
100
AcDbEntity
  8
sections
  6
ByLayer
 62
  256
370
   -1
100
AcDbDimension
  2
*D19
 10
1920
 20
160
 30
0
 11
1910
 21
174.0625
 31
0
 70
   33
 71
    5
 72
    0
  3
Standard
 53
0
210
0
220
0
230
1
100
AcDbAlignedDimension
 13
1900
 23
190
 33
0
 14
1920
 24
190
 34
0
  0
MTEXT
  5
240
100
AcDbEntity
  8
sections
  6
ByLayer
 62
  256
370
   -1
100
AcDbMText
 10
1820
 20
180
 30
0
 40
30
 41
60.00000000000001
 71
    7
 72
    1
  1
ø10
  7
standard
210
0
220
0
230
1
 50
0
 73
    2
 44
1
  0
MTEXT
  5
241
100
AcDbEntity
  8
sections
  6
ByLayer
 62
  256
370
   -1
100
AcDbMText
 10
1940
 20
180
 30
0
 40
30
 41
40
 71
    7
 72
    1
  1
×4
  7
standard
210
0
220
0
230
1
 50
0
 73
    2
 44
1
  0
MTEXT
  5
242
100
AcDbEntity
  8
sections
  6
ByLayer
 62
  256
370
   -1
100
AcDbMText
 10
1900
 20
480
 30
0
 40
30
 41
156.6666539465396
 71
    7
 72
    1
  1
DOSSIER
  7
standard
210
0
220
0
230
1
 50
0
 73
    2
 44
1
  0
CIRCLE
  5
243
100
AcDbEntity
  8
sections
  6
ByLayer
 62
  256
370
   -1
100
AcDbCircle
 10
2259.601983312376
 20
45
 40
5
  0
LINE
  5
244
100
AcDbEntity
  8
sections
  6
ByLayer
 62
  256
370
   -1
100
AcDbLine
 10
2248.502534262763
 20
59.99999999999955
 11
1900
 21
60
  0
LINE
  5
245
100
AcDbEntity
  8
sections
  6
ByLayer
 62
  256
370
   -1
100
AcDbLine
 10
1900
 20
60
 11
1900
 21
30
  0
LINE
  5
246
100
AcDbEntity
  8
sections
  6
ByLayer
 62
  256
370
   -1
100
AcDbLine
 10
1900
 20
30
 11
2239.330646743188
 21
29.99999999999977
  0
LINE
  5
247
100
AcDbEntity
  8
sections
  6
ByLayer
 62
  256
370
   -1
100
AcDbLine
 10
2259.601989362748
 20
29.99999999999977
 11
2239.330646743188
 21
29.99999999999977
  0
LINE
  5
248
100
AcDbEntity
  8
sections
  6
CONTINUOUS
 62
  256
370
   -1
100
AcDbLine
 10
2248.502534262763
 20
60
 11
2259.601975446976
 21
60
  0
ARC
  5
249
100
AcDbEntity
  8
sections
  6
CONTINUOUS
 62
  256
370
   -1
100
AcDbCircle
 10
2259.616563115043
 20
45.00000001107446
 40
15.00000708759618
100
AcDbArc
 50
269.9443453024536
 51
90.05574172853585
  0
DIMENSION
  5
24A
100
AcDbEntity
  8
sections
  6
ByLayer
 62
  256
370
   -1
100
AcDbDimension
  2
*D20
 10
2255.573865696084
 20
42.03786082884039
 30
0
 11
2251.27096689349
 21
56.32908079582132
 31
0
 70
   35
 71
    5
 72
    0
  3
Standard
 53
0
210
0
220
0
230
1
100
AcDbDiametricDimension
 15
2263.630100928668
 25
47.96213917115961
 35
0
 40
0
  0
DIMENSION
  5
24B
100
AcDbEntity
  8
sections
  6
ByLayer
 62
  256
370
   -1
100
AcDbDimension
  2
*D21
 10
2259.616562721485
 20
9.999993317063854
 30
0
 11
2079.808281440683
 21
24.06249685531099
 31
0
 70
   33
 71
    5
 72
    0
  3
Standard
 53
0
210
0
220
0
230
1
100
AcDbAlignedDimension
 13
1900
 23
30
 33
0
 14
2259.616563115043
 24
29.99999292350572
 34
0
  0
DIMENSION
  5
24C
100
AcDbEntity
  8
sections
  6
ByLayer
 62
  256
370
   -1
100
AcDbDimension
  2
*D22
 10
2274.616570202594
 20
-10
 30
0
 11
2087.308285101297
 21
4.0625
 31
0
 70
   33
 71
    5
 72
    0
  3
Standard
 53
0
210
0
220
0
230
1
100
AcDbAlignedDimension
 13
1900
 23
45
 33
0
 14
2274.616570202594
 24
45
 34
0
  0
CIRCLE
  5
24D
100
AcDbEntity
  8
sections
  6
ByLayer
 62
  256
370
   -1
100
AcDbCircle
 10
1972.5
 20
-55
 40
2.5
  0
LWPOLYLINE
  5
24E
100
AcDbEntity
  8
sections
  6
ByLayer
 62
  256
370
   -1
100
AcDbPolyline
 90
    4
 70
    1
 43
0
 10
1900
 20
-50
 10
1980
 20
-50
 10
1980
 20
-60
 10
1900
 20
-60
  0
DIMENSION
  5
24F
100
AcDbEntity
  8
sections
  6
ByLayer
 62
  256
370
   -1
100
AcDbDimension
  2
*D23
 10
1980
 20
-80
 30
0
 11
1940
 21
-65.9375
 31
0
 70
   33
 71
    5
 72
    0
  3
Standard
 53
0
210
0
220
0
230
1
100
AcDbAlignedDimension
 13
1900
 23
-60
 33
0
 14
1980
 24
-60
 34
0
  0
DIMENSION
  5
250
100
AcDbEntity
  8
sections
  6
ByLayer
 62
  256
370
   -1
100
AcDbDimension
  2
*D24
 10
1900
 20
-40
 30
0
 11
1936.25
 21
-25.93749999999989
 31
0
 70
   33
 71
    5
 72
    0
  3
Standard
 53
0
210
0
220
0
230
1
100
AcDbAlignedDimension
 13
1972.5
 23
-54.99999999999977
 33
0
 14
1900
 24
-55
 34
0
  0
DIMENSION
  5
251
100
AcDbEntity
  8
sections
  6
ByLayer
 62
  256
370
   -1
100
AcDbDimension
  2
*D25
 10
1970.096190130898
 20
-55.68680281974343
 30
0
 11
1968.636734138943
 21
-41.47856948630096
 31
0
 70
   35
 71
    5
 72
    0
  3
Standard
 53
0
210
0
220
0
230
1
100
AcDbDiametricDimension
 15
1974.903809869102
 25
-54.31319718025657
 35
0
 40
0
  0
MTEXT
  5
252
100
AcDbEntity
  8
sections
  6
ByLayer
 62
  256
370
   -1
100
AcDbMText
 10
1770
 20
30
 30
0
 40
30
 41
106.6666666666704
 71
    7
 72
    1
  1
30×30
  7
standard
210
0
220
0
230
1
 50
0
 73
    2
 44
1
  0
MTEXT
  5
253
100
AcDbEntity
  8
sections
  6
ByLayer
 62
  256
370
   -1
100
AcDbMText
 10
1820
 20
-70
 30
0
 40
30
 41
60.00000000000001
 71
    7
 72
    1
  1
ø10
  7
standard
210
0
220
0
230
1
 50
0
 73
    2
 44
1
  0
MTEXT
  5
254
100
AcDbEntity
  8
sections
  6
ByLayer
 62
  256
370
   -1
100
AcDbMText
 10
2340.904089792453
 20
50.00000000000023
 30
0
 40
30
 41
36.66666666666667
 71
    6
 72
    1
  1
×2
  7
standard
210
0
220
0
230
1
 50
0
 73
    2
 44
1
  0
MTEXT
  5
255
100
AcDbEntity
  8
sections
  6
ByLayer
 62
  256
370
   -1
100
AcDbMText
 10
2040.904089792453
 20
-49.99999999999977
 30
0
 40
30
 41
36.66666666666667
 71
    6
 72
    1
  1
×2
  7
standard
210
0
220
0
230
1
 50
0
 73
    2
 44
1
  0
LINE
  5
256
100
AcDbEntity
  8
sections
  6
ByLayer
 62
  256
370
   -1
100
AcDbLine
 10
1925
 20
-120
 11
1925
 21
-125
  0
LINE
  5
257
100
AcDbEntity
  8
sections
  6
ByLayer
 62
  256
370
   -1
100
AcDbLine
 10
1925
 20
-125
 11
1900
 21
-125
  0
LINE
  5
258
100
AcDbEntity
  8
sections
  6
ByLayer
 62
  256
370
   -1
100
AcDbLine
 10
1900
 20
-125
 11
1900
 21
-120
  0
LINE
  5
259
100
AcDbEntity
  8
sections
  6
ByLayer
 62
  256
370
   -1
100
AcDbLine
 10
1900
 20
-120
 11
1925
 21
-120
  0
MTEXT
  5
25A
100
AcDbEntity
  8
sections
  6
ByLayer
 62
  256
370
   -1
100
AcDbMText
 10
1980.904089792453
 20
-119.9999999999998
 30
0
 40
30
 41
36.66666666666667
 71
    6
 72
    1
  1
×2
  7
standard
210
0
220
0
230
1
 50
0
 73
    2
 44
1
  0
DIMENSION
  5
25B
100
AcDbEntity
  8
sections
  6
ByLayer
 62
  256
370
   -1
100
AcDbDimension
  2
*D26
 10
1925
 20
-150
 30
0
 11
1912.5
 21
-135.9375
 31
0
 70
   33
 71
    5
 72
    0
  3
Standard
 53
0
210
0
220
0
230
1
100
AcDbAlignedDimension
 13
1900
 23
-125
 33
0
 14
1925
 24
-125
 34
0
  0
MTEXT
  5
25C
100
AcDbEntity
  8
sections
  6
ByLayer
 62
  256
370
   -1
100
AcDbMText
 10
1900
 20
80
 30
0
 40
30
 41
213.3333269732707
 71
    7
 72
    1
  1
ACOUDOIRS
  7
standard
210
0
220
0
230
1
 50
0
 73
    2
 44
1
  0
MTEXT
  5
25D
100
AcDbEntity
  8
pied
  6
ByLayer
 62
  256
370
   -1
100
AcDbMText
 10
-390
 20
-990
 30
0
 40
30
 41
601.6666539465377
 71
    7
 72
    1
  1
FAUTEUILS CAMERA OBSCURA\PSTRUCTURE ALU
  7
standard
210
0
220
0
230
1
 50
0
 73
    2
 44
1
  0
LWPOLYLINE
  5
25E
100
AcDbEntity
  8
pied
  6
ByLayer
 62
  256
370
   -1
100
AcDbPolyline
 90
    4
 70
    1
 43
0
 10
-400
 20
-900
 10
220
 20
-900
 10
220
 20
-1000
 10
-400
 20
-1000
  0
DIMENSION
  5
25F
100
AcDbEntity
  8
pied
  6
ByLayer
 62
  256
370
   -1
100
AcDbDimension
  2
*D27
 10
226.4962420111871
 20
0
 30
0
 11
73.74812100559356
 21
14.0625
 31
0
 70
   32
 71
    5
  3
Standard
 53
0
210
0
220
0
230
1
100
AcDbAlignedDimension
 13
-79
 23
-1.387778780781446e-16
 33
0
 14
226.4962420111871
 24
998.1855376044692
 34
0
100
AcDbRotatedDimension
  0
MTEXT
  5
260
100
AcDbEntity
  8
sections
  6
ByLayer
 62
  256
370
   -1
100
AcDbMText
 10
1700
 20
880
 30
0
 40
60
 41
140
 71
    6
 72
    1
  1
1001
  7
standard
210
0
220
0
230
1
 50
0
 73
    2
 44
1
  0
MTEXT
  5
261
100
AcDbEntity
  8
sections
  6
ByLayer
 62
  256
370
   -1
100
AcDbMText
 10
1700
 20
730
 30
0
 40
60
 41
153.3333333333333
 71
    6
 72
    1
  1
1002
  7
standard
210
0
220
0
230
1
 50
0
 73
    2
 44
1
  0
MTEXT
  5
262
100
AcDbEntity
  8
sections
  6
ByLayer
 62
  256
370
   -1
100
AcDbMText
 10
1700
 20
620.0000000000002
 30
0
 40
60
 41
126.6666666666667
 71
    6
 72
    1
  1
1101
  7
standard
210
0
220
0
230
1
 50
0
 73
    2
 44
1
  0
MTEXT
  5
263
100
AcDbEntity
  8
sections
  6
ByLayer
 62
  256
370
   -1
100
AcDbMText
 10
1700
 20
420
 30
0
 40
60
 41
153.3333333333371
 71
    6
 72
    1
  1
1003
  7
standard
210
0
220
0
230
1
 50
0
 73
    2
 44
1
  0
MTEXT
  5
264
100
AcDbEntity
  8
sections
  6
ByLayer
 62
  256
370
   -1
100
AcDbMText
 10
1700
 20
270
 30
0
 40
60
 41
160
 71
    6
 72
    1
  1
1004
  7
standard
210
0
220
0
230
1
 50
0
 73
    2
 44
1
  0
MTEXT
  5
265
100
AcDbEntity
  8
sections
  6
ByLayer
 62
  256
370
   -1
100
AcDbMText
 10
1700
 20
180
 30
0
 40
60
 41
126.6666666666667
 71
    6
 72
    1
  1
1101
  7
standard
210
0
220
0
230
1
 50
0
 73
    2
 44
1
  0
MTEXT
  5
266
100
AcDbEntity
  8
sections
  6
ByLayer
 62
  256
370
   -1
100
AcDbMText
 10
1700
 20
30
 30
0
 40
60
 41
153.3333333333371
 71
    6
 72
    1
  1
1005
  7
standard
210
0
220
0
230
1
 50
0
 73
    2
 44
1
  0
MTEXT
  5
267
100
AcDbEntity
  8
sections
  6
ByLayer
 62
  256
370
   -1
100
AcDbMText
 10
1700
 20
-70
 30
0
 40
60
 41
140
 71
    6
 72
    1
  1
1102
  7
standard
210
0
220
0
230
1
 50
0
 73
    2
 44
1
  0
MTEXT
  5
268
100
AcDbEntity
  8
sections
  6
ByLayer
 62
  256
370
   -1
100
AcDbMText
 10
1700
 20
-130
 30
0
 40
60
 41
140.0000000000037
 71
    6
 72
    1
  1
1301
  7
standard
210
0
220
0
230
1
 50
0
 73
    2
 44
1
  0
MTEXT
  5
269
100
AcDbEntity
  8
sections
  6
ByLayer
 62
  256
370
   -1
100
AcDbMText
 10
1830
 20
-130
 30
0
 40
30
 41
43.3333333333352
 71
    7
 72
    1
  1
M5
  7
standard
210
0
220
0
230
1
 50
0
 73
    2
 44
1
  0
LWPOLYLINE
  5
26A
100
AcDbEntity
  8
0
  6
ByLayer
 62
  256
370
   -1
100
AcDbPolyline
 90
    5
 70
    0
 43
0
 10
1900
 20
-120
 10
1925
 20
-120
 10
1925
 20
-125
 10
1900
 20
-125
 10
1900
 20
-120
  0
ENDSEC
  0
SECTION
  2
OBJECTS
  0
DICTIONARY
  5
C
330
0
100
AcDbDictionary
281
    1
  3
ACAD_GROUP
350
D
  0
DICTIONARY
  5
D
330
C
100
AcDbDictionary
281
    1
  0
PLOTSETTINGS
  5
26B
100
AcDbPlotSettings
  6
1x1
 40
0
 41
0
 42
0
 43
0
  0
ENDSEC
  0
EOF
