999
dxfrw 0.6.3
  0
SECTION
  2
HEADER
  9
$ACADVER
  1
AC1021
  9
$DWGCODEPAGE
  3
ANSI_1252
  9
$INSBASE
 10
0
 20
0
 30
0
  9
$EXTMIN
 10
0
 20
0
 30
0
  9
$EXTMAX
 10
14300
 20
3000
 30
0
  9
$LIMMIN
 10
0
 20
0
  9
$LIMMAX
 10
420
 20
297
  9
$ORTHOMODE
 70
    0
  9
$REGENMODE
 70
    1
  9
$FILLMODE
 70
    1
  9
$QTEXTMODE
 70
    0
  9
$MIRRTEXT
 70
    0
  9
$LTSCALE
 40
1
  9
$ATTMODE
 70
    0
  9
$TEXTSIZE
 40
2.5
  9
$TRACEWID
 40
15.68
  9
$TEXTSTYLE
  7
STANDARD
  9
$CLAYER
  8
_LEGENDE
  9
$CELTYPE
  6
BYLAYER
  9
$CECOLOR
 62
  256
  9
$CELTSCALE
 40
1
  9
$DISPSILH
 70
    0
  9
$DIMSCALE
 40
2.5
  9
$DIMASZ
 40
10
  9
$DIMEXO
 40
0.625
  9
$DIMDLI
 40
3.75
  9
$DIMRND
 40
0
  9
$DIMDLE
 40
0
  9
$DIMEXE
 40
1.25
  9
$DIMTP
 40
0
  9
$DIMTM
 40
0
  9
$DIMTXT
 40
40
  9
$DIMCEN
 40
2.5
  9
$DIMTSZ
 40
0
  9
$DIMTOL
 70
    0
  9
$DIMLIM
 70
    0
  9
$DIMTIH
 70
    0
  9
$DIMTOH
 70
    0
  9
$DIMSE1
 70
    0
  9
$DIMSE2
 70
    0
  9
$DIMTAD
 70
    1
  9
$DIMZIN
 70
    8
  9
$DIMBLK
  1

  9
$DIMASO
 70
    1
  9
$DIMSHO
 70
    1
  9
$DIMPOST
  1

  9
$DIMAPOST
  1

  9
$DIMALT
 70
    0
  9
$DIMALTD
 70
    3
  9
$DIMALTF
 40
0.03937
  9
$DIMLFAC
 40
1
  9
$DIMTOFL
 70
    1
  9
$DIMTVP
 40
0
  9
$DIMTIX
 70
    0
  9
$DIMSOXD
 70
    0
  9
$DIMSAH
 70
    0
  9
$DIMBLK1
  1

  9
$DIMBLK2
  1

  9
$DIMSTYLE
  2
STANDARD
  9
$DIMCLRD
 70
    0
  9
$DIMCLRE
 70
    0
  9
$DIMCLRT
 70
    0
  9
$DIMTFAC
 40
1
  9
$DIMGAP
 40
1
  9
$DIMJUST
 70
    0
  9
$DIMSD1
 70
    0
  9
$DIMSD2
 70
    0
  9
$DIMTOLJ
 70
    0
  9
$DIMTZIN
 70
    8
  9
$DIMALTZ
 70
    0
  9
$DIMALTTZ
 70
    0
  9
$DIMUPT
 70
    0
  9
$DIMDEC
 70
    0
  9
$DIMTDEC
 70
    2
  9
$DIMALTU
 70
    2
  9
$DIMALTTD
 70
    3
  9
$DIMTXSTY
  7
standard
  9
$DIMAUNIT
 70
    0
  9
$DIMADEC
 70
    0
  9
$DIMALTRND
 40
0
  9
$DIMAZIN
 70
    0
  9
$DIMDSEP
 70
   44
  9
$DIMATFIT
 70
    3
  9
$DIMFRAC
 70
    0
  9
$DIMLDRBLK
  1
STANDARD
  9
$DIMLUNIT
 70
    2
  9
$DIMLWD
 70
   -2
  9
$DIMLWE
 70
   -2
  9
$DIMTMOVE
 70
    0
  9
$DIMFXL
 40
1
  9
$DIMFXLON
 70
    0
  9
$DIMJOGANG
 40
0.7854
  9
$DIMTFILL
 70
    0
  9
$DIMTFILLCLR
 70
    0
  9
$DIMARCSYM
 70
    0
  9
$DIMLTYPE
  6

  9
$DIMLTEX1
  6

  9
$DIMLTEX2
  6

  9
$LUNITS
 70
    2
  9
$LUPREC
 70
    4
  9
$SKETCHINC
 40
1
  9
$FILLETRAD
 40
0
  9
$AUNITS
 70
    0
  9
$AUPREC
 70
    2
  9
$MENU
  1
.
  9
$ELEVATION
 40
0
  9
$PELEVATION
 40
0
  9
$THICKNESS
 40
0
  9
$LIMCHECK
 70
    0
  9
$CHAMFERA
 40
0
  9
$CHAMFERB
 40
0
  9
$CHAMFERC
 40
0
  9
$CHAMFERD
 40
0
  9
$SKPOLY
 70
    0
  9
$USRTIMER
 70
    1
  9
$ANGBASE
 50
0
  9
$ANGDIR
 70
    0
  9
$PDMODE
 70
   34
  9
$PDSIZE
 40
0
  9
$PLINEWID
 40
0
  9
$SPLFRAME
 70
    0
  9
$SPLINETYPE
 70
    2
  9
$SPLINESEGS
 70
    8
  9
$HANDSEED
  5
20000
  9
$SURFTAB1
 70
    6
  9
$SURFTAB2
 70
    6
  9
$SURFTYPE
 70
    6
  9
$SURFU
 70
    6
  9
$SURFV
 70
    6
  9
$UCSBASE
  2

  9
$UCSNAME
  2

  9
$UCSORG
 10
0
 20
0
 30
0
  9
$UCSXDIR
 10
1
 20
0
 30
0
  9
$UCSYDIR
 10
0
 20
1
 30
0
  9
$UCSORTHOREF
  2

  9
$UCSORTHOVIEW
 70
    0
  9
$UCSORGTOP
 10
0
 20
0
 30
0
  9
$UCSORGBOTTOM
 10
0
 20
0
 30
0
  9
$UCSORGLEFT
 10
0
 20
0
 30
0
  9
$UCSORGRIGHT
 10
0
 20
0
 30
0
  9
$UCSORGFRONT
 10
0
 20
0
 30
0
  9
$UCSORGBACK
 10
0
 20
0
 30
0
  9
$PUCSBASE
  2

  9
$PUCSNAME
  2

  9
$PUCSORG
 10
0
 20
0
 30
0
  9
$PUCSXDIR
 10
1
 20
0
 30
0
  9
$PUCSYDIR
 10
0
 20
1
 30
0
  9
$PUCSORTHOREF
  2

  9
$PUCSORTHOVIEW
 70
    0
  9
$PUCSORGTOP
 10
0
 20
0
 30
0
  9
$PUCSORGBOTTOM
 10
0
 20
0
 30
0
  9
$PUCSORGLEFT
 10
0
 20
0
 30
0
  9
$PUCSORGRIGHT
 10
0
 20
0
 30
0
  9
$PUCSORGFRONT
 10
0
 20
0
 30
0
  9
$PUCSORGBACK
 10
0
 20
0
 30
0
  9
$USERI1
 70
    0
  9
$USERI2
 70
    0
  9
$USERI3
 70
    0
  9
$USERI4
 70
    0
  9
$USERI5
 70
    0
  9
$USERR1
 40
0
  9
$USERR2
 40
0
  9
$USERR3
 40
0
  9
$USERR4
 40
0
  9
$USERR5
 40
0
  9
$WORLDVIEW
 70
    1
  9
$SHADEDGE
 70
    3
  9
$SHADEDIF
 70
   70
  9
$TILEMODE
 70
    1
  9
$MAXACTVP
 70
   64
  9
$PINSBASE
 10
0
 20
0
 30
0
  9
$PLIMCHECK
 70
    0
  9
$PEXTMIN
 10
0
 20
0
 30
0
  9
$PEXTMAX
 10
0
 20
0
 30
0
  9
$GRIDMODE
 70
    1
  9
$SNAPSTYLE
 70
    0
  9
$GRIDUNIT
 10
0
 20
0
  9
$PLIMMIN
 10
0
 20
0
  9
$PLIMMAX
 10
841
 20
594
  9
$UNITMODE
 70
    0
  9
$VISRETAIN
 70
    1
  9
$PLINEGEN
 70
    0
  9
$PSLTSCALE
 70
    1
  9
$TREEDEPTH
 70
 3020
  9
$CMLSTYLE
  2
Standard
  9
$CMLJUST
 70
    0
  9
$CMLSCALE
 40
20
  9
$PROXYGRAPHICS
 70
    1
  9
$MEASUREMENT
 70
    1
  9
$CELWEIGHT
370
   -1
  9
$ENDCAPS
280
    0
  9
$JOINSTYLE
280
    0
  9
$LWDISPLAY
290
    0
  9
$INSUNITS
 70
    4
  9
$HYPERLINKBASE
  1

  9
$STYLESHEET
  1

  9
$XEDIT
290
    1
  9
$CEPSNTYPE
380
    0
  9
$PSTYLEMODE
290
    1
  9
$EXTNAMES
290
    1
  9
$PSVPSCALE
 40
1
  9
$OLESTARTUP
290
    0
  9
$SORTENTS
280
  127
  9
$INDEXCTL
280
    0
  9
$HIDETEXT
280
    1
  9
$XCLIPFRAME
290
    0
  9
$HALOGAP
280
    0
  9
$OBSCOLOR
 70
  257
  9
$OBSLTYPE
280
    0
  9
$INTERSECTIONDISPLAY
280
    0
  9
$INTERSECTIONCOLOR
 70
  257
  9
$DIMASSOC
280
    1
  9
$PROJECTNAME
  1

  9
$CAMERADISPLAY
290
    0
  9
$LENSLENGTH
 40
50
  9
$CAMERAHEIGHT
 40
0
  9
$STEPSPERSEC
 40
2
  9
$STEPSIZE
 40
50
  9
$3DDWFPREC
 40
2
  9
$PSOLWIDTH
 40
5
  9
$PSOLHEIGHT
 40
80
  9
$LOFTANG1
 40
1.570796326794897
  9
$LOFTANG2
 40
1.570796326794897
  9
$LOFTMAG1
 40
0
  9
$LOFTMAG2
 40
0
  9
$LOFTPARAM
 70
    7
  9
$LOFTNORMALS
280
    1
  9
$LATITUDE
 40
1
  9
$LONGITUDE
 40
1
  9
$NORTHDIRECTION
 40
0
  9
$TIMEZONE
 70
-8000
  9
$LIGHTGLYPHDISPLAY
280
    1
  9
$TILEMODELIGHTSYNCH
280
    1
  9
$SOLIDHIST
280
    1
  9
$SHOWHIST
280
    1
  9
$DWFFRAME
280
    2
  9
$DGNFRAME
280
    0
  9
$REALWORLDSCALE
290
    1
  9
$INTERFERECOLOR
 62
    1
  9
$CSHADOW
280
    0
  9
$SHADOWPLANELOCATION
 40
0
  0
ENDSEC
  0
SECTION
  2
CLASSES
  0
ENDSEC
  0
SECTION
  2
TABLES
  0
TABLE
  2
VPORT
  5
8
330
0
100
AcDbSymbolTable
 70
    1
  0
VPORT
  5
31
330
2
100
AcDbSymbolTableRecord
100
AcDbViewportTableRecord
  2
*ACTIVE
 70
    0
 10
0
 20
0
 11
1
 21
1
 12
17529.55834385311
 22
7531.356090162903
 13
0
 23
0
 14
10
 24
10
 15
10
 25
10
 16
0
 26
0
 36
1
 17
0
 27
0
 37
0
 40
28742.4954507954
 41
1.879063719115735
 42
50
 43
0
 44
0
 50
0
 51
0
 71
    0
 72
  100
 73
    1
 74
    3
 75
    0
 76
    1
 77
    0
 78
    0
281
    0
 65
    1
110
0
120
0
130
0
111
1
121
0
131
0
112
0
122
1
132
0
 79
    0
146
0
348
10020
 60
    7
 61
    5
292
1
282
    1
141
0
142
0
 63
  250
421
3358443
  0
ENDTAB
  0
TABLE
  2
LTYPE
  5
5
330
0
100
AcDbSymbolTable
 70
    4
  0
LTYPE
  5
14
330
5
100
AcDbSymbolTableRecord
100
AcDbLinetypeTableRecord
  2
ByBlock
 70
    0
  3

 72
   65
 73
    0
 40
0
  0
LTYPE
  5
15
330
5
100
AcDbSymbolTableRecord
100
AcDbLinetypeTableRecord
  2
ByLayer
 70
    0
  3

 72
   65
 73
    0
 40
0
  0
LTYPE
  5
16
330
5
100
AcDbSymbolTableRecord
100
AcDbLinetypeTableRecord
  2
Continuous
 70
    0
  3
Solid line
 72
   65
 73
    0
 40
0
  0
LTYPE
  5
32
330
5
100
AcDbSymbolTableRecord
100
AcDbLinetypeTableRecord
  2
DOT
 70
    0
  3
Dot . . . . . . . . . . . . . . . . . . . . . .
 72
   65
 73
    2
 40
6.35
 49
0
 74
    0
 49
-6.35
 74
    0
  0
LTYPE
  5
33
330
5
100
AcDbSymbolTableRecord
100
AcDbLinetypeTableRecord
  2
DOTTINY
 70
    0
  3
Dot (.15x) .....................................
 72
   65
 73
    2
 40
0.9525
 49
0
 74
    0
 49
-0.9525
 74
    0
  0
LTYPE
  5
34
330
5
100
AcDbSymbolTableRecord
100
AcDbLinetypeTableRecord
  2
DOT2
 70
    0
  3
Dot (.5x) .....................................
 72
   65
 73
    2
 40
3.175
 49
0
 74
    0
 49
-3.175
 74
    0
  0
LTYPE
  5
35
330
5
100
AcDbSymbolTableRecord
100
AcDbLinetypeTableRecord
  2
DOTX2
 70
    0
  3
Dot (2x) .  .  .  .  .  .  .  .  .  .  .  .  .
 72
   65
 73
    2
 40
12.7
 49
0
 74
    0
 49
-12.7
 74
    0
  0
LTYPE
  5
36
330
5
100
AcDbSymbolTableRecord
100
AcDbLinetypeTableRecord
  2
DASHED
 70
    0
  3
Dashed _ _ _ _ _ _ _ _ _ _ _ _ _ _ _ _ _
 72
   65
 73
    2
 40
19.05
 49
12.7
 74
    0
 49
-6.35
 74
    0
  0
LTYPE
  5
37
330
5
100
AcDbSymbolTableRecord
100
AcDbLinetypeTableRecord
  2
DASHEDTINY
 70
    0
  3
Dashed (.15x) _ _ _ _ _ _ _ _ _ _ _ _ _ _ _ _ _
 72
   65
 73
    2
 40
2.8575
 49
1.905
 74
    0
 49
-0.9525
 74
    0
  0
LTYPE
  5
38
330
5
100
AcDbSymbolTableRecord
100
AcDbLinetypeTableRecord
  2
DASHED2
 70
    0
  3
Dashed (.5x) _ _ _ _ _ _ _ _ _ _ _ _ _ _ _ _ _
 72
   65
 73
    2
 40
9.524999999999999
 49
6.35
 74
    0
 49
-3.175
 74
    0
  0
LTYPE
  5
39
330
5
100
AcDbSymbolTableRecord
100
AcDbLinetypeTableRecord
  2
DASHEDX2
 70
    0
  3
Dashed (2x) ____  ____  ____  ____  ____  ___
 72
   65
 73
    2
 40
38.09999999999999
 49
25.4
 74
    0
 49
-12.7
 74
    0
  0
LTYPE
  5
3A
330
5
100
AcDbSymbolTableRecord
100
AcDbLinetypeTableRecord
  2
DASHDOT
 70
    0
  3
Dash dot __ . __ . __ . __ . __ . __ . __ . __
 72
   65
 73
    4
 40
25.4
 49
12.7
 74
    0
 49
-6.35
 74
    0
 49
0
 74
    0
 49
-6.35
 74
    0
  0
LTYPE
  5
3B
330
5
100
AcDbSymbolTableRecord
100
AcDbLinetypeTableRecord
  2
DASHDOTTINY
 70
    0
  3
Dash dot (.15x) _._._._._._._._._._._._._._._.
 72
   65
 73
    4
 40
3.81
 49
1.905
 74
    0
 49
-0.9525
 74
    0
 49
0
 74
    0
 49
-0.9525
 74
    0
  0
LTYPE
  5
3C
330
5
100
AcDbSymbolTableRecord
100
AcDbLinetypeTableRecord
  2
DASHDOT2
 70
    0
  3
Dash dot (.5x) _._._._._._._._._._._._._._._.
 72
   65
 73
    4
 40
12.7
 49
6.35
 74
    0
 49
-3.175
 74
    0
 49
0
 74
    0
 49
-3.175
 74
    0
  0
LTYPE
  5
3D
330
5
100
AcDbSymbolTableRecord
100
AcDbLinetypeTableRecord
  2
DASHDOTX2
 70
    0
  3
Dash dot (2x) ____  .  ____  .  ____  .  ___
 72
   65
 73
    4
 40
50.8
 49
25.4
 74
    0
 49
-12.7
 74
    0
 49
0
 74
    0
 49
-12.7
 74
    0
  0
LTYPE
  5
3E
330
5
100
AcDbSymbolTableRecord
100
AcDbLinetypeTableRecord
  2
DIVIDE
 70
    0
  3
Divide ____ . . ____ . . ____ . . ____ . . ____
 72
   65
 73
    6
 40
31.75
 49
12.7
 74
    0
 49
-6.35
 74
    0
 49
0
 74
    0
 49
-6.35
 74
    0
 49
0
 74
    0
 49
-6.35
 74
    0
  0
LTYPE
  5
3F
330
5
100
AcDbSymbolTableRecord
100
AcDbLinetypeTableRecord
  2
DIVIDETINY
 70
    0
  3
Divide (.15x) __..__..__..__..__..__..__..__.._
 72
   65
 73
    6
 40
4.7625
 49
1.905
 74
    0
 49
-0.9525
 74
    0
 49
0
 74
    0
 49
-0.9525
 74
    0
 49
0
 74
    0
 49
-0.9525
 74
    0
  0
LTYPE
  5
40
330
5
100
AcDbSymbolTableRecord
100
AcDbLinetypeTableRecord
  2
DIVIDE2
 70
    0
  3
Divide (.5x) __..__..__..__..__..__..__..__.._
 72
   65
 73
    6
 40
15.875
 49
6.35
 74
    0
 49
-3.175
 74
    0
 49
0
 74
    0
 49
-3.175
 74
    0
 49
0
 74
    0
 49
-3.175
 74
    0
  0
LTYPE
  5
41
330
5
100
AcDbSymbolTableRecord
100
AcDbLinetypeTableRecord
  2
DIVIDEX2
 70
    0
  3
Divide (2x) ________  .  .  ________  .  .  _
 72
   65
 73
    6
 40
63.5
 49
25.4
 74
    0
 49
-12.7
 74
    0
 49
0
 74
    0
 49
-12.7
 74
    0
 49
0
 74
    0
 49
-12.7
 74
    0
  0
LTYPE
  5
42
330
5
100
AcDbSymbolTableRecord
100
AcDbLinetypeTableRecord
  2
BORDER
 70
    0
  3
Border __ __ . __ __ . __ __ . __ __ . __ __ .
 72
   65
 73
    6
 40
44.45
 49
12.7
 74
    0
 49
-6.35
 74
    0
 49
12.7
 74
    0
 49
-6.35
 74
    0
 49
0
 74
    0
 49
-6.35
 74
    0
  0
LTYPE
  5
43
330
5
100
AcDbSymbolTableRecord
100
AcDbLinetypeTableRecord
  2
BORDERTINY
 70
    0
  3
Border (.15x) __.__.__.__.__.__.__.__.__.__.__.
 72
   65
 73
    6
 40
6.6675
 49
1.905
 74
    0
 49
-0.9525
 74
    0
 49
1.905
 74
    0
 49
-0.9525
 74
    0
 49
0
 74
    0
 49
-0.9525
 74
    0
  0
LTYPE
  5
44
330
5
100
AcDbSymbolTableRecord
100
AcDbLinetypeTableRecord
  2
BORDER2
 70
    0
  3
Border (.5x) __.__.__.__.__.__.__.__.__.__.__.
 72
   65
 73
    6
 40
22.225
 49
6.35
 74
    0
 49
-3.175
 74
    0
 49
6.35
 74
    0
 49
-3.175
 74
    0
 49
0
 74
    0
 49
-3.175
 74
    0
  0
LTYPE
  5
45
330
5
100
AcDbSymbolTableRecord
100
AcDbLinetypeTableRecord
  2
BORDERX2
 70
    0
  3
Border (2x) ____  ____  .  ____  ____  .  ___
 72
   65
 73
    6
 40
88.89999999999999
 49
25.4
 74
    0
 49
-12.7
 74
    0
 49
25.4
 74
    0
 49
-12.7
 74
    0
 49
0
 74
    0
 49
-12.7
 74
    0
  0
LTYPE
  5
46
330
5
100
AcDbSymbolTableRecord
100
AcDbLinetypeTableRecord
  2
CENTER
 70
    0
  3
Center ____ _ ____ _ ____ _ ____ _ ____ _ ____
 72
   65
 73
    4
 40
50.8
 49
31.75
 74
    0
 49
-6.35
 74
    0
 49
6.35
 74
    0
 49
-6.35
 74
    0
  0
LTYPE
  5
47
330
5
100
AcDbSymbolTableRecord
100
AcDbLinetypeTableRecord
  2
CENTERTINY
 70
    0
  3
Center (.15x) ___ _ ___ _ ___ _ ___ _ ___ _ ___
 72
   65
 73
    4
 40
7.619999999999999
 49
4.7625
 74
    0
 49
-0.9525
 74
    0
 49
0.9525
 74
    0
 49
-0.9525
 74
    0
  0
LTYPE
  5
48
330
5
100
AcDbSymbolTableRecord
100
AcDbLinetypeTableRecord
  2
CENTER2
 70
    0
  3
Center (.5x) ___ _ ___ _ ___ _ ___ _ ___ _ ___
 72
   65
 73
    4
 40
28.575
 49
19.05
 74
    0
 49
-3.175
 74
    0
 49
3.175
 74
    0
 49
-3.175
 74
    0
  0
LTYPE
  5
49
330
5
100
AcDbSymbolTableRecord
100
AcDbLinetypeTableRecord
  2
CENTERX2
 70
    0
  3
Center (2x) ________  __  ________  __  _____
 72
   65
 73
    4
 40
101.6
 49
63.5
 74
    0
 49
-12.7
 74
    0
 49
12.7
 74
    0
 49
-12.7
 74
    0
  0
ENDTAB
  0
TABLE
  2
LAYER
  5
2
330
0
100
AcDbSymbolTable
 70
    1
  0
LAYER
  5
10
330
2
100
AcDbSymbolTableRecord
100
AcDbLayerTableRecord
  2
0
 70
    0
 62
    7
  6
CONTINUOUS
370
    0
390
F
  0
LAYER
  5
4A
330
2
100
AcDbSymbolTableRecord
100
AcDbLayerTableRecord
  2
1-tole-detail
 70
    0
 62
    7
  6
CONTINUOUS
370
   -3
390
F
  0
LAYER
  5
4B
330
2
100
AcDbSymbolTableRecord
100
AcDbLayerTableRecord
  2
1-tole-joints
 70
    0
 62
    7
  6
CONTINUOUS
370
    0
390
F
  0
LAYER
  5
4C
330
2
100
AcDbSymbolTableRecord
100
AcDbLayerTableRecord
  2
_LEGENDE
 70
    0
 62
    8
  6
CONTINUOUS
370
    0
390
F
1001
LibreCad
1070
    1
  0
ENDTAB
  0
TABLE
  2
STYLE
  5
3
330
0
100
AcDbSymbolTable
 70
    3
  0
STYLE
  5
4D
330
2
100
AcDbSymbolTableRecord
100
AcDbTextStyleTableRecord
  2
standard
 70
    0
 40
0
 41
1
 50
0
 71
    0
 42
1
  3
standard
  4

  0
ENDTAB
  0
TABLE
  2
VIEW
  5
6
330
0
100
AcDbSymbolTable
 70
    0
  0
ENDTAB
  0
TABLE
  2
UCS
  5
7
330
0
100
AcDbSymbolTable
 70
    0
  0
ENDTAB
  0
TABLE
  2
APPID
  5
9
330
0
100
AcDbSymbolTable
 70
    1
  0
APPID
  5
12
330
9
100
AcDbSymbolTableRecord
100
AcDbRegAppTableRecord
  2
ACAD
 70
    0
  0
APPID
  5
4E
330
9
100
AcDbSymbolTableRecord
100
AcDbRegAppTableRecord
  2
LibreCad
 70
    0
  0
ENDTAB
  0
TABLE
  2
DIMSTYLE
  5
A
330
0
100
AcDbSymbolTable
 70
    1
100
AcDbDimStyleTable
 71
    1
  0
DIMSTYLE
105
4F
330
A
100
AcDbSymbolTableRecord
100
AcDbDimStyleTableRecord
  2
Standard
 70
    0
 40
2.5
 41
10
 42
0.625
 43
0.38
 44
1.25
 45
0
 46
0
 47
0
 48
0
 49
1
140
40
141
0.09
142
0
143
25.4
144
1
145
0
146
1
147
1
148
0
 71
    0
 72
    0
 73
    0
 74
    1
 75
    0
 76
    0
 77
    0
 78
    8
 79
    0
170
    0
171
    2
172
    0
173
    0
174
    0
175
    0
176
    0
177
    0
178
    0
179
    0
271
    0
272
    4
273
    2
274
    2
275
    0
276
    0
277
    2
278
   44
279
    0
280
    0
281
    0
282
    0
283
    1
284
    0
285
    0
286
    0
288
    0
289
    3
340
standard
341

371
   -2
372
   -2
  0
ENDTAB
  0
TABLE
  2
BLOCK_RECORD
  5
1
330
0
100
AcDbSymbolTable
 70
    2
  0
BLOCK_RECORD
  5
1F
330
1
100
AcDbSymbolTableRecord
100
AcDbBlockTableRecord
  2
*Model_Space
 70
    0
280
    1
281
    0
  0
BLOCK_RECORD
  5
1E
330
1
100
AcDbSymbolTableRecord
100
AcDbBlockTableRecord
  2
*Paper_Space
 70
    0
280
    1
281
    0
  0
BLOCK_RECORD
  5
50
330
1
100
AcDbSymbolTableRecord
100
AcDbBlockTableRecord
  2
*D3
 70
    0
280
    1
281
    0
  0
BLOCK_RECORD
  5
53
330
1
100
AcDbSymbolTableRecord
100
AcDbBlockTableRecord
  2
*D2
 70
    0
280
    1
281
    0
  0
BLOCK_RECORD
  5
56
330
1
100
AcDbSymbolTableRecord
100
AcDbBlockTableRecord
  2
*D17
 70
    0
280
    1
281
    0
  0
BLOCK_RECORD
  5
59
330
1
100
AcDbSymbolTableRecord
100
AcDbBlockTableRecord
  2
*D16
 70
    0
280
    1
281
    0
  0
BLOCK_RECORD
  5
5C
330
1
100
AcDbSymbolTableRecord
100
AcDbBlockTableRecord
  2
*D1
 70
    0
280
    1
281
    0
  0
BLOCK_RECORD
  5
5F
330
1
100
AcDbSymbolTableRecord
100
AcDbBlockTableRecord
  2
*D15
 70
    0
280
    1
281
    0
  0
BLOCK_RECORD
  5
62
330
1
100
AcDbSymbolTableRecord
100
AcDbBlockTableRecord
  2
*D18
 70
    0
280
    1
281
    0
  0
BLOCK_RECORD
  5
65
330
1
100
AcDbSymbolTableRecord
100
AcDbBlockTableRecord
  2
*D11
 70
    0
280
    1
281
    0
  0
BLOCK_RECORD
  5
68
330
1
100
AcDbSymbolTableRecord
100
AcDbBlockTableRecord
  2
*D10
 70
    0
280
    1
281
    0
  0
BLOCK_RECORD
  5
6B
330
1
100
AcDbSymbolTableRecord
100
AcDbBlockTableRecord
  2
*D6
 70
    0
280
    1
281
    0
  0
BLOCK_RECORD
  5
6E
330
1
100
AcDbSymbolTableRecord
100
AcDbBlockTableRecord
  2
*D14
 70
    0
280
    1
281
    0
  0
BLOCK_RECORD
  5
71
330
1
100
AcDbSymbolTableRecord
100
AcDbBlockTableRecord
  2
*D9
 70
    0
280
    1
281
    0
  0
BLOCK_RECORD
  5
74
330
1
100
AcDbSymbolTableRecord
100
AcDbBlockTableRecord
  2
*D5
 70
    0
280
    1
281
    0
  0
BLOCK_RECORD
  5
77
330
1
100
AcDbSymbolTableRecord
100
AcDbBlockTableRecord
  2
*D20
 70
    0
280
    1
281
    0
  0
BLOCK_RECORD
  5
7A
330
1
100
AcDbSymbolTableRecord
100
AcDbBlockTableRecord
  2
*D19
 70
    0
280
    1
281
    0
  0
BLOCK_RECORD
  5
7D
330
1
100
AcDbSymbolTableRecord
100
AcDbBlockTableRecord
  2
*D8
 70
    0
280
    1
281
    0
  0
BLOCK_RECORD
  5
80
330
1
100
AcDbSymbolTableRecord
100
AcDbBlockTableRecord
  2
*D13
 70
    0
280
    1
281
    0
  0
BLOCK_RECORD
  5
83
330
1
100
AcDbSymbolTableRecord
100
AcDbBlockTableRecord
  2
*D4
 70
    0
280
    1
281
    0
  0
BLOCK_RECORD
  5
86
330
1
100
AcDbSymbolTableRecord
100
AcDbBlockTableRecord
  2
*D7
 70
    0
280
    1
281
    0
  0
BLOCK_RECORD
  5
89
330
1
100
AcDbSymbolTableRecord
100
AcDbBlockTableRecord
  2
*D12
 70
    0
280
    1
281
    0
  0
ENDTAB
  0
ENDSEC
  0
SECTION
  2
BLOCKS
  0
BLOCK
  5
20
330
1F
100
AcDbEntity
  8
0
100
AcDbBlockBegin
  2
*Model_Space
 70
    0
 10
0
 20
0
 30
0
  3
*Model_Space
  1

  0
ENDBLK
  5
21
330
1F
100
AcDbEntity
  8
0
100
AcDbBlockEnd
  0
BLOCK
  5
1C
330
1B
100
AcDbEntity
  8
0
100
AcDbBlockBegin
  2
*Paper_Space
 70
    0
 10
0
 20
0
 30
0
  3
*Paper_Space
  1

  0
ENDBLK
  5
1D
330
1F
100
AcDbEntity
  8
0
100
AcDbBlockEnd
  0
BLOCK
  5
51
330
50
100
AcDbEntity
  8
0
100
AcDbBlockBegin
  2
*D3
 70
    1
 10
0
 20
0
  3
*D3
  1

  0
LINE
  5
8C
100
AcDbEntity
  8
_LEGENDE
  6
ByBlock
 62
    0
370
   -2
100
AcDbLine
 10
1600
 20
999.9999999999999
 11
2866.5
 21
999.9999999999999
  0
MTEXT
  5
8D
100
AcDbEntity
  8
_LEGENDE
  6
CONTINUOUS
 62
    0
370
   -2
100
AcDbMText
 10
2233.25
 20
1052.5
 30
0
 40
100
 41
255.5555555555617
 71
    5
 72
    1
  1
1267
  7
standard
210
0
220
0
230
1
 50
0
 73
    2
 44
1
  0
SOLID
  5
8E
100
AcDbEntity
  8
_LEGENDE
  6
ByBlock
 62
    0
370
   -2
100
AcDbTrace
 10
1600
 20
999.9999999999999
 30
0
 11
1625
 21
1004.162846577728
 31
0
 12
1625
 22
995.8371534222715
 32
0
 13
1625
 23
995.8371534222715
 33
0
  0
SOLID
  5
8F
100
AcDbEntity
  8
_LEGENDE
  6
ByBlock
 62
    0
370
   -2
100
AcDbTrace
 10
2866.5
 20
999.9999999999999
 30
0
 11
2841.5
 21
995.8371534222715
 31
0
 12
2841.5
 22
1004.162846577728
 32
0
 13
2841.5
 23
1004.162846577728
 33
0
  0
LINE
  5
90
100
AcDbEntity
  8
_LEGENDE
  6
ByBlock
 62
    0
370
   -2
100
AcDbLine
 10
1600
 20
10.88250000000698
 11
1600
 21
1003.125
  0
LINE
  5
91
100
AcDbEntity
  8
_LEGENDE
  6
ByBlock
 62
    0
370
   -2
100
AcDbLine
 10
2866.5
 20
10.88250000000698
 11
2866.5
 21
1003.125
  0
ENDBLK
  5
52
330
50
100
AcDbEntity
  8
0
100
AcDbBlockEnd
  0
BLOCK
  5
54
330
53
100
AcDbEntity
  8
0
100
AcDbBlockBegin
  2
*D2
 70
    1
 10
0
 20
0
  3
*D2
  1

  0
LINE
  5
92
100
AcDbEntity
  8
_LEGENDE
  6
ByBlock
 62
    0
370
   -2
100
AcDbLine
 10
2700
 20
3000
 11
2700
 21
1190
  0
MTEXT
  5
93
100
AcDbEntity
  8
_LEGENDE
  6
CONTINUOUS
 62
    0
370
   -2
100
AcDbMText
 10
2647.5
 20
2095
 30
0
 40
100
 41
233.3333333333333
 71
    5
 72
    1
  1
1810
  7
standard
210
0
220
0
230
1
 50
90
 73
    2
 44
1
  0
SOLID
  5
94
100
AcDbEntity
  8
_LEGENDE
  6
ByBlock
 62
    0
370
   -2
100
AcDbTrace
 10
2700
 20
3000
 30
0
 11
2704.162846577728
 21
2975
 31
0
 12
2695.837153422272
 22
2975
 32
0
 13
2695.837153422272
 23
2975
 33
0
  0
SOLID
  5
95
100
AcDbEntity
  8
_LEGENDE
  6
ByBlock
 62
    0
370
   -2
100
AcDbTrace
 10
2700
 20
1190
 30
0
 11
2695.837153422272
 21
1215
 31
0
 12
2704.162846577728
 22
1215
 32
0
 13
2704.162846577728
 23
1215
 33
0
  0
LINE
  5
96
100
AcDbEntity
  8
_LEGENDE
  6
ByBlock
 62
    0
370
   -2
100
AcDbLine
 10
2826.4375
 20
3000
 11
2696.875
 21
3000
  0
LINE
  5
97
100
AcDbEntity
  8
_LEGENDE
  6
ByBlock
 62
    0
370
   -2
100
AcDbLine
 10
2826.4375
 20
1190
 11
2696.875
 21
1190
  0
ENDBLK
  5
55
330
53
100
AcDbEntity
  8
0
100
AcDbBlockEnd
  0
BLOCK
  5
57
330
56
100
AcDbEntity
  8
0
100
AcDbBlockBegin
  2
*D17
 70
    1
 10
0
 20
0
  3
*D17
  1

  0
LINE
  5
98
100
AcDbEntity
  8
_LEGENDE
  6
ByBlock
 62
    0
370
   -2
100
AcDbLine
 10
8000.000000000001
 20
707.5270681680922
 11
8000.000000000001
 21
2703.125
  0
LINE
  5
99
100
AcDbEntity
  8
_LEGENDE
  6
ByBlock
 62
    0
370
   -2
100
AcDbLine
 10
8930
 20
707.5270681680922
 11
8930
 21
2703.125
  0
LINE
  5
9A
100
AcDbEntity
  8
_LEGENDE
  6
ByBlock
 62
    0
370
   -2
100
AcDbLine
 10
8000.000000000001
 20
2700
 11
8930
 21
2700
  0
MTEXT
  5
9B
100
AcDbEntity
  8
_LEGENDE
  6
CONTINUOUS
 62
    0
370
   -2
100
AcDbMText
 10
8465
 20
2752.5
 30
0
 40
100
 41
200.0000000000124
 71
    5
 72
    1
  1
930
  7
standard
210
0
220
0
230
1
 50
0
 73
    2
 44
1
  0
SOLID
  5
9C
100
AcDbEntity
  8
_LEGENDE
  6
ByBlock
 62
    0
370
   -2
100
AcDbTrace
 10
8000.000000000001
 20
2700
 30
0
 11
8025.000000000001
 21
2704.162846577728
 31
0
 12
8025.000000000001
 22
2695.837153422272
 32
0
 13
8025.000000000001
 23
2695.837153422272
 33
0
  0
SOLID
  5
9D
100
AcDbEntity
  8
_LEGENDE
  6
ByBlock
 62
    0
370
   -2
100
AcDbTrace
 10
8930
 20
2700
 30
0
 11
8905
 21
2695.837153422272
 31
0
 12
8905
 22
2704.162846577728
 32
0
 13
8905
 23
2704.162846577728
 33
0
  0
ENDBLK
  5
58
330
56
100
AcDbEntity
  8
0
100
AcDbBlockEnd
  0
BLOCK
  5
5A
330
59
100
AcDbEntity
  8
0
100
AcDbBlockBegin
  2
*D16
 70
    1
 10
0
 20
0
  3
*D16
  1

  0
LINE
  5
9E
100
AcDbEntity
  8
_LEGENDE
  6
ByBlock
 62
    0
370
   -2
100
AcDbLine
 10
6399.999999999999
 20
707.5270681680922
 11
6399.999999999999
 21
2703.125
  0
LINE
  5
9F
100
AcDbEntity
  8
_LEGENDE
  6
ByBlock
 62
    0
370
   -2
100
AcDbLine
 10
7710
 20
707.5270681680922
 11
7710
 21
2703.125
  0
LINE
  5
A0
100
AcDbEntity
  8
_LEGENDE
  6
ByBlock
 62
    0
370
   -2
100
AcDbLine
 10
6399.999999999999
 20
2700
 11
7710
 21
2700
  0
MTEXT
  5
A1
100
AcDbEntity
  8
_LEGENDE
  6
CONTINUOUS
 62
    0
370
   -2
100
AcDbMText
 10
7055
 20
2752.5
 30
0
 40
100
 41
233.3333333333395
 71
    5
 72
    1
  1
1310
  7
standard
210
0
220
0
230
1
 50
0
 73
    2
 44
1
  0
SOLID
  5
A2
100
AcDbEntity
  8
_LEGENDE
  6
ByBlock
 62
    0
370
   -2
100
AcDbTrace
 10
6399.999999999999
 20
2700
 30
0
 11
6424.999999999999
 21
2704.162846577728
 31
0
 12
6424.999999999999
 22
2695.837153422272
 32
0
 13
6424.999999999999
 23
2695.837153422272
 33
0
  0
SOLID
  5
A3
100
AcDbEntity
  8
_LEGENDE
  6
ByBlock
 62
    0
370
   -2
100
AcDbTrace
 10
7710
 20
2700
 30
0
 11
7685
 21
2695.837153422272
 31
0
 12
7685
 22
2704.162846577728
 32
0
 13
7685
 23
2704.162846577728
 33
0
  0
ENDBLK
  5
5B
330
59
100
AcDbEntity
  8
0
100
AcDbBlockEnd
  0
BLOCK
  5
5D
330
5C
100
AcDbEntity
  8
0
100
AcDbBlockBegin
  2
*D1
 70
    1
 10
0
 20
0
  3
*D1
  1

  0
LINE
  5
A4
100
AcDbEntity
  8
_LEGENDE
  6
ByBlock
 62
    0
370
   -2
100
AcDbLine
 10
1100
 20
1190
 11
1100
 21
3000
  0
MTEXT
  5
A5
100
AcDbEntity
  8
_LEGENDE
  6
CONTINUOUS
 62
    0
370
   -2
100
AcDbMText
 10
1047.5
 20
2095
 30
0
 40
100
 41
233.3333333333333
 71
    5
 72
    1
  1
1810
  7
standard
210
0
220
0
230
1
 50
90
 73
    2
 44
1
  0
SOLID
  5
A6
100
AcDbEntity
  8
_LEGENDE
  6
ByBlock
 62
    0
370
   -2
100
AcDbTrace
 10
1100
 20
1190
 30
0
 11
1095.837153422272
 21
1215
 31
0
 12
1104.162846577728
 22
1215
 32
0
 13
1104.162846577728
 23
1215
 33
0
  0
SOLID
  5
A7
100
AcDbEntity
  8
_LEGENDE
  6
ByBlock
 62
    0
370
   -2
100
AcDbTrace
 10
1100
 20
3000
 30
0
 11
1104.162846577728
 21
2975
 31
0
 12
1095.837153422272
 22
2975
 32
0
 13
1095.837153422272
 23
2975
 33
0
  0
LINE
  5
A8
100
AcDbEntity
  8
_LEGENDE
  6
ByBlock
 62
    0
370
   -2
100
AcDbLine
 10
1226.4375
 20
1190
 11
1096.875
 21
1190
  0
LINE
  5
A9
100
AcDbEntity
  8
_LEGENDE
  6
ByBlock
 62
    0
370
   -2
100
AcDbLine
 10
1226.4375
 20
3000
 11
1096.875
 21
3000
  0
ENDBLK
  5
5E
330
5C
100
AcDbEntity
  8
0
100
AcDbBlockEnd
  0
BLOCK
  5
60
330
5F
100
AcDbEntity
  8
0
100
AcDbBlockBegin
  2
*D15
 70
    1
 10
0
 20
0
  3
*D15
  1

  0
LINE
  5
AA
100
AcDbEntity
  8
_LEGENDE
  6
ByBlock
 62
    0
370
   -2
100
AcDbLine
 10
4800
 20
707.5270681680922
 11
4800
 21
2703.125
  0
LINE
  5
AB
100
AcDbEntity
  8
_LEGENDE
  6
ByBlock
 62
    0
370
   -2
100
AcDbLine
 10
6300
 20
707.5270681680922
 11
6300
 21
2703.125
  0
LINE
  5
AC
100
AcDbEntity
  8
_LEGENDE
  6
ByBlock
 62
    0
370
   -2
100
AcDbLine
 10
4800
 20
2700
 11
6300
 21
2700
  0
MTEXT
  5
AD
100
AcDbEntity
  8
_LEGENDE
  6
CONTINUOUS
 62
    0
370
   -2
100
AcDbMText
 10
5550
 20
2752.5
 30
0
 40
100
 41
255.5555555555617
 71
    5
 72
    1
  1
1500
  7
standard
210
0
220
0
230
1
 50
0
 73
    2
 44
1
  0
SOLID
  5
AE
100
AcDbEntity
  8
_LEGENDE
  6
ByBlock
 62
    0
370
   -2
100
AcDbTrace
 10
4800
 20
2700
 30
0
 11
4825
 21
2704.162846577728
 31
0
 12
4825
 22
2695.837153422272
 32
0
 13
4825
 23
2695.837153422272
 33
0
  0
SOLID
  5
AF
100
AcDbEntity
  8
_LEGENDE
  6
ByBlock
 62
    0
370
   -2
100
AcDbTrace
 10
6300
 20
2700
 30
0
 11
6275
 21
2695.837153422272
 31
0
 12
6275
 22
2704.162846577728
 32
0
 13
6275
 23
2704.162846577728
 33
0
  0
ENDBLK
  5
61
330
5F
100
AcDbEntity
  8
0
100
AcDbBlockEnd
  0
BLOCK
  5
63
330
62
100
AcDbEntity
  8
0
100
AcDbBlockBegin
  2
*D18
 70
    1
 10
0
 20
0
  3
*D18
  1

  0
LINE
  5
B0
100
AcDbEntity
  8
_LEGENDE
  6
ByBlock
 62
    0
370
   -2
100
AcDbLine
 10
9600
 20
707.5270681680922
 11
9600
 21
2703.125
  0
LINE
  5
B1
100
AcDbEntity
  8
_LEGENDE
  6
ByBlock
 62
    0
370
   -2
100
AcDbLine
 10
10645
 20
707.5270681680922
 11
10645
 21
2703.125
  0
LINE
  5
B2
100
AcDbEntity
  8
_LEGENDE
  6
ByBlock
 62
    0
370
   -2
100
AcDbLine
 10
9600
 20
2700
 11
10645
 21
2700
  0
MTEXT
  5
B3
100
AcDbEntity
  8
_LEGENDE
  6
CONTINUOUS
 62
    0
370
   -2
100
AcDbMText
 10
10122.5
 20
2752.5
 30
0
 40
100
 41
266.6666666666729
 71
    5
 72
    1
  1
1045
  7
standard
210
0
220
0
230
1
 50
0
 73
    2
 44
1
  0
SOLID
  5
B4
100
AcDbEntity
  8
_LEGENDE
  6
ByBlock
 62
    0
370
   -2
100
AcDbTrace
 10
9600
 20
2700
 30
0
 11
9625
 21
2704.162846577728
 31
0
 12
9625
 22
2695.837153422272
 32
0
 13
9625
 23
2695.837153422272
 33
0
  0
SOLID
  5
B5
100
AcDbEntity
  8
_LEGENDE
  6
ByBlock
 62
    0
370
   -2
100
AcDbTrace
 10
10645
 20
2700
 30
0
 11
10620
 21
2695.837153422272
 31
0
 12
10620
 22
2704.162846577728
 32
0
 13
10620
 23
2704.162846577728
 33
0
  0
ENDBLK
  5
64
330
62
100
AcDbEntity
  8
0
100
AcDbBlockEnd
  0
BLOCK
  5
66
330
65
100
AcDbEntity
  8
0
100
AcDbBlockBegin
  2
*D11
 70
    1
 10
0
 20
0
  3
*D11
  1

  0
LINE
  5
B6
100
AcDbEntity
  8
_LEGENDE
  6
ByBlock
 62
    0
370
   -2
100
AcDbLine
 10
13600
 20
750
 11
13600
 21
3000
  0
MTEXT
  5
B7
100
AcDbEntity
  8
_LEGENDE
  6
CONTINUOUS
 62
    0
370
   -2
100
AcDbMText
 10
13547.5
 20
1875
 30
0
 40
100
 41
277.777777777784
 71
    5
 72
    1
  1
2250
  7
standard
210
0
220
0
230
1
 50
90
 73
    2
 44
1
  0
SOLID
  5
B8
100
AcDbEntity
  8
_LEGENDE
  6
ByBlock
 62
    0
370
   -2
100
AcDbTrace
 10
13600
 20
750
 30
0
 11
13595.83715342227
 21
775
 31
0
 12
13604.16284657773
 22
775
 32
0
 13
13604.16284657773
 23
775
 33
0
  0
SOLID
  5
B9
100
AcDbEntity
  8
_LEGENDE
  6
ByBlock
 62
    0
370
   -2
100
AcDbTrace
 10
13600
 20
3000
 30
0
 11
13604.16284657773
 21
2975
 31
0
 12
13595.83715342227
 22
2975
 32
0
 13
13595.83715342227
 23
2975
 33
0
  0
LINE
  5
BA
100
AcDbEntity
  8
_LEGENDE
  6
ByBlock
 62
    0
370
   -2
100
AcDbLine
 10
13843.4375
 20
750
 11
13596.875
 21
750
  0
LINE
  5
BB
100
AcDbEntity
  8
_LEGENDE
  6
ByBlock
 62
    0
370
   -2
100
AcDbLine
 10
13843.4375
 20
3000
 11
13596.875
 21
3000
  0
ENDBLK
  5
67
330
65
100
AcDbEntity
  8
0
100
AcDbBlockEnd
  0
BLOCK
  5
69
330
68
100
AcDbEntity
  8
0
100
AcDbBlockBegin
  2
*D10
 70
    1
 10
0
 20
0
  3
*D10
  1

  0
LINE
  5
BC
100
AcDbEntity
  8
_LEGENDE
  6
ByBlock
 62
    0
370
   -2
100
AcDbLine
 10
12000
 20
750
 11
12000
 21
3000
  0
MTEXT
  5
BD
100
AcDbEntity
  8
_LEGENDE
  6
CONTINUOUS
 62
    0
370
   -2
100
AcDbMText
 10
11947.5
 20
1875
 30
0
 40
100
 41
277.777777777784
 71
    5
 72
    1
  1
2250
  7
standard
210
0
220
0
230
1
 50
90
 73
    2
 44
1
  0
SOLID
  5
BE
100
AcDbEntity
  8
_LEGENDE
  6
ByBlock
 62
    0
370
   -2
100
AcDbTrace
 10
12000
 20
750
 30
0
 11
11995.83715342227
 21
775
 31
0
 12
12004.16284657773
 22
775
 32
0
 13
12004.16284657773
 23
775
 33
0
  0
SOLID
  5
BF
100
AcDbEntity
  8
_LEGENDE
  6
ByBlock
 62
    0
370
   -2
100
AcDbTrace
 10
12000
 20
3000
 30
0
 11
12004.16284657773
 21
2975
 31
0
 12
11995.83715342227
 22
2975
 32
0
 13
11995.83715342227
 23
2975
 33
0
  0
LINE
  5
C0
100
AcDbEntity
  8
_LEGENDE
  6
ByBlock
 62
    0
370
   -2
100
AcDbLine
 10
12243.4375
 20
750
 11
11996.875
 21
750
  0
LINE
  5
C1
100
AcDbEntity
  8
_LEGENDE
  6
ByBlock
 62
    0
370
   -2
100
AcDbLine
 10
12243.4375
 20
3000
 11
11996.875
 21
3000
  0
ENDBLK
  5
6A
330
68
100
AcDbEntity
  8
0
100
AcDbBlockEnd
  0
BLOCK
  5
6C
330
6B
100
AcDbEntity
  8
0
100
AcDbBlockBegin
  2
*D6
 70
    1
 10
0
 20
0
  3
*D6
  1

  0
LINE
  5
C2
100
AcDbEntity
  8
_LEGENDE
  6
ByBlock
 62
    0
370
   -2
100
AcDbLine
 10
6100
 20
5.964568168092683
 11
6100
 21
3000
  0
MTEXT
  5
C3
100
AcDbEntity
  8
_LEGENDE
  6
CONTINUOUS
 62
    0
370
   -2
100
AcDbMText
 10
6047.5
 20
1502.982284084046
 30
0
 40
100
 41
288.8888888888889
 71
    5
 72
    1
  1
2994
  7
standard
210
0
220
0
230
1
 50
90
 73
    2
 44
1
  0
SOLID
  5
C4
100
AcDbEntity
  8
_LEGENDE
  6
ByBlock
 62
    0
370
   -2
100
AcDbTrace
 10
6100
 20
5.964568168092683
 30
0
 11
6095.837153422272
 21
30.96456816809268
 31
0
 12
6104.162846577728
 22
30.96456816809268
 32
0
 13
6104.162846577728
 23
30.96456816809268
 33
0
  0
SOLID
  5
C5
100
AcDbEntity
  8
_LEGENDE
  6
ByBlock
 62
    0
370
   -2
100
AcDbTrace
 10
6100
 20
3000
 30
0
 11
6104.162846577728
 21
2975
 31
0
 12
6095.837153422272
 22
2975
 32
0
 13
6095.837153422272
 23
2975
 33
0
  0
LINE
  5
C6
100
AcDbEntity
  8
_LEGENDE
  6
ByBlock
 62
    0
370
   -2
100
AcDbLine
 10
6298.4375
 20
5.964568168092232
 11
6096.875
 21
5.96456816809269
  0
LINE
  5
C7
100
AcDbEntity
  8
_LEGENDE
  6
ByBlock
 62
    0
370
   -2
100
AcDbLine
 10
6298.4375
 20
3000
 11
6096.875
 21
3000
  0
ENDBLK
  5
6D
330
6B
100
AcDbEntity
  8
0
100
AcDbBlockEnd
  0
BLOCK
  5
6F
330
6E
100
AcDbEntity
  8
0
100
AcDbBlockBegin
  2
*D14
 70
    1
 10
0
 20
0
  3
*D14
  1

  0
LINE
  5
C8
100
AcDbEntity
  8
_LEGENDE
  6
ByBlock
 62
    0
370
   -2
100
AcDbLine
 10
3200
 20
707.5270681680922
 11
3200
 21
2703.125
  0
LINE
  5
C9
100
AcDbEntity
  8
_LEGENDE
  6
ByBlock
 62
    0
370
   -2
100
AcDbLine
 10
4700
 20
707.5270681680922
 11
4700
 21
2703.125
  0
LINE
  5
CA
100
AcDbEntity
  8
_LEGENDE
  6
ByBlock
 62
    0
370
   -2
100
AcDbLine
 10
3200
 20
2700
 11
4700
 21
2700
  0
MTEXT
  5
CB
100
AcDbEntity
  8
_LEGENDE
  6
CONTINUOUS
 62
    0
370
   -2
100
AcDbMText
 10
3950
 20
2752.5
 30
0
 40
100
 41
255.5555555555617
 71
    5
 72
    1
  1
1500
  7
standard
210
0
220
0
230
1
 50
0
 73
    2
 44
1
  0
SOLID
  5
CC
100
AcDbEntity
  8
_LEGENDE
  6
ByBlock
 62
    0
370
   -2
100
AcDbTrace
 10
3200
 20
2700
 30
0
 11
3225
 21
2704.162846577728
 31
0
 12
3225
 22
2695.837153422272
 32
0
 13
3225
 23
2695.837153422272
 33
0
  0
SOLID
  5
CD
100
AcDbEntity
  8
_LEGENDE
  6
ByBlock
 62
    0
370
   -2
100
AcDbTrace
 10
4700
 20
2700
 30
0
 11
4675
 21
2695.837153422272
 31
0
 12
4675
 22
2704.162846577728
 32
0
 13
4675
 23
2704.162846577728
 33
0
  0
ENDBLK
  5
70
330
6E
100
AcDbEntity
  8
0
100
AcDbBlockEnd
  0
BLOCK
  5
72
330
71
100
AcDbEntity
  8
0
100
AcDbBlockBegin
  2
*D9
 70
    1
 10
0
 20
0
  3
*D9
  1

  0
LINE
  5
CE
100
AcDbEntity
  8
_LEGENDE
  6
ByBlock
 62
    0
370
   -2
100
AcDbLine
 10
10400
 20
3000
 11
10400
 21
5.964568168092228
  0
MTEXT
  5
CF
100
AcDbEntity
  8
_LEGENDE
  6
CONTINUOUS
 62
    0
370
   -2
100
AcDbMText
 10
10347.5
 20
1502.982284084046
 30
0
 40
100
 41
288.8888888888889
 71
    5
 72
    1
  1
2994
  7
standard
210
0
220
0
230
1
 50
90
 73
    2
 44
1
  0
SOLID
  5
D0
100
AcDbEntity
  8
_LEGENDE
  6
ByBlock
 62
    0
370
   -2
100
AcDbTrace
 10
10400
 20
3000
 30
0
 11
10404.16284657773
 21
2975
 31
0
 12
10395.83715342227
 22
2975
 32
0
 13
10395.83715342227
 23
2975
 33
0
  0
SOLID
  5
D1
100
AcDbEntity
  8
_LEGENDE
  6
ByBlock
 62
    0
370
   -2
100
AcDbTrace
 10
10400
 20
5.964568168092228
 30
0
 11
10395.83715342227
 21
30.96456816809223
 31
0
 12
10404.16284657773
 22
30.96456816809223
 32
0
 13
10404.16284657773
 23
30.96456816809223
 33
0
  0
LINE
  5
D2
100
AcDbEntity
  8
_LEGENDE
  6
ByBlock
 62
    0
370
   -2
100
AcDbLine
 10
10643.4375
 20
3000
 11
10396.875
 21
3000
  0
LINE
  5
D3
100
AcDbEntity
  8
_LEGENDE
  6
ByBlock
 62
    0
370
   -2
100
AcDbLine
 10
10643.4375
 20
5.964568168092228
 11
10396.875
 21
5.964568168092228
  0
ENDBLK
  5
73
330
71
100
AcDbEntity
  8
0
100
AcDbBlockEnd
  0
BLOCK
  5
75
330
74
100
AcDbEntity
  8
0
100
AcDbBlockBegin
  2
*D5
 70
    1
 10
0
 20
0
  3
*D5
  1

  0
LINE
  5
D4
100
AcDbEntity
  8
_LEGENDE
  6
ByBlock
 62
    0
370
   -2
100
AcDbLine
 10
4500
 20
5.964568168092683
 11
4500
 21
3000
  0
MTEXT
  5
D5
100
AcDbEntity
  8
_LEGENDE
  6
CONTINUOUS
 62
    0
370
   -2
100
AcDbMText
 10
4447.5
 20
1502.982284084046
 30
0
 40
100
 41
288.8888888888889
 71
    5
 72
    1
  1
2994
  7
standard
210
0
220
0
230
1
 50
90
 73
    2
 44
1
  0
SOLID
  5
D6
100
AcDbEntity
  8
_LEGENDE
  6
ByBlock
 62
    0
370
   -2
100
AcDbTrace
 10
4500
 20
5.964568168092683
 30
0
 11
4495.837153422272
 21
30.96456816809268
 31
0
 12
4504.162846577728
 22
30.96456816809268
 32
0
 13
4504.162846577728
 23
30.96456816809268
 33
0
  0
SOLID
  5
D7
100
AcDbEntity
  8
_LEGENDE
  6
ByBlock
 62
    0
370
   -2
100
AcDbTrace
 10
4500
 20
3000
 30
0
 11
4504.162846577728
 21
2975
 31
0
 12
4495.837153422272
 22
2975
 32
0
 13
4495.837153422272
 23
2975
 33
0
  0
LINE
  5
D8
100
AcDbEntity
  8
_LEGENDE
  6
ByBlock
 62
    0
370
   -2
100
AcDbLine
 10
4698.4375
 20
5.964568168092232
 11
4496.875
 21
5.96456816809269
  0
LINE
  5
D9
100
AcDbEntity
  8
_LEGENDE
  6
ByBlock
 62
    0
370
   -2
100
AcDbLine
 10
4698.4375
 20
3000
 11
4496.875
 21
3000
  0
ENDBLK
  5
76
330
74
100
AcDbEntity
  8
0
100
AcDbBlockEnd
  0
BLOCK
  5
78
330
77
100
AcDbEntity
  8
0
100
AcDbBlockBegin
  2
*D20
 70
    1
 10
0
 20
0
  3
*D20
  1

  0
LINE
  5
DA
100
AcDbEntity
  8
_LEGENDE
  6
ByBlock
 62
    0
370
   -2
100
AcDbLine
 10
12800
 20
1451.5625
 11
12800
 21
2703.125
  0
LINE
  5
DB
100
AcDbEntity
  8
_LEGENDE
  6
ByBlock
 62
    0
370
   -2
100
AcDbLine
 10
13845
 20
1451.5625
 11
13845
 21
2703.125
  0
LINE
  5
DC
100
AcDbEntity
  8
_LEGENDE
  6
ByBlock
 62
    0
370
   -2
100
AcDbLine
 10
12800
 20
2700
 11
13845
 21
2700
  0
MTEXT
  5
DD
100
AcDbEntity
  8
_LEGENDE
  6
CONTINUOUS
 62
    0
370
   -2
100
AcDbMText
 10
13322.5
 20
2752.5
 30
0
 40
100
 41
266.6666666666729
 71
    5
 72
    1
  1
1045
  7
standard
210
0
220
0
230
1
 50
0
 73
    2
 44
1
  0
SOLID
  5
DE
100
AcDbEntity
  8
_LEGENDE
  6
ByBlock
 62
    0
370
   -2
100
AcDbTrace
 10
12800
 20
2700
 30
0
 11
12825
 21
2704.162846577728
 31
0
 12
12825
 22
2695.837153422272
 32
0
 13
12825
 23
2695.837153422272
 33
0
  0
SOLID
  5
DF
100
AcDbEntity
  8
_LEGENDE
  6
ByBlock
 62
    0
370
   -2
100
AcDbTrace
 10
13845
 20
2700
 30
0
 11
13820
 21
2695.837153422272
 31
0
 12
13820
 22
2704.162846577728
 32
0
 13
13820
 23
2704.162846577728
 33
0
  0
ENDBLK
  5
79
330
77
100
AcDbEntity
  8
0
100
AcDbBlockEnd
  0
BLOCK
  5
7B
330
7A
100
AcDbEntity
  8
0
100
AcDbBlockBegin
  2
*D19
 70
    1
 10
0
 20
0
  3
*D19
  1

  0
LINE
  5
E0
100
AcDbEntity
  8
_LEGENDE
  6
ByBlock
 62
    0
370
   -2
100
AcDbLine
 10
11200
 20
1451.5625
 11
11200
 21
2703.125
  0
LINE
  5
E1
100
AcDbEntity
  8
_LEGENDE
  6
ByBlock
 62
    0
370
   -2
100
AcDbLine
 10
12245
 20
1451.5625
 11
12245
 21
2703.125
  0
LINE
  5
E2
100
AcDbEntity
  8
_LEGENDE
  6
ByBlock
 62
    0
370
   -2
100
AcDbLine
 10
11200
 20
2700
 11
12245
 21
2700
  0
MTEXT
  5
E3
100
AcDbEntity
  8
_LEGENDE
  6
CONTINUOUS
 62
    0
370
   -2
100
AcDbMText
 10
11722.5
 20
2752.5
 30
0
 40
100
 41
266.6666666666729
 71
    5
 72
    1
  1
1045
  7
standard
210
0
220
0
230
1
 50
0
 73
    2
 44
1
  0
SOLID
  5
E4
100
AcDbEntity
  8
_LEGENDE
  6
ByBlock
 62
    0
370
   -2
100
AcDbTrace
 10
11200
 20
2700
 30
0
 11
11225
 21
2704.162846577728
 31
0
 12
11225
 22
2695.837153422272
 32
0
 13
11225
 23
2695.837153422272
 33
0
  0
SOLID
  5
E5
100
AcDbEntity
  8
_LEGENDE
  6
ByBlock
 62
    0
370
   -2
100
AcDbTrace
 10
12245
 20
2700
 30
0
 11
12220
 21
2695.837153422272
 31
0
 12
12220
 22
2704.162846577728
 32
0
 13
12220
 23
2704.162846577728
 33
0
  0
ENDBLK
  5
7C
330
7A
100
AcDbEntity
  8
0
100
AcDbBlockEnd
  0
BLOCK
  5
7E
330
7D
100
AcDbEntity
  8
0
100
AcDbBlockBegin
  2
*D8
 70
    1
 10
0
 20
0
  3
*D8
  1

  0
LINE
  5
E6
100
AcDbEntity
  8
_LEGENDE
  6
ByBlock
 62
    0
370
   -2
100
AcDbLine
 10
8800
 20
5.964568168092683
 11
8800
 21
3000
  0
MTEXT
  5
E7
100
AcDbEntity
  8
_LEGENDE
  6
CONTINUOUS
 62
    0
370
   -2
100
AcDbMText
 10
8747.5
 20
1502.982284084046
 30
0
 40
100
 41
288.8888888888889
 71
    5
 72
    1
  1
2994
  7
standard
210
0
220
0
230
1
 50
90
 73
    2
 44
1
  0
SOLID
  5
E8
100
AcDbEntity
  8
_LEGENDE
  6
ByBlock
 62
    0
370
   -2
100
AcDbTrace
 10
8800
 20
5.964568168092683
 30
0
 11
8795.837153422272
 21
30.96456816809268
 31
0
 12
8804.162846577728
 22
30.96456816809268
 32
0
 13
8804.162846577728
 23
30.96456816809268
 33
0
  0
SOLID
  5
E9
100
AcDbEntity
  8
_LEGENDE
  6
ByBlock
 62
    0
370
   -2
100
AcDbTrace
 10
8800
 20
3000
 30
0
 11
8804.162846577728
 21
2975
 31
0
 12
8795.837153422272
 22
2975
 32
0
 13
8795.837153422272
 23
2975
 33
0
  0
LINE
  5
EA
100
AcDbEntity
  8
_LEGENDE
  6
ByBlock
 62
    0
370
   -2
100
AcDbLine
 10
8928.4375
 20
5.964568168092233
 11
8796.875
 21
5.964568168092694
  0
LINE
  5
EB
100
AcDbEntity
  8
_LEGENDE
  6
ByBlock
 62
    0
370
   -2
100
AcDbLine
 10
8928.4375
 20
3000
 11
8796.875
 21
3000
  0
ENDBLK
  5
7F
330
7D
100
AcDbEntity
  8
0
100
AcDbBlockEnd
  0
BLOCK
  5
81
330
80
100
AcDbEntity
  8
0
100
AcDbBlockBegin
  2
*D13
 70
    1
 10
0
 20
0
  3
*D13
  1

  0
LINE
  5
EC
100
AcDbEntity
  8
_LEGENDE
  6
ByBlock
 62
    0
370
   -2
100
AcDbLine
 10
1600
 20
2700
 11
2828
 21
2700
  0
MTEXT
  5
ED
100
AcDbEntity
  8
_LEGENDE
  6
CONTINUOUS
 62
    0
370
   -2
100
AcDbMText
 10
2214
 20
2752.5
 30
0
 40
100
 41
255.5555555555555
 71
    5
 72
    1
  1
1228
  7
standard
210
0
220
0
230
1
 50
0
 73
    2
 44
1
  0
SOLID
  5
EE
100
AcDbEntity
  8
_LEGENDE
  6
ByBlock
 62
    0
370
   -2
100
AcDbTrace
 10
1600
 20
2700
 30
0
 11
1625
 21
2704.162846577728
 31
0
 12
1625
 22
2695.837153422272
 32
0
 13
1625
 23
2695.837153422272
 33
0
  0
SOLID
  5
EF
100
AcDbEntity
  8
_LEGENDE
  6
ByBlock
 62
    0
370
   -2
100
AcDbTrace
 10
2828
 20
2700
 30
0
 11
2803
 21
2695.837153422272
 31
0
 12
2803
 22
2704.162846577728
 32
0
 13
2803
 23
2704.162846577728
 33
0
  0
LINE
  5
F0
100
AcDbEntity
  8
_LEGENDE
  6
ByBlock
 62
    0
370
   -2
100
AcDbLine
 10
1600
 20
1891.5625
 11
1600
 21
2703.125
  0
LINE
  5
F1
100
AcDbEntity
  8
_LEGENDE
  6
ByBlock
 62
    0
370
   -2
100
AcDbLine
 10
2828
 20
1891.5625
 11
2828
 21
2703.125
  0
ENDBLK
  5
82
330
80
100
AcDbEntity
  8
0
100
AcDbBlockEnd
  0
BLOCK
  5
84
330
83
100
AcDbEntity
  8
0
100
AcDbBlockBegin
  2
*D4
 70
    1
 10
0
 20
0
  3
*D4
  1

  0
LINE
  5
F2
100
AcDbEntity
  8
_LEGENDE
  6
ByBlock
 62
    0
370
   -2
100
AcDbLine
 10
2700
 20
9.320000000006985
 11
2700
 21
1190
  0
MTEXT
  5
F3
100
AcDbEntity
  8
_LEGENDE
  6
CONTINUOUS
 62
    0
370
   -2
100
AcDbMText
 10
2647.5
 20
599.6600000000035
 30
0
 40
100
 41
211.1111111111111
 71
    5
 72
    1
  1
1181
  7
standard
210
0
220
0
230
1
 50
90
 73
    2
 44
1
  0
SOLID
  5
F4
100
AcDbEntity
  8
_LEGENDE
  6
ByBlock
 62
    0
370
   -2
100
AcDbTrace
 10
2700
 20
9.320000000006985
 30
0
 11
2695.837153422272
 21
34.32000000000698
 31
0
 12
2704.162846577728
 22
34.32000000000698
 32
0
 13
2704.162846577728
 23
34.32000000000698
 33
0
  0
SOLID
  5
F5
100
AcDbEntity
  8
_LEGENDE
  6
ByBlock
 62
    0
370
   -2
100
AcDbTrace
 10
2700
 20
1190
 30
0
 11
2704.162846577728
 21
1165
 31
0
 12
2695.837153422272
 22
1165
 32
0
 13
2695.837153422272
 23
1165
 33
0
  0
LINE
  5
F6
100
AcDbEntity
  8
_LEGENDE
  6
ByBlock
 62
    0
370
   -2
100
AcDbLine
 10
2864.9375
 20
9.320000000006985
 11
2696.875
 21
9.320000000006985
  0
LINE
  5
F7
100
AcDbEntity
  8
_LEGENDE
  6
ByBlock
 62
    0
370
   -2
100
AcDbLine
 10
2864.9375
 20
1190
 11
2696.875
 21
1190
  0
ENDBLK
  5
85
330
83
100
AcDbEntity
  8
0
100
AcDbBlockEnd
  0
BLOCK
  5
87
330
86
100
AcDbEntity
  8
0
100
AcDbBlockBegin
  2
*D7
 70
    1
 10
0
 20
0
  3
*D7
  1

  0
LINE
  5
F8
100
AcDbEntity
  8
_LEGENDE
  6
ByBlock
 62
    0
370
   -2
100
AcDbLine
 10
7500
 20
5.964568168092683
 11
7500
 21
3000
  0
MTEXT
  5
F9
100
AcDbEntity
  8
_LEGENDE
  6
CONTINUOUS
 62
    0
370
   -2
100
AcDbMText
 10
7447.5
 20
1502.982284084046
 30
0
 40
100
 41
288.8888888888889
 71
    5
 72
    1
  1
2994
  7
standard
210
0
220
0
230
1
 50
90
 73
    2
 44
1
  0
SOLID
  5
FA
100
AcDbEntity
  8
_LEGENDE
  6
ByBlock
 62
    0
370
   -2
100
AcDbTrace
 10
7500
 20
5.964568168092683
 30
0
 11
7495.837153422272
 21
30.96456816809268
 31
0
 12
7504.162846577728
 22
30.96456816809268
 32
0
 13
7504.162846577728
 23
30.96456816809268
 33
0
  0
SOLID
  5
FB
100
AcDbEntity
  8
_LEGENDE
  6
ByBlock
 62
    0
370
   -2
100
AcDbTrace
 10
7500
 20
3000
 30
0
 11
7504.162846577728
 21
2975
 31
0
 12
7495.837153422272
 22
2975
 32
0
 13
7495.837153422272
 23
2975
 33
0
  0
LINE
  5
FC
100
AcDbEntity
  8
_LEGENDE
  6
ByBlock
 62
    0
370
   -2
100
AcDbLine
 10
7708.4375
 20
5.964568168092232
 11
7496.875
 21
5.96456816809269
  0
LINE
  5
FD
100
AcDbEntity
  8
_LEGENDE
  6
ByBlock
 62
    0
370
   -2
100
AcDbLine
 10
7708.4375
 20
3000
 11
7496.875
 21
3000
  0
ENDBLK
  5
88
330
86
100
AcDbEntity
  8
0
100
AcDbBlockEnd
  0
BLOCK
  5
8A
330
89
100
AcDbEntity
  8
0
100
AcDbBlockBegin
  2
*D12
 70
    1
 10
0
 20
0
  3
*D12
  1

  0
LINE
  5
FE
100
AcDbEntity
  8
_LEGENDE
  6
ByBlock
 62
    0
370
   -2
100
AcDbLine
 10
0
 20
2700
 11
1228
 21
2700
  0
MTEXT
  5
FF
100
AcDbEntity
  8
_LEGENDE
  6
CONTINUOUS
 62
    0
370
   -2
100
AcDbMText
 10
614
 20
2752.5
 30
0
 40
100
 41
255.5555555555555
 71
    5
 72
    1
  1
1228
  7
standard
210
0
220
0
230
1
 50
0
 73
    2
 44
1
  0
SOLID
  5
100
100
AcDbEntity
  8
_LEGENDE
  6
ByBlock
 62
    0
370
   -2
100
AcDbTrace
 10
0
 20
2700
 30
0
 11
25
 21
2704.162846577728
 31
0
 12
25
 22
2695.837153422272
 32
0
 13
25
 23
2695.837153422272
 33
0
  0
SOLID
  5
101
100
AcDbEntity
  8
_LEGENDE
  6
ByBlock
 62
    0
370
   -2
100
AcDbTrace
 10
1228
 20
2700
 30
0
 11
1203
 21
2695.837153422272
 31
0
 12
1203
 22
2704.162846577728
 32
0
 13
1203
 23
2704.162846577728
 33
0
  0
LINE
  5
102
100
AcDbEntity
  8
_LEGENDE
  6
ByBlock
 62
    0
370
   -2
100
AcDbLine
 10
9.567553118338697e-17
 20
1891.5625
 11
1.913510623667739e-16
 21
2703.125
  0
LINE
  5
103
100
AcDbEntity
  8
_LEGENDE
  6
ByBlock
 62
    0
370
   -2
100
AcDbLine
 10
1228
 20
1891.5625
 11
1228
 21
2703.125
  0
ENDBLK
  5
8B
330
89
100
AcDbEntity
  8
0
100
AcDbBlockEnd
  0
ENDSEC
  0
SECTION
  2
ENTITIES
  0
LWPOLYLINE
  5
104
100
AcDbEntity
  8
1-tole-detail
  6
ByLayer
 62
  256
370
   -1
100
AcDbPolyline
 90
    4
 70
    1
 43
0
 10
1600
 20
0
 10
3100
 20
0
 10
3100
 20
3000
 10
1600
 20
3000
  0
LWPOLYLINE
  5
105
100
AcDbEntity
  8
1-tole-detail
  6
ByLayer
 62
  256
370
   -1
100
AcDbPolyline
 90
    4
 70
    1
 43
0
 10
3200
 20
0
 10
4700
 20
0
 10
4700
 20
3000
 10
3200
 20
3000
  0
LWPOLYLINE
  5
106
100
AcDbEntity
  8
1-tole-detail
  6
ByLayer
 62
  256
370
   -1
100
AcDbPolyline
 90
    4
 70
    1
 43
0
 10
4800
 20
0
 10
6300
 20
0
 10
6300
 20
3000
 10
4800
 20
3000
  0
LWPOLYLINE
  5
107
100
AcDbEntity
  8
1-tole-detail
  6
ByLayer
 62
  256
370
   -1
100
AcDbPolyline
 90
    4
 70
    1
 43
0
 10
6400
 20
0
 10
7900
 20
0
 10
7900
 20
3000
 10
6400
 20
3000
  0
LWPOLYLINE
  5
108
100
AcDbEntity
  8
1-tole-detail
  6
ByLayer
 62
  256
370
   -1
100
AcDbPolyline
 90
    4
 70
    1
 43
0
 10
8000
 20
0
 10
9500
 20
0
 10
9500
 20
3000
 10
8000
 20
3000
  0
LWPOLYLINE
  5
109
100
AcDbEntity
  8
1-tole-detail
  6
ByLayer
 62
  256
370
   -1
100
AcDbPolyline
 90
    4
 70
    1
 43
0
 10
9600
 20
0
 10
11100
 20
0
 10
11100
 20
3000
 10
9600
 20
3000
  0
LWPOLYLINE
  5
10A
100
AcDbEntity
  8
1-tole-detail
  6
ByLayer
 62
  256
370
   -1
100
AcDbPolyline
 90
    4
 70
    1
 43
0
 10
11200
 20
0
 10
12700
 20
0
 10
12700
 20
3000
 10
11200
 20
3000
  0
LWPOLYLINE
  5
10B
100
AcDbEntity
  8
1-tole-detail
  6
ByLayer
 62
  256
370
   -1
100
AcDbPolyline
 90
    4
 70
    1
 43
0
 10
12800
 20
0
 10
14300
 20
0
 10
14300
 20
3000
 10
12800
 20
3000
  0
LWPOLYLINE
  5
10C
100
AcDbEntity
  8
1-tole-detail
  6
ByLayer
 62
  256
370
   -1
100
AcDbPolyline
 90
    4
 70
    1
 43
0
 10
2828
 20
3000
 10
1600
 20
3000
 10
1600
 20
1190
 10
2828
 20
1190
  0
LWPOLYLINE
  5
10D
100
AcDbEntity
  8
1-tole-detail
  6
ByLayer
 62
  256
370
   -1
100
AcDbPolyline
 90
    4
 70
    1
 43
0
 10
3200
 20
3000
 10
4700
 20
3000
 10
4700
 20
5.964568168092228
 10
3200
 20
5.964568168092228
  0
LWPOLYLINE
  5
10E
100
AcDbEntity
  8
1-tole-detail
  6
ByLayer
 62
  256
370
   -1
100
AcDbPolyline
 90
    4
 70
    1
 43
0
 10
4800
 20
5.964568168092228
 10
6300
 20
5.964568168092228
 10
6300
 20
3000
 10
4800
 20
3000
  0
LWPOLYLINE
  5
10F
100
AcDbEntity
  8
1-tole-detail
  6
ByLayer
 62
  256
370
   -1
100
AcDbPolyline
 90
    4
 70
    1
 43
0
 10
6400
 20
3000
 10
7710
 20
3000
 10
7710
 20
5.964568168092228
 10
6400
 20
5.964568168092228
  0
LWPOLYLINE
  5
110
100
AcDbEntity
  8
1-tole-detail
  6
ByLayer
 62
  256
370
   -1
100
AcDbPolyline
 90
    4
 70
    1
 43
0
 10
8000
 20
5.964568168092228
 10
8930
 20
5.964568168092228
 10
8930
 20
3000
 10
8000
 20
3000
  0
LWPOLYLINE
  5
111
100
AcDbEntity
  8
1-tole-detail
  6
ByLayer
 62
  256
370
   -1
100
AcDbPolyline
 90
    4
 70
    1
 43
0
 10
9600
 20
3000
 10
10645
 20
3000
 10
10645
 20
5.964568168092228
 10
9600
 20
5.964568168092228
  0
LWPOLYLINE
  5
112
100
AcDbEntity
  8
1-tole-detail
  6
ByLayer
 62
  256
370
   -1
100
AcDbPolyline
 90
    4
 70
    1
 43
0
 10
11200
 20
750
 10
12245
 20
750
 10
12245
 20
3000
 10
11200
 20
3000
  0
LWPOLYLINE
  5
113
100
AcDbEntity
  8
1-tole-detail
  6
ByLayer
 62
  256
370
   -1
100
AcDbPolyline
 90
    4
 70
    1
 43
0
 10
12800
 20
750
 10
13845
 20
750
 10
13845
 20
3000
 10
12800
 20
3000
  0
LINE
  5
114
100
AcDbEntity
  8
1-tole-detail
  6
ByLayer
 62
  256
370
   -1
100
AcDbLine
 10
2866.5
 20
1190
 11
1600
 21
1190
  0
LINE
  5
115
100
AcDbEntity
  8
1-tole-detail
  6
ByLayer
 62
  256
370
   -1
100
AcDbLine
 10
1600
 20
9.320000000006985
 11
1600
 21
1190
  0
LINE
  5
116
100
AcDbEntity
  8
1-tole-detail
  6
ByLayer
 62
  256
370
   -1
100
AcDbLine
 10
2866.5
 20
1190
 11
2866.5
 21
9.320000000006985
  0
LWPOLYLINE
  5
117
100
AcDbEntity
  8
1-tole-detail
  6
ByLayer
 62
  256
370
   -1
100
AcDbPolyline
 90
    4
 70
    1
 43
0
 10
0
 20
0
 10
1500
 20
0
 10
1500
 20
3000
 10
0
 20
3000
  0
LWPOLYLINE
  5
118
100
AcDbEntity
  8
1-tole-detail
  6
ByLayer
 62
  256
370
   -1
100
AcDbPolyline
 90
    4
 70
    1
 43
0
 10
1228
 20
3000
 10
0
 20
3000
 10
0
 20
1190
 10
1228
 20
1190
  0
MTEXT
  5
119
100
AcDbEntity
  8
_LEGENDE
  6
ByLayer
 62
  256
370
   -1
100
AcDbMText
 10
50
 20
1240
 30
0
 40
100
 41
133.3333121331184
 71
    7
 72
    1
  1
S2
  7
standard
210
0
220
0
230
1
 50
0
 73
    2
 44
1
  0
MTEXT
  5
11A
100
AcDbEntity
  8
_LEGENDE
  6
ByLayer
 62
  256
370
   -1
100
AcDbMText
 10
1650
 20
1240
 30
0
 40
100
 41
133.3333121331246
 71
    7
 72
    1
  1
S3
  7
standard
210
0
220
0
230
1
 50
0
 73
    2
 44
1
  0
MTEXT
  5
11B
100
AcDbEntity
  8
_LEGENDE
  6
ByLayer
 62
  256
370
   -1
100
AcDbMText
 10
1650
 20
59.32000000000698
 30
0
 40
100
 41
133.3333333333395
 71
    7
 72
    1
  1
N5
  7
standard
210
0
220
0
230
1
 50
0
 73
    2
 44
1
  0
MTEXT
  5
11C
100
AcDbEntity
  8
_LEGENDE
  6
ByLayer
 62
  256
370
   -1
100
AcDbMText
 10
3250
 20
55.96456816809223
 30
0
 40
100
 41
122.2222222222346
 71
    7
 72
    1
  1
C5
  7
standard
210
0
220
0
230
1
 50
0
 73
    2
 44
1
  0
MTEXT
  5
11D
100
AcDbEntity
  8
_LEGENDE
  6
ByLayer
 62
  256
370
   -1
100
AcDbMText
 10
4850
 20
55.96456816809223
 30
0
 40
100
 41
133.3333333333395
 71
    7
 72
    1
  1
C4
  7
standard
210
0
220
0
230
1
 50
0
 73
    2
 44
1
  0
MTEXT
  5
11E
100
AcDbEntity
  8
_LEGENDE
  6
ByLayer
 62
  256
370
   -1
100
AcDbMText
 10
6450
 20
55.96456816809223
 30
0
 40
100
 41
122.2222222222346
 71
    7
 72
    1
  1
C3
  7
standard
210
0
220
0
230
1
 50
0
 73
    2
 44
1
  0
MTEXT
  5
11F
100
AcDbEntity
  8
_LEGENDE
  6
ByLayer
 62
  256
370
   -1
100
AcDbMText
 10
8050
 20
55.96456816809223
 30
0
 40
100
 41
122.2222222222284
 71
    7
 72
    1
  1
C2
  7
standard
210
0
220
0
230
1
 50
0
 73
    2
 44
1
  0
MTEXT
  5
120
100
AcDbEntity
  8
_LEGENDE
  6
ByLayer
 62
  256
370
   -1
100
AcDbMText
 10
9650
 20
55.96456816809223
 30
0
 40
100
 41
100.0000000000062
 71
    7
 72
    1
  1
C1
  7
standard
210
0
220
0
230
1
 50
0
 73
    2
 44
1
  0
MTEXT
  5
121
100
AcDbEntity
  8
_LEGENDE
  6
ByLayer
 62
  256
370
   -1
100
AcDbMText
 10
11250
 20
800
 30
0
 40
100
 41
100
 71
    7
 72
    1
  1
E1
  7
standard
210
0
220
0
230
1
 50
0
 73
    2
 44
1
  0
MTEXT
  5
122
100
AcDbEntity
  8
_LEGENDE
  6
ByLayer
 62
  256
370
   -1
100
AcDbMText
 10
12850
 20
800
 30
0
 40
100
 41
144.4444444444444
 71
    7
 72
    1
  1
W1
  7
standard
210
0
220
0
230
1
 50
0
 73
    2
 44
1
  0
DIMENSION
  5
123
100
AcDbEntity
  8
_LEGENDE
  6
ByLayer
 62
  256
370
   -1
100
AcDbDimension
  2
*D1
 10
1100
 20
3000
 30
0
 11
1047.5
 21
2095
 31
0
 70
   32
 71
    5
  3
Standard
 53
0
210
0
220
0
230
1
100
AcDbAlignedDimension
 13
1228
 23
1190
 33
0
 14
1228
 24
3000
 34
0
 50
90
100
AcDbRotatedDimension
  0
DIMENSION
  5
124
100
AcDbEntity
  8
_LEGENDE
  6
ByLayer
 62
  256
370
   -1
100
AcDbDimension
  2
*D2
 10
2700
 20
1190
 30
0
 11
2647.5
 21
2095
 31
0
 70
   32
 71
    5
  3
Standard
 53
0
210
0
220
0
230
1
100
AcDbAlignedDimension
 13
2828
 23
3000
 33
0
 14
2828
 24
1190
 34
0
 50
90
100
AcDbRotatedDimension
  0
LINE
  5
125
100
AcDbEntity
  8
1-tole-detail
  6
ByLayer
 62
  256
370
   -1
100
AcDbLine
 10
2866.5
 20
9.320000000006985
 11
1600
 21
9.320000000006985
  0
DIMENSION
  5
126
100
AcDbEntity
  8
_LEGENDE
  6
ByLayer
 62
  256
370
   -1
100
AcDbDimension
  2
*D3
 10
2866.5
 20
999.9999999999999
 30
0
 11
2233.25
 21
1052.5
 31
0
 70
   32
 71
    5
  3
Standard
 53
0
210
0
220
0
230
1
100
AcDbAlignedDimension
 13
1600
 23
9.320000000006985
 33
0
 14
2866.5
 24
9.320000000006985
 34
0
100
AcDbRotatedDimension
  0
DIMENSION
  5
127
100
AcDbEntity
  8
_LEGENDE
  6
ByLayer
 62
  256
370
   -1
100
AcDbDimension
  2
*D4
 10
2700
 20
1190
 30
0
 11
2647.5
 21
599.6600000000035
 31
0
 70
   32
 71
    5
  3
Standard
 53
0
210
0
220
0
230
1
100
AcDbAlignedDimension
 13
2866.5
 23
9.320000000006985
 33
0
 14
2866.5
 24
1190
 34
0
 50
90
100
AcDbRotatedDimension
  0
DIMENSION
  5
128
100
AcDbEntity
  8
_LEGENDE
  6
ByLayer
 62
  256
370
   -1
100
AcDbDimension
  2
*D5
 10
4500
 20
3000
 30
0
 11
4447.5
 21
1502.982284084046
 31
0
 70
   32
 71
    5
  3
Standard
 53
0
210
0
220
0
230
1
100
AcDbAlignedDimension
 13
4700
 23
5.964568168092228
 33
0
 14
4700
 24
3000
 34
0
 50
90
100
AcDbRotatedDimension
  0
DIMENSION
  5
129
100
AcDbEntity
  8
_LEGENDE
  6
ByLayer
 62
  256
370
   -1
100
AcDbDimension
  2
*D6
 10
6100
 20
3000
 30
0
 11
6047.5
 21
1502.982284084046
 31
0
 70
   32
 71
    5
  3
Standard
 53
0
210
0
220
0
230
1
100
AcDbAlignedDimension
 13
6300
 23
5.964568168092228
 33
0
 14
6300
 24
3000
 34
0
 50
90
100
AcDbRotatedDimension
  0
DIMENSION
  5
12A
100
AcDbEntity
  8
_LEGENDE
  6
ByLayer
 62
  256
370
   -1
100
AcDbDimension
  2
*D7
 10
7500
 20
3000
 30
0
 11
7447.5
 21
1502.982284084046
 31
0
 70
   32
 71
    5
  3
Standard
 53
0
210
0
220
0
230
1
100
AcDbAlignedDimension
 13
7710
 23
5.964568168092228
 33
0
 14
7710
 24
3000
 34
0
 50
90
100
AcDbRotatedDimension
  0
DIMENSION
  5
12B
100
AcDbEntity
  8
_LEGENDE
  6
ByLayer
 62
  256
370
   -1
100
AcDbDimension
  2
*D8
 10
8800
 20
3000
 30
0
 11
8747.5
 21
1502.982284084046
 31
0
 70
   32
 71
    5
  3
Standard
 53
0
210
0
220
0
230
1
100
AcDbAlignedDimension
 13
8930
 23
5.964568168092228
 33
0
 14
8930
 24
3000
 34
0
 50
90
100
AcDbRotatedDimension
  0
DIMENSION
  5
12C
100
AcDbEntity
  8
_LEGENDE
  6
ByLayer
 62
  256
370
   -1
100
AcDbDimension
  2
*D9
 10
10400
 20
5.964568168092258
 30
0
 11
10347.5
 21
1502.982284084046
 31
0
 70
   32
 71
    5
  3
Standard
 53
0
210
0
220
0
230
1
100
AcDbAlignedDimension
 13
10645
 23
3000
 33
0
 14
10645
 24
5.964568168092228
 34
0
 50
90
100
AcDbRotatedDimension
  0
DIMENSION
  5
12D
100
AcDbEntity
  8
_LEGENDE
  6
ByLayer
 62
  256
370
   -1
100
AcDbDimension
  2
*D10
 10
12000
 20
3000
 30
0
 11
11947.5
 21
1875
 31
0
 70
   32
 71
    5
  3
Standard
 53
0
210
0
220
0
230
1
100
AcDbAlignedDimension
 13
12245
 23
750
 33
0
 14
12245
 24
3000
 34
0
 50
90
100
AcDbRotatedDimension
  0
DIMENSION
  5
12E
100
AcDbEntity
  8
_LEGENDE
  6
ByLayer
 62
  256
370
   -1
100
AcDbDimension
  2
*D11
 10
13600
 20
3000
 30
0
 11
13547.5
 21
1875
 31
0
 70
   32
 71
    5
  3
Standard
 53
0
210
0
220
0
230
1
100
AcDbAlignedDimension
 13
13845
 23
750
 33
0
 14
13845
 24
3000
 34
0
 50
90
100
AcDbRotatedDimension
  0
DIMENSION
  5
12F
100
AcDbEntity
  8
_LEGENDE
  6
ByLayer
 62
  256
370
   -1
100
AcDbDimension
  2
*D12
 10
1228
 20
2700
 30
0
 11
614
 21
2752.5
 31
0
 70
   32
 71
    5
  3
Standard
 53
0
210
0
220
0
230
1
100
AcDbAlignedDimension
 13
0
 23
1890
 33
0
 14
1228
 24
1890
 34
0
100
AcDbRotatedDimension
  0
DIMENSION
  5
130
100
AcDbEntity
  8
_LEGENDE
  6
ByLayer
 62
  256
370
   -1
100
AcDbDimension
  2
*D13
 10
2828
 20
2700
 30
0
 11
2214
 21
2752.5
 31
0
 70
   32
 71
    5
  3
Standard
 53
0
210
0
220
0
230
1
100
AcDbAlignedDimension
 13
1600
 23
1890
 33
0
 14
2828
 24
1890
 34
0
100
AcDbRotatedDimension
  0
DIMENSION
  5
131
100
AcDbEntity
  8
_LEGENDE
  6
ByLayer
 62
  256
370
   -1
100
AcDbDimension
  2
*D14
 10
4700
 20
2700
 30
0
 11
3950
 21
2752.5
 31
0
 70
   33
 71
    5
  3
Standard
 53
0
210
0
220
0
230
1
100
AcDbAlignedDimension
 13
3200
 23
705.9645681680922
 33
0
 14
4700
 24
705.9645681680922
 34
0
  0
DIMENSION
  5
132
100
AcDbEntity
  8
_LEGENDE
  6
ByLayer
 62
  256
370
   -1
100
AcDbDimension
  2
*D15
 10
6300
 20
2700
 30
0
 11
5550
 21
2752.5
 31
0
 70
   33
 71
    5
  3
Standard
 53
0
210
0
220
0
230
1
100
AcDbAlignedDimension
 13
4800
 23
705.9645681680922
 33
0
 14
6300
 24
705.9645681680922
 34
0
  0
DIMENSION
  5
133
100
AcDbEntity
  8
_LEGENDE
  6
ByLayer
 62
  256
370
   -1
100
AcDbDimension
  2
*D16
 10
7710
 20
2700
 30
0
 11
7055
 21
2752.5
 31
0
 70
   33
 71
    5
  3
Standard
 53
0
210
0
220
0
230
1
100
AcDbAlignedDimension
 13
6399.999999999999
 23
705.9645681680922
 33
0
 14
7710
 24
705.9645681680922
 34
0
  0
DIMENSION
  5
134
100
AcDbEntity
  8
_LEGENDE
  6
ByLayer
 62
  256
370
   -1
100
AcDbDimension
  2
*D17
 10
8930
 20
2700
 30
0
 11
8465
 21
2752.5
 31
0
 70
   33
 71
    5
  3
Standard
 53
0
210
0
220
0
230
1
100
AcDbAlignedDimension
 13
8000.000000000001
 23
705.9645681680922
 33
0
 14
8930
 24
705.9645681680922
 34
0
  0
DIMENSION
  5
135
100
AcDbEntity
  8
_LEGENDE
  6
ByLayer
 62
  256
370
   -1
100
AcDbDimension
  2
*D18
 10
10645
 20
2700
 30
0
 11
10122.5
 21
2752.5
 31
0
 70
   33
 71
    5
  3
Standard
 53
0
210
0
220
0
230
1
100
AcDbAlignedDimension
 13
9600
 23
705.9645681680922
 33
0
 14
10645
 24
705.9645681680922
 34
0
  0
DIMENSION
  5
136
100
AcDbEntity
  8
_LEGENDE
  6
ByLayer
 62
  256
370
   -1
100
AcDbDimension
  2
*D19
 10
12245
 20
2700
 30
0
 11
11722.5
 21
2752.5
 31
0
 70
   33
 71
    5
  3
Standard
 53
0
210
0
220
0
230
1
100
AcDbAlignedDimension
 13
11200
 23
1450
 33
0
 14
12245
 24
1450
 34
0
  0
DIMENSION
  5
137
100
AcDbEntity
  8
_LEGENDE
  6
ByLayer
 62
  256
370
   -1
100
AcDbDimension
  2
*D20
 10
13845
 20
2700
 30
0
 11
13322.5
 21
2752.5
 31
0
 70
   33
 71
    5
  3
Standard
 53
0
210
0
220
0
230
1
100
AcDbAlignedDimension
 13
12800
 23
1450
 33
0
 14
13845
 24
1450
 34
0
  0
ENDSEC
  0
SECTION
  2
OBJECTS
  0
DICTIONARY
  5
C
330
0
100
AcDbDictionary
281
    1
  3
ACAD_GROUP
350
D
  0
DICTIONARY
  5
D
330
C
100
AcDbDictionary
281
    1
  0
PLOTSETTINGS
  5
138
100
AcDbPlotSettings
  6
1x1
 40
0
 41
0
 42
0
 43
0
  0
ENDSEC
  0
EOF
