999
dxfrw 0.6.3
  0
SECTION
  2
HEADER
  9
$ACADVER
  1
AC1021
  9
$DWGCODEPAGE
  3
ANSI_1252
  9
$INSBASE
 10
0
 20
0
 30
0
  9
$EXTMIN
 10
96.00000000000001
 20
-155
 30
0
  9
$EXTMAX
 10
574
 20
155
 30
0
  9
$LIMMIN
 10
0
 20
0
  9
$LIMMAX
 10
420
 20
297
  9
$ORTHOMODE
 70
    0
  9
$REGENMODE
 70
    1
  9
$FILLMODE
 70
    1
  9
$QTEXTMODE
 70
    0
  9
$MIRRTEXT
 70
    0
  9
$LTSCALE
 40
1
  9
$ATTMODE
 70
    0
  9
$TEXTSIZE
 40
2.5
  9
$TRACEWID
 40
15.68
  9
$TEXTSTYLE
  7
STANDARD
  9
$CLAYER
  8
legende
  9
$CELTYPE
  6
BYLAYER
  9
$CECOLOR
 62
  256
  9
$CELTSCALE
 40
1
  9
$DISPSILH
 70
    0
  9
$DIMSCALE
 40
2.5
  9
$DIMASZ
 40
2.5
  9
$DIMEXO
 40
0.625
  9
$DIMDLI
 40
3.75
  9
$DIMRND
 40
0
  9
$DIMDLE
 40
0
  9
$DIMEXE
 40
1.25
  9
$DIMTP
 40
0
  9
$DIMTM
 40
0
  9
$DIMTXT
 40
2.5
  9
$DIMCEN
 40
2.5
  9
$DIMTSZ
 40
0
  9
$DIMTOL
 70
    0
  9
$DIMLIM
 70
    0
  9
$DIMTIH
 70
    0
  9
$DIMTOH
 70
    0
  9
$DIMSE1
 70
    0
  9
$DIMSE2
 70
    0
  9
$DIMTAD
 70
    1
  9
$DIMZIN
 70
    8
  9
$DIMBLK
  1

  9
$DIMASO
 70
    1
  9
$DIMSHO
 70
    1
  9
$DIMPOST
  1

  9
$DIMAPOST
  1

  9
$DIMALT
 70
    0
  9
$DIMALTD
 70
    3
  9
$DIMALTF
 40
0.03937
  9
$DIMLFAC
 40
1
  9
$DIMTOFL
 70
    1
  9
$DIMTVP
 40
0
  9
$DIMTIX
 70
    0
  9
$DIMSOXD
 70
    0
  9
$DIMSAH
 70
    0
  9
$DIMBLK1
  1

  9
$DIMBLK2
  1

  9
$DIMSTYLE
  2
STANDARD
  9
$DIMCLRD
 70
    0
  9
$DIMCLRE
 70
    0
  9
$DIMCLRT
 70
    0
  9
$DIMTFAC
 40
1
  9
$DIMGAP
 40
0.625
  9
$DIMJUST
 70
    0
  9
$DIMSD1
 70
    0
  9
$DIMSD2
 70
    0
  9
$DIMTOLJ
 70
    0
  9
$DIMTZIN
 70
    8
  9
$DIMALTZ
 70
    0
  9
$DIMALTTZ
 70
    0
  9
$DIMUPT
 70
    0
  9
$DIMDEC
 70
    2
  9
$DIMTDEC
 70
    2
  9
$DIMALTU
 70
    2
  9
$DIMALTTD
 70
    3
  9
$DIMTXSTY
  7
standard
  9
$DIMAUNIT
 70
    0
  9
$DIMADEC
 70
    0
  9
$DIMALTRND
 40
0
  9
$DIMAZIN
 70
    0
  9
$DIMDSEP
 70
   44
  9
$DIMATFIT
 70
    3
  9
$DIMFRAC
 70
    0
  9
$DIMLDRBLK
  1
STANDARD
  9
$DIMLUNIT
 70
    2
  9
$DIMLWD
 70
   -2
  9
$DIMLWE
 70
   -2
  9
$DIMTMOVE
 70
    0
  9
$DIMFXL
 40
1
  9
$DIMFXLON
 70
    0
  9
$DIMJOGANG
 40
0.7854
  9
$DIMTFILL
 70
    0
  9
$DIMTFILLCLR
 70
    0
  9
$DIMARCSYM
 70
    0
  9
$DIMLTYPE
  6

  9
$DIMLTEX1
  6

  9
$DIMLTEX2
  6

  9
$LUNITS
 70
    2
  9
$LUPREC
 70
    4
  9
$SKETCHINC
 40
1
  9
$FILLETRAD
 40
0
  9
$AUNITS
 70
    0
  9
$AUPREC
 70
    2
  9
$MENU
  1
.
  9
$ELEVATION
 40
0
  9
$PELEVATION
 40
0
  9
$THICKNESS
 40
0
  9
$LIMCHECK
 70
    0
  9
$CHAMFERA
 40
0
  9
$CHAMFERB
 40
0
  9
$CHAMFERC
 40
0
  9
$CHAMFERD
 40
0
  9
$SKPOLY
 70
    0
  9
$USRTIMER
 70
    1
  9
$ANGBASE
 50
0
  9
$ANGDIR
 70
    0
  9
$PDMODE
 70
   34
  9
$PDSIZE
 40
0
  9
$PLINEWID
 40
0
  9
$SPLFRAME
 70
    0
  9
$SPLINETYPE
 70
    2
  9
$SPLINESEGS
 70
    8
  9
$HANDSEED
  5
20000
  9
$SURFTAB1
 70
    6
  9
$SURFTAB2
 70
    6
  9
$SURFTYPE
 70
    6
  9
$SURFU
 70
    6
  9
$SURFV
 70
    6
  9
$UCSBASE
  2

  9
$UCSNAME
  2

  9
$UCSORG
 10
0
 20
0
 30
0
  9
$UCSXDIR
 10
1
 20
0
 30
0
  9
$UCSYDIR
 10
0
 20
1
 30
0
  9
$UCSORTHOREF
  2

  9
$UCSORTHOVIEW
 70
    0
  9
$UCSORGTOP
 10
0
 20
0
 30
0
  9
$UCSORGBOTTOM
 10
0
 20
0
 30
0
  9
$UCSORGLEFT
 10
0
 20
0
 30
0
  9
$UCSORGRIGHT
 10
0
 20
0
 30
0
  9
$UCSORGFRONT
 10
0
 20
0
 30
0
  9
$UCSORGBACK
 10
0
 20
0
 30
0
  9
$PUCSBASE
  2

  9
$PUCSNAME
  2

  9
$PUCSORG
 10
0
 20
0
 30
0
  9
$PUCSXDIR
 10
1
 20
0
 30
0
  9
$PUCSYDIR
 10
0
 20
1
 30
0
  9
$PUCSORTHOREF
  2

  9
$PUCSORTHOVIEW
 70
    0
  9
$PUCSORGTOP
 10
0
 20
0
 30
0
  9
$PUCSORGBOTTOM
 10
0
 20
0
 30
0
  9
$PUCSORGLEFT
 10
0
 20
0
 30
0
  9
$PUCSORGRIGHT
 10
0
 20
0
 30
0
  9
$PUCSORGFRONT
 10
0
 20
0
 30
0
  9
$PUCSORGBACK
 10
0
 20
0
 30
0
  9
$USERI1
 70
    0
  9
$USERI2
 70
    0
  9
$USERI3
 70
    0
  9
$USERI4
 70
    0
  9
$USERI5
 70
    0
  9
$USERR1
 40
0
  9
$USERR2
 40
0
  9
$USERR3
 40
0
  9
$USERR4
 40
0
  9
$USERR5
 40
0
  9
$WORLDVIEW
 70
    1
  9
$SHADEDGE
 70
    3
  9
$SHADEDIF
 70
   70
  9
$TILEMODE
 70
    1
  9
$MAXACTVP
 70
   64
  9
$PINSBASE
 10
-19
 20
102.6370648444868
 30
0
  9
$PLIMCHECK
 70
    0
  9
$PEXTMIN
 10
0
 20
0
 30
0
  9
$PEXTMAX
 10
0
 20
0
 30
0
  9
$GRIDMODE
 70
    1
  9
$SNAPSTYLE
 70
    0
  9
$GRIDUNIT
 10
0
 20
0
  9
$PLIMMIN
 10
0
 20
0
  9
$PLIMMAX
 10
297
 20
210
  9
$UNITMODE
 70
    0
  9
$VISRETAIN
 70
    1
  9
$PLINEGEN
 70
    0
  9
$PSLTSCALE
 70
    1
  9
$TREEDEPTH
 70
 3020
  9
$CMLSTYLE
  2
Standard
  9
$CMLJUST
 70
    0
  9
$CMLSCALE
 40
20
  9
$PROXYGRAPHICS
 70
    1
  9
$MEASUREMENT
 70
    1
  9
$CELWEIGHT
370
   -1
  9
$ENDCAPS
280
    0
  9
$JOINSTYLE
280
    0
  9
$LWDISPLAY
290
    0
  9
$INSUNITS
 70
    4
  9
$HYPERLINKBASE
  1

  9
$STYLESHEET
  1

  9
$XEDIT
290
    1
  9
$CEPSNTYPE
380
    0
  9
$PSTYLEMODE
290
    1
  9
$EXTNAMES
290
    1
  9
$PSVPSCALE
 40
0.5
  9
$OLESTARTUP
290
    0
  9
$SORTENTS
280
  127
  9
$INDEXCTL
280
    0
  9
$HIDETEXT
280
    1
  9
$XCLIPFRAME
290
    0
  9
$HALOGAP
280
    0
  9
$OBSCOLOR
 70
  257
  9
$OBSLTYPE
280
    0
  9
$INTERSECTIONDISPLAY
280
    0
  9
$INTERSECTIONCOLOR
 70
  257
  9
$DIMASSOC
280
    1
  9
$PROJECTNAME
  1

  9
$CAMERADISPLAY
290
    0
  9
$LENSLENGTH
 40
50
  9
$CAMERAHEIGHT
 40
0
  9
$STEPSPERSEC
 40
2
  9
$STEPSIZE
 40
50
  9
$3DDWFPREC
 40
2
  9
$PSOLWIDTH
 40
5
  9
$PSOLHEIGHT
 40
80
  9
$LOFTANG1
 40
1.570796326794897
  9
$LOFTANG2
 40
1.570796326794897
  9
$LOFTMAG1
 40
0
  9
$LOFTMAG2
 40
0
  9
$LOFTPARAM
 70
    7
  9
$LOFTNORMALS
280
    1
  9
$LATITUDE
 40
1
  9
$LONGITUDE
 40
1
  9
$NORTHDIRECTION
 40
0
  9
$TIMEZONE
 70
-8000
  9
$LIGHTGLYPHDISPLAY
280
    1
  9
$TILEMODELIGHTSYNCH
280
    1
  9
$SOLIDHIST
280
    1
  9
$SHOWHIST
280
    1
  9
$DWFFRAME
280
    2
  9
$DGNFRAME
280
    0
  9
$REALWORLDSCALE
290
    1
  9
$INTERFERECOLOR
 62
    1
  9
$CSHADOW
280
    0
  9
$SHADOWPLANELOCATION
 40
0
  0
ENDSEC
  0
SECTION
  2
CLASSES
  0
ENDSEC
  0
SECTION
  2
TABLES
  0
TABLE
  2
VPORT
  5
8
330
0
100
AcDbSymbolTable
 70
    1
  0
VPORT
  5
31
330
2
100
AcDbSymbolTableRecord
100
AcDbViewportTableRecord
  2
*ACTIVE
 70
    0
 10
0
 20
0
 11
1
 21
1
 12
410.3610179640993
 22
126.3387389679027
 13
0
 23
0
 14
10
 24
10
 15
10
 25
10
 16
0
 26
0
 36
1
 17
0
 27
0
 37
0
 40
491.9214697028719
 41
1.881664499349805
 42
50
 43
0
 44
0
 50
0
 51
0
 71
    0
 72
  100
 73
    1
 74
    3
 75
    0
 76
    1
 77
    0
 78
    0
281
    0
 65
    1
110
0
120
0
130
0
111
1
121
0
131
0
112
0
122
1
132
0
 79
    0
146
0
348
10020
 60
    7
 61
    5
292
1
282
    1
141
0
142
0
 63
  250
421
3358443
  0
ENDTAB
  0
TABLE
  2
LTYPE
  5
5
330
0
100
AcDbSymbolTable
 70
    4
  0
LTYPE
  5
14
330
5
100
AcDbSymbolTableRecord
100
AcDbLinetypeTableRecord
  2
ByBlock
 70
    0
  3

 72
   65
 73
    0
 40
0
  0
LTYPE
  5
15
330
5
100
AcDbSymbolTableRecord
100
AcDbLinetypeTableRecord
  2
ByLayer
 70
    0
  3

 72
   65
 73
    0
 40
0
  0
LTYPE
  5
16
330
5
100
AcDbSymbolTableRecord
100
AcDbLinetypeTableRecord
  2
Continuous
 70
    0
  3
Solid line
 72
   65
 73
    0
 40
0
  0
LTYPE
  5
32
330
5
100
AcDbSymbolTableRecord
100
AcDbLinetypeTableRecord
  2
DOT
 70
    0
  3
Dot . . . . . . . . . . . . . . . . . . . . . .
 72
   65
 73
    2
 40
6.35
 49
0
 74
    0
 49
-6.35
 74
    0
  0
LTYPE
  5
33
330
5
100
AcDbSymbolTableRecord
100
AcDbLinetypeTableRecord
  2
DOTTINY
 70
    0
  3
Dot (.15x) .....................................
 72
   65
 73
    2
 40
0.9525
 49
0
 74
    0
 49
-0.9525
 74
    0
  0
LTYPE
  5
34
330
5
100
AcDbSymbolTableRecord
100
AcDbLinetypeTableRecord
  2
DOT2
 70
    0
  3
Dot (.5x) .....................................
 72
   65
 73
    2
 40
3.175
 49
0
 74
    0
 49
-3.175
 74
    0
  0
LTYPE
  5
35
330
5
100
AcDbSymbolTableRecord
100
AcDbLinetypeTableRecord
  2
DOTX2
 70
    0
  3
Dot (2x) .  .  .  .  .  .  .  .  .  .  .  .  .
 72
   65
 73
    2
 40
12.7
 49
0
 74
    0
 49
-12.7
 74
    0
  0
LTYPE
  5
36
330
5
100
AcDbSymbolTableRecord
100
AcDbLinetypeTableRecord
  2
DASHED
 70
    0
  3
Dashed _ _ _ _ _ _ _ _ _ _ _ _ _ _ _ _ _
 72
   65
 73
    2
 40
19.05
 49
12.7
 74
    0
 49
-6.35
 74
    0
  0
LTYPE
  5
37
330
5
100
AcDbSymbolTableRecord
100
AcDbLinetypeTableRecord
  2
DASHEDTINY
 70
    0
  3
Dashed (.15x) _ _ _ _ _ _ _ _ _ _ _ _ _ _ _ _ _
 72
   65
 73
    2
 40
2.8575
 49
1.905
 74
    0
 49
-0.9525
 74
    0
  0
LTYPE
  5
38
330
5
100
AcDbSymbolTableRecord
100
AcDbLinetypeTableRecord
  2
DASHED2
 70
    0
  3
Dashed (.5x) _ _ _ _ _ _ _ _ _ _ _ _ _ _ _ _ _
 72
   65
 73
    2
 40
9.524999999999999
 49
6.35
 74
    0
 49
-3.175
 74
    0
  0
LTYPE
  5
39
330
5
100
AcDbSymbolTableRecord
100
AcDbLinetypeTableRecord
  2
DASHEDX2
 70
    0
  3
Dashed (2x) ____  ____  ____  ____  ____  ___
 72
   65
 73
    2
 40
38.09999999999999
 49
25.4
 74
    0
 49
-12.7
 74
    0
  0
LTYPE
  5
3A
330
5
100
AcDbSymbolTableRecord
100
AcDbLinetypeTableRecord
  2
DASHDOT
 70
    0
  3
Dash dot __ . __ . __ . __ . __ . __ . __ . __
 72
   65
 73
    4
 40
25.4
 49
12.7
 74
    0
 49
-6.35
 74
    0
 49
0
 74
    0
 49
-6.35
 74
    0
  0
LTYPE
  5
3B
330
5
100
AcDbSymbolTableRecord
100
AcDbLinetypeTableRecord
  2
DASHDOTTINY
 70
    0
  3
Dash dot (.15x) _._._._._._._._._._._._._._._.
 72
   65
 73
    4
 40
3.81
 49
1.905
 74
    0
 49
-0.9525
 74
    0
 49
0
 74
    0
 49
-0.9525
 74
    0
  0
LTYPE
  5
3C
330
5
100
AcDbSymbolTableRecord
100
AcDbLinetypeTableRecord
  2
DASHDOT2
 70
    0
  3
Dash dot (.5x) _._._._._._._._._._._._._._._.
 72
   65
 73
    4
 40
12.7
 49
6.35
 74
    0
 49
-3.175
 74
    0
 49
0
 74
    0
 49
-3.175
 74
    0
  0
LTYPE
  5
3D
330
5
100
AcDbSymbolTableRecord
100
AcDbLinetypeTableRecord
  2
DASHDOTX2
 70
    0
  3
Dash dot (2x) ____  .  ____  .  ____  .  ___
 72
   65
 73
    4
 40
50.8
 49
25.4
 74
    0
 49
-12.7
 74
    0
 49
0
 74
    0
 49
-12.7
 74
    0
  0
LTYPE
  5
3E
330
5
100
AcDbSymbolTableRecord
100
AcDbLinetypeTableRecord
  2
DIVIDE
 70
    0
  3
Divide ____ . . ____ . . ____ . . ____ . . ____
 72
   65
 73
    6
 40
31.75
 49
12.7
 74
    0
 49
-6.35
 74
    0
 49
0
 74
    0
 49
-6.35
 74
    0
 49
0
 74
    0
 49
-6.35
 74
    0
  0
LTYPE
  5
3F
330
5
100
AcDbSymbolTableRecord
100
AcDbLinetypeTableRecord
  2
DIVIDETINY
 70
    0
  3
Divide (.15x) __..__..__..__..__..__..__..__.._
 72
   65
 73
    6
 40
4.7625
 49
1.905
 74
    0
 49
-0.9525
 74
    0
 49
0
 74
    0
 49
-0.9525
 74
    0
 49
0
 74
    0
 49
-0.9525
 74
    0
  0
LTYPE
  5
40
330
5
100
AcDbSymbolTableRecord
100
AcDbLinetypeTableRecord
  2
DIVIDE2
 70
    0
  3
Divide (.5x) __..__..__..__..__..__..__..__.._
 72
   65
 73
    6
 40
15.875
 49
6.35
 74
    0
 49
-3.175
 74
    0
 49
0
 74
    0
 49
-3.175
 74
    0
 49
0
 74
    0
 49
-3.175
 74
    0
  0
LTYPE
  5
41
330
5
100
AcDbSymbolTableRecord
100
AcDbLinetypeTableRecord
  2
DIVIDEX2
 70
    0
  3
Divide (2x) ________  .  .  ________  .  .  _
 72
   65
 73
    6
 40
63.5
 49
25.4
 74
    0
 49
-12.7
 74
    0
 49
0
 74
    0
 49
-12.7
 74
    0
 49
0
 74
    0
 49
-12.7
 74
    0
  0
LTYPE
  5
42
330
5
100
AcDbSymbolTableRecord
100
AcDbLinetypeTableRecord
  2
BORDER
 70
    0
  3
Border __ __ . __ __ . __ __ . __ __ . __ __ .
 72
   65
 73
    6
 40
44.45
 49
12.7
 74
    0
 49
-6.35
 74
    0
 49
12.7
 74
    0
 49
-6.35
 74
    0
 49
0
 74
    0
 49
-6.35
 74
    0
  0
LTYPE
  5
43
330
5
100
AcDbSymbolTableRecord
100
AcDbLinetypeTableRecord
  2
BORDERTINY
 70
    0
  3
Border (.15x) __.__.__.__.__.__.__.__.__.__.__.
 72
   65
 73
    6
 40
6.6675
 49
1.905
 74
    0
 49
-0.9525
 74
    0
 49
1.905
 74
    0
 49
-0.9525
 74
    0
 49
0
 74
    0
 49
-0.9525
 74
    0
  0
LTYPE
  5
44
330
5
100
AcDbSymbolTableRecord
100
AcDbLinetypeTableRecord
  2
BORDER2
 70
    0
  3
Border (.5x) __.__.__.__.__.__.__.__.__.__.__.
 72
   65
 73
    6
 40
22.225
 49
6.35
 74
    0
 49
-3.175
 74
    0
 49
6.35
 74
    0
 49
-3.175
 74
    0
 49
0
 74
    0
 49
-3.175
 74
    0
  0
LTYPE
  5
45
330
5
100
AcDbSymbolTableRecord
100
AcDbLinetypeTableRecord
  2
BORDERX2
 70
    0
  3
Border (2x) ____  ____  .  ____  ____  .  ___
 72
   65
 73
    6
 40
88.89999999999999
 49
25.4
 74
    0
 49
-12.7
 74
    0
 49
25.4
 74
    0
 49
-12.7
 74
    0
 49
0
 74
    0
 49
-12.7
 74
    0
  0
LTYPE
  5
46
330
5
100
AcDbSymbolTableRecord
100
AcDbLinetypeTableRecord
  2
CENTER
 70
    0
  3
Center ____ _ ____ _ ____ _ ____ _ ____ _ ____
 72
   65
 73
    4
 40
50.8
 49
31.75
 74
    0
 49
-6.35
 74
    0
 49
6.35
 74
    0
 49
-6.35
 74
    0
  0
LTYPE
  5
47
330
5
100
AcDbSymbolTableRecord
100
AcDbLinetypeTableRecord
  2
CENTERTINY
 70
    0
  3
Center (.15x) ___ _ ___ _ ___ _ ___ _ ___ _ ___
 72
   65
 73
    4
 40
7.619999999999999
 49
4.7625
 74
    0
 49
-0.9525
 74
    0
 49
0.9525
 74
    0
 49
-0.9525
 74
    0
  0
LTYPE
  5
48
330
5
100
AcDbSymbolTableRecord
100
AcDbLinetypeTableRecord
  2
CENTER2
 70
    0
  3
Center (.5x) ___ _ ___ _ ___ _ ___ _ ___ _ ___
 72
   65
 73
    4
 40
28.575
 49
19.05
 74
    0
 49
-3.175
 74
    0
 49
3.175
 74
    0
 49
-3.175
 74
    0
  0
LTYPE
  5
49
330
5
100
AcDbSymbolTableRecord
100
AcDbLinetypeTableRecord
  2
CENTERX2
 70
    0
  3
Center (2x) ________  __  ________  __  _____
 72
   65
 73
    4
 40
101.6
 49
63.5
 74
    0
 49
-12.7
 74
    0
 49
12.7
 74
    0
 49
-12.7
 74
    0
  0
ENDTAB
  0
TABLE
  2
LAYER
  5
2
330
0
100
AcDbSymbolTable
 70
    1
  0
LAYER
  5
10
330
2
100
AcDbSymbolTableRecord
100
AcDbLayerTableRecord
  2
0
 70
    0
 62
    7
  6
CONTINUOUS
370
    0
390
F
  0
LAYER
  5
4A
330
2
100
AcDbSymbolTableRecord
100
AcDbLayerTableRecord
  2
contre-tube
 70
    0
 62
    5
  6
CONTINUOUS
370
    0
390
F
  0
LAYER
  5
4B
330
2
100
AcDbSymbolTableRecord
100
AcDbLayerTableRecord
  2
draft
 70
    1
 62
    9
  6
CONTINUOUS
370
    0
390
F
1001
LibreCad
1070
    1
  0
LAYER
  5
4C
330
2
100
AcDbSymbolTableRecord
100
AcDbLayerTableRecord
  2
finition
 70
    0
 62
    6
  6
CONTINUOUS
370
    0
390
F
  0
LAYER
  5
4D
330
2
100
AcDbSymbolTableRecord
100
AcDbLayerTableRecord
  2
finition2
 70
    0
 62
    1
  6
CONTINUOUS
370
    0
390
F
  0
LAYER
  5
4E
330
2
100
AcDbSymbolTableRecord
100
AcDbLayerTableRecord
  2
isorel
 70
    0
 62
    7
  6
CONTINUOUS
370
    0
390
F
  0
LAYER
  5
4F
330
2
100
AcDbSymbolTableRecord
100
AcDbLayerTableRecord
  2
joint
 70
    0
 62
   56
420
8421376
  6
CONTINUOUS
370
    0
390
F
  0
LAYER
  5
50
330
2
100
AcDbSymbolTableRecord
100
AcDbLayerTableRecord
  2
legende
 70
    0
 62
    9
  6
CONTINUOUS
370
    0
390
F
  0
LAYER
  5
51
330
2
100
AcDbSymbolTableRecord
100
AcDbLayerTableRecord
  2
silicagel
 70
    0
 62
    3
  6
CONTINUOUS
370
    0
390
F
  0
LAYER
  5
52
330
2
100
AcDbSymbolTableRecord
100
AcDbLayerTableRecord
  2
tole
 70
    0
 62
    7
  6
CONTINUOUS
370
    0
390
F
  0
LAYER
  5
53
330
2
100
AcDbSymbolTableRecord
100
AcDbLayerTableRecord
  2
tube
 70
    0
 62
  176
420
  128
  6
CONTINUOUS
370
    0
390
F
  0
LAYER
  5
54
330
2
100
AcDbSymbolTableRecord
100
AcDbLayerTableRecord
  2
vitre
 70
    0
 62
    4
  6
CONTINUOUS
370
    0
390
F
  0
ENDTAB
  0
TABLE
  2
STYLE
  5
3
330
0
100
AcDbSymbolTable
 70
    3
  0
STYLE
  5
55
330
2
100
AcDbSymbolTableRecord
100
AcDbTextStyleTableRecord
  2
Standard
 70
    0
 40
0
 41
1
 50
0
 71
    0
 42
1
  3
txt
  4

  0
ENDTAB
  0
TABLE
  2
VIEW
  5
6
330
0
100
AcDbSymbolTable
 70
    0
  0
ENDTAB
  0
TABLE
  2
UCS
  5
7
330
0
100
AcDbSymbolTable
 70
    0
  0
ENDTAB
  0
TABLE
  2
APPID
  5
9
330
0
100
AcDbSymbolTable
 70
    1
  0
APPID
  5
12
330
9
100
AcDbSymbolTableRecord
100
AcDbRegAppTableRecord
  2
ACAD
 70
    0
  0
APPID
  5
56
330
9
100
AcDbSymbolTableRecord
100
AcDbRegAppTableRecord
  2
LibreCad
 70
    0
  0
ENDTAB
  0
TABLE
  2
DIMSTYLE
  5
A
330
0
100
AcDbSymbolTable
 70
    1
100
AcDbDimStyleTable
 71
    1
  0
DIMSTYLE
105
57
330
A
100
AcDbSymbolTableRecord
100
AcDbDimStyleTableRecord
  2
Standard
 70
    0
 40
2.5
 41
2.5
 42
0.625
 43
0.38
 44
1.25
 45
0
 46
0
 47
0
 48
0
 49
1
140
2.5
141
0.09
142
0
143
25.4
144
1
145
0
146
1
147
0.625
148
0
 71
    0
 72
    0
 73
    0
 74
    1
 75
    0
 76
    0
 77
    0
 78
    8
 79
    0
170
    0
171
    2
172
    0
173
    0
174
    0
175
    0
176
    0
177
    0
178
    0
179
    0
271
    2
272
    4
273
    2
274
    2
275
    0
276
    0
277
    2
278
   44
279
    0
280
    0
281
    0
282
    0
283
    1
284
    0
285
    0
286
    0
288
    0
289
    3
340
standard
341

371
   -2
372
   -2
  0
ENDTAB
  0
TABLE
  2
BLOCK_RECORD
  5
1
330
0
100
AcDbSymbolTable
 70
    2
  0
BLOCK_RECORD
  5
1F
330
1
100
AcDbSymbolTableRecord
100
AcDbBlockTableRecord
  2
*Model_Space
 70
    0
280
    1
281
    0
  0
BLOCK_RECORD
  5
1E
330
1
100
AcDbSymbolTableRecord
100
AcDbBlockTableRecord
  2
*Paper_Space
 70
    0
280
    1
281
    0
  0
BLOCK_RECORD
  5
58
330
1
100
AcDbSymbolTableRecord
100
AcDbBlockTableRecord
  2
*D2
 70
    0
280
    1
281
    0
  0
BLOCK_RECORD
  5
5B
330
1
100
AcDbSymbolTableRecord
100
AcDbBlockTableRecord
  2
*D3
 70
    0
280
    1
281
    0
  0
BLOCK_RECORD
  5
5E
330
1
100
AcDbSymbolTableRecord
100
AcDbBlockTableRecord
  2
*D16
 70
    0
280
    1
281
    0
  0
BLOCK_RECORD
  5
61
330
1
100
AcDbSymbolTableRecord
100
AcDbBlockTableRecord
  2
*D9
 70
    0
280
    1
281
    0
  0
BLOCK_RECORD
  5
64
330
1
100
AcDbSymbolTableRecord
100
AcDbBlockTableRecord
  2
*D14
 70
    0
280
    1
281
    0
  0
BLOCK_RECORD
  5
67
330
1
100
AcDbSymbolTableRecord
100
AcDbBlockTableRecord
  2
*D15
 70
    0
280
    1
281
    0
  0
BLOCK_RECORD
  5
6A
330
1
100
AcDbSymbolTableRecord
100
AcDbBlockTableRecord
  2
*D4
 70
    0
280
    1
281
    0
  0
BLOCK_RECORD
  5
6D
330
1
100
AcDbSymbolTableRecord
100
AcDbBlockTableRecord
  2
*D6
 70
    0
280
    1
281
    0
  0
BLOCK_RECORD
  5
70
330
1
100
AcDbSymbolTableRecord
100
AcDbBlockTableRecord
  2
*D7
 70
    0
280
    1
281
    0
  0
BLOCK_RECORD
  5
73
330
1
100
AcDbSymbolTableRecord
100
AcDbBlockTableRecord
  2
*D10
 70
    0
280
    1
281
    0
  0
BLOCK_RECORD
  5
76
330
1
100
AcDbSymbolTableRecord
100
AcDbBlockTableRecord
  2
*D11
 70
    0
280
    1
281
    0
  0
BLOCK_RECORD
  5
79
330
1
100
AcDbSymbolTableRecord
100
AcDbBlockTableRecord
  2
*D12
 70
    0
280
    1
281
    0
  0
BLOCK_RECORD
  5
7C
330
1
100
AcDbSymbolTableRecord
100
AcDbBlockTableRecord
  2
*D8
 70
    0
280
    1
281
    0
  0
BLOCK_RECORD
  5
7F
330
1
100
AcDbSymbolTableRecord
100
AcDbBlockTableRecord
  2
*D13
 70
    0
280
    1
281
    0
  0
BLOCK_RECORD
  5
82
330
1
100
AcDbSymbolTableRecord
100
AcDbBlockTableRecord
  2
*D17
 70
    0
280
    1
281
    0
  0
BLOCK_RECORD
  5
85
330
1
100
AcDbSymbolTableRecord
100
AcDbBlockTableRecord
  2
*D1
 70
    0
280
    1
281
    0
  0
BLOCK_RECORD
  5
88
330
1
100
AcDbSymbolTableRecord
100
AcDbBlockTableRecord
  2
*D5
 70
    0
280
    1
281
    0
  0
ENDTAB
  0
ENDSEC
  0
SECTION
  2
BLOCKS
  0
BLOCK
  5
20
330
1F
100
AcDbEntity
  8
0
100
AcDbBlockBegin
  2
*Model_Space
 70
    0
 10
0
 20
0
 30
0
  3
*Model_Space
  1

  0
ENDBLK
  5
21
330
1F
100
AcDbEntity
  8
0
100
AcDbBlockEnd
  0
BLOCK
  5
1C
330
1B
100
AcDbEntity
  8
0
100
AcDbBlockBegin
  2
*Paper_Space
 70
    0
 10
0
 20
0
 30
0
  3
*Paper_Space
  1

  0
ENDBLK
  5
1D
330
1F
100
AcDbEntity
  8
0
100
AcDbBlockEnd
  0
BLOCK
  5
59
330
58
100
AcDbEntity
  8
0
100
AcDbBlockBegin
  2
*D2
 70
    1
 10
0
 20
0
  3
*D2
  1

  0
LINE
  5
8B
100
AcDbEntity
  8
legende
  6
ByBlock
 62
    0
370
   -2
100
AcDbLine
 10
341
 20
55
 11
341
 21
-55
  0
MTEXT
  5
8C
100
AcDbEntity
  8
legende
  6
CONTINUOUS
 62
    0
370
   -2
100
AcDbMText
 10
336.3125
 20
5.740531871003218e-16
 30
0
 40
6.25
 41
9.722222222222221
 71
    5
 72
    1
  1
110
  7
standard
210
0
220
0
230
1
 50
90
 73
    2
 44
1
  0
SOLID
  5
8D
100
AcDbEntity
  8
legende
  6
ByBlock
 62
    0
370
   -2
100
AcDbTrace
 10
341
 20
55
 30
0
 11
342.0407116444321
 21
48.75
 31
0
 12
339.9592883555679
 22
48.75
 32
0
 13
339.9592883555679
 23
48.75
 33
0
  0
SOLID
  5
8E
100
AcDbEntity
  8
legende
  6
ByBlock
 62
    0
370
   -2
100
AcDbTrace
 10
341
 20
-55
 30
0
 11
339.9592883555679
 21
-48.75
 31
0
 12
342.0407116444321
 22
-48.75
 32
0
 13
342.0407116444321
 23
-48.75
 33
0
  0
LINE
  5
8F
100
AcDbEntity
  8
legende
  6
ByBlock
 62
    0
370
   -2
100
AcDbLine
 10
339.4375
 20
55
 11
337.875
 21
55
  0
LINE
  5
90
100
AcDbEntity
  8
legende
  6
ByBlock
 62
    0
370
   -2
100
AcDbLine
 10
339.4375
 20
-55
 11
337.875
 21
-55
  0
ENDBLK
  5
5A
330
58
100
AcDbEntity
  8
0
100
AcDbBlockEnd
  0
BLOCK
  5
5C
330
5B
100
AcDbEntity
  8
0
100
AcDbBlockBegin
  2
*D3
 70
    1
 10
0
 20
0
  3
*D3
  1

  0
LINE
  5
91
100
AcDbEntity
  8
legende
  6
ByBlock
 62
    0
370
   -2
100
AcDbLine
 10
425
 20
50
 11
425
 21
-50
  0
MTEXT
  5
92
100
AcDbEntity
  8
legende
  6
CONTINUOUS
 62
    0
370
   -2
100
AcDbMText
 10
420.3125
 20
5.740531871003218e-16
 30
0
 40
6.25
 41
11.11111111111111
 71
    5
 72
    1
  1
100
  7
standard
210
0
220
0
230
1
 50
90
 73
    2
 44
1
  0
SOLID
  5
93
100
AcDbEntity
  8
legende
  6
ByBlock
 62
    0
370
   -2
100
AcDbTrace
 10
425
 20
50
 30
0
 11
426.0407116444321
 21
43.75
 31
0
 12
423.9592883555679
 22
43.75
 32
0
 13
423.9592883555679
 23
43.75
 33
0
  0
SOLID
  5
94
100
AcDbEntity
  8
legende
  6
ByBlock
 62
    0
370
   -2
100
AcDbTrace
 10
425
 20
-50
 30
0
 11
423.9592883555679
 21
-43.75
 31
0
 12
426.0407116444321
 22
-43.75
 32
0
 13
426.0407116444321
 23
-43.75
 33
0
  0
LINE
  5
95
100
AcDbEntity
  8
legende
  6
ByBlock
 62
    0
370
   -2
100
AcDbLine
 10
423.4375
 20
50
 11
421.875
 21
50
  0
LINE
  5
96
100
AcDbEntity
  8
legende
  6
ByBlock
 62
    0
370
   -2
100
AcDbLine
 10
423.4375
 20
-50
 11
421.875
 21
-50
  0
ENDBLK
  5
5D
330
5B
100
AcDbEntity
  8
0
100
AcDbBlockEnd
  0
BLOCK
  5
5F
330
5E
100
AcDbEntity
  8
0
100
AcDbBlockBegin
  2
*D16
 70
    1
 10
0
 20
0
  3
*D16
  1

  0
LINE
  5
97
100
AcDbEntity
  8
legende
  6
ByBlock
 62
    0
370
   -2
100
AcDbLine
 10
429
 20
100
 11
477
 21
100
  0
MTEXT
  5
98
100
AcDbEntity
  8
legende
  6
CONTINUOUS
 62
    0
370
   -2
100
AcDbMText
 10
453
 20
104.6875
 30
0
 40
6.25
 41
8.333333333333332
 71
    5
 72
    1
  1
48
  7
standard
210
0
220
0
230
1
 50
0
 73
    2
 44
1
  0
SOLID
  5
99
100
AcDbEntity
  8
legende
  6
ByBlock
 62
    0
370
   -2
100
AcDbTrace
 10
429
 20
100
 30
0
 11
435.25
 21
101.0407116444321
 31
0
 12
435.25
 22
98.95928835556789
 32
0
 13
435.25
 23
98.95928835556789
 33
0
  0
SOLID
  5
9A
100
AcDbEntity
  8
legende
  6
ByBlock
 62
    0
370
   -2
100
AcDbTrace
 10
477
 20
100
 30
0
 11
470.75
 21
98.95928835556789
 31
0
 12
470.75
 22
101.0407116444321
 32
0
 13
470.75
 23
101.0407116444321
 33
0
  0
LINE
  5
9B
100
AcDbEntity
  8
legende
  6
ByBlock
 62
    0
370
   -2
100
AcDbLine
 10
429
 20
51.5625
 11
429
 21
103.125
  0
LINE
  5
9C
100
AcDbEntity
  8
legende
  6
ByBlock
 62
    0
370
   -2
100
AcDbLine
 10
477
 20
51.5625
 11
477
 21
103.125
  0
ENDBLK
  5
60
330
5E
100
AcDbEntity
  8
0
100
AcDbBlockEnd
  0
BLOCK
  5
62
330
61
100
AcDbEntity
  8
0
100
AcDbBlockBegin
  2
*D9
 70
    1
 10
0
 20
0
  3
*D9
  1

  0
LINE
  5
9D
100
AcDbEntity
  8
legende
  6
ByBlock
 62
    0
370
   -2
100
AcDbLine
 10
280
 20
75
 11
280
 21
-75
  0
MTEXT
  5
9E
100
AcDbEntity
  8
legende
  6
CONTINUOUS
 62
    0
370
   -2
100
AcDbMText
 10
275.3125
 20
5.740531871003218e-16
 30
0
 40
6.25
 41
11.1111111111115
 71
    5
 72
    1
  1
150
  7
standard
210
0
220
0
230
1
 50
90
 73
    2
 44
1
  0
SOLID
  5
9F
100
AcDbEntity
  8
legende
  6
ByBlock
 62
    0
370
   -2
100
AcDbTrace
 10
280
 20
75
 30
0
 11
281.0407116444321
 21
68.75
 31
0
 12
278.9592883555679
 22
68.75
 32
0
 13
278.9592883555679
 23
68.75
 33
0
  0
SOLID
  5
A0
100
AcDbEntity
  8
legende
  6
ByBlock
 62
    0
370
   -2
100
AcDbTrace
 10
280
 20
-75
 30
0
 11
278.9592883555679
 21
-68.75
 31
0
 12
281.0407116444321
 22
-68.75
 32
0
 13
281.0407116444321
 23
-68.75
 33
0
  0
LINE
  5
A1
100
AcDbEntity
  8
legende
  6
ByBlock
 62
    0
370
   -2
100
AcDbLine
 10
304.4375
 20
75
 11
276.875
 21
75
  0
LINE
  5
A2
100
AcDbEntity
  8
legende
  6
ByBlock
 62
    0
370
   -2
100
AcDbLine
 10
304.4375
 20
-75
 11
276.875
 21
-75
  0
ENDBLK
  5
63
330
61
100
AcDbEntity
  8
0
100
AcDbBlockEnd
  0
BLOCK
  5
65
330
64
100
AcDbEntity
  8
0
100
AcDbBlockBegin
  2
*D14
 70
    1
 10
0
 20
0
  3
*D14
  1

  0
LINE
  5
A3
100
AcDbEntity
  8
legende
  6
ByBlock
 62
    0
370
   -2
100
AcDbLine
 10
346.5
 20
100
 11
375.5
 21
100
  0
MTEXT
  5
A4
100
AcDbEntity
  8
legende
  6
CONTINUOUS
 62
    0
370
   -2
100
AcDbMText
 10
361
 20
104.6875
 30
0
 40
6.25
 41
3.472222222222222
 71
    5
 72
    1
  1
4
  7
standard
210
0
220
0
230
1
 50
0
 73
    2
 44
1
  0
SOLID
  5
A5
100
AcDbEntity
  8
legende
  6
ByBlock
 62
    0
370
   -2
100
AcDbTrace
 10
359
 20
100
 30
0
 11
352.75
 21
98.95928835556789
 31
0
 12
352.75
 22
101.0407116444321
 32
0
 13
352.75
 23
101.0407116444321
 33
0
  0
SOLID
  5
A6
100
AcDbEntity
  8
legende
  6
ByBlock
 62
    0
370
   -2
100
AcDbTrace
 10
363
 20
100
 30
0
 11
369.25
 21
101.0407116444321
 31
0
 12
369.25
 22
98.95928835556789
 32
0
 13
369.25
 23
98.95928835556789
 33
0
  0
LINE
  5
A7
100
AcDbEntity
  8
legende
  6
ByBlock
 62
    0
370
   -2
100
AcDbLine
 10
359
 20
49.5625
 11
359
 21
103.125
  0
LINE
  5
A8
100
AcDbEntity
  8
legende
  6
ByBlock
 62
    0
370
   -2
100
AcDbLine
 10
363
 20
49.5625
 11
363
 21
103.125
  0
ENDBLK
  5
66
330
64
100
AcDbEntity
  8
0
100
AcDbBlockEnd
  0
BLOCK
  5
68
330
67
100
AcDbEntity
  8
0
100
AcDbBlockBegin
  2
*D15
 70
    1
 10
0
 20
0
  3
*D15
  1

  0
LINE
  5
A9
100
AcDbEntity
  8
legende
  6
ByBlock
 62
    0
370
   -2
100
AcDbLine
 10
360.5
 20
110
 11
391.5
 21
110
  0
MTEXT
  5
AA
100
AcDbEntity
  8
legende
  6
CONTINUOUS
 62
    0
370
   -2
100
AcDbMText
 10
376
 20
114.6875
 30
0
 40
6.25
 41
2.777777777778165
 71
    5
 72
    1
  1
6
  7
standard
210
0
220
0
230
1
 50
0
 73
    2
 44
1
  0
SOLID
  5
AB
100
AcDbEntity
  8
legende
  6
ByBlock
 62
    0
370
   -2
100
AcDbTrace
 10
373
 20
110
 30
0
 11
366.75
 21
108.9592883555679
 31
0
 12
366.75
 22
111.0407116444321
 32
0
 13
366.75
 23
111.0407116444321
 33
0
  0
SOLID
  5
AC
100
AcDbEntity
  8
legende
  6
ByBlock
 62
    0
370
   -2
100
AcDbTrace
 10
379
 20
110
 30
0
 11
385.25
 21
111.0407116444321
 31
0
 12
385.25
 22
108.9592883555679
 32
0
 13
385.25
 23
108.9592883555679
 33
0
  0
LINE
  5
AD
100
AcDbEntity
  8
legende
  6
ByBlock
 62
    0
370
   -2
100
AcDbLine
 10
373
 20
51.5625
 11
373
 21
113.125
  0
LINE
  5
AE
100
AcDbEntity
  8
legende
  6
ByBlock
 62
    0
370
   -2
100
AcDbLine
 10
379
 20
51.5625
 11
379
 21
113.125
  0
ENDBLK
  5
69
330
67
100
AcDbEntity
  8
0
100
AcDbBlockEnd
  0
BLOCK
  5
6B
330
6A
100
AcDbEntity
  8
0
100
AcDbBlockBegin
  2
*D4
 70
    1
 10
0
 20
0
  3
*D4
  1

  0
LINE
  5
AF
100
AcDbEntity
  8
legende
  6
ByBlock
 62
    0
370
   -2
100
AcDbLine
 10
435
 20
-45
 11
435
 21
45
  0
MTEXT
  5
B0
100
AcDbEntity
  8
legende
  6
CONTINUOUS
 62
    0
370
   -2
100
AcDbMText
 10
430.3125
 20
5.740531871003218e-16
 30
0
 40
6.25
 41
7.638888888889277
 71
    5
 72
    1
  1
90
  7
standard
210
0
220
0
230
1
 50
90
 73
    2
 44
1
  0
SOLID
  5
B1
100
AcDbEntity
  8
legende
  6
ByBlock
 62
    0
370
   -2
100
AcDbTrace
 10
435
 20
-45
 30
0
 11
433.9592883555679
 21
-38.75
 31
0
 12
436.0407116444321
 22
-38.75
 32
0
 13
436.0407116444321
 23
-38.75
 33
0
  0
SOLID
  5
B2
100
AcDbEntity
  8
legende
  6
ByBlock
 62
    0
370
   -2
100
AcDbTrace
 10
435
 20
45
 30
0
 11
436.0407116444321
 21
38.75
 31
0
 12
433.9592883555679
 22
38.75
 32
0
 13
433.9592883555679
 23
38.75
 33
0
  0
LINE
  5
B3
100
AcDbEntity
  8
legende
  6
ByBlock
 62
    0
370
   -2
100
AcDbLine
 10
433.4375
 20
-45
 11
431.875
 21
-45
  0
LINE
  5
B4
100
AcDbEntity
  8
legende
  6
ByBlock
 62
    0
370
   -2
100
AcDbLine
 10
433.4375
 20
45
 11
431.875
 21
45
  0
ENDBLK
  5
6C
330
6A
100
AcDbEntity
  8
0
100
AcDbBlockEnd
  0
BLOCK
  5
6E
330
6D
100
AcDbEntity
  8
0
100
AcDbBlockBegin
  2
*D6
 70
    1
 10
0
 20
0
  3
*D6
  1

  0
LINE
  5
B5
100
AcDbEntity
  8
legende
  6
ByBlock
 62
    0
370
   -2
100
AcDbLine
 10
390
 20
50
 11
390
 21
-50
  0
MTEXT
  5
B6
100
AcDbEntity
  8
legende
  6
CONTINUOUS
 62
    0
370
   -2
100
AcDbMText
 10
385.3125
 20
5.740531871003218e-16
 30
0
 40
6.25
 41
11.11111111111111
 71
    5
 72
    1
  1
100
  7
standard
210
0
220
0
230
1
 50
90
 73
    2
 44
1
  0
SOLID
  5
B7
100
AcDbEntity
  8
legende
  6
ByBlock
 62
    0
370
   -2
100
AcDbTrace
 10
390
 20
50
 30
0
 11
391.0407116444321
 21
43.75
 31
0
 12
388.9592883555679
 22
43.75
 32
0
 13
388.9592883555679
 23
43.75
 33
0
  0
SOLID
  5
B8
100
AcDbEntity
  8
legende
  6
ByBlock
 62
    0
370
   -2
100
AcDbTrace
 10
390
 20
-50
 30
0
 11
388.9592883555679
 21
-43.75
 31
0
 12
391.0407116444321
 22
-43.75
 32
0
 13
391.0407116444321
 23
-43.75
 33
0
  0
LINE
  5
B9
100
AcDbEntity
  8
legende
  6
ByBlock
 62
    0
370
   -2
100
AcDbLine
 10
380.5625
 20
50
 11
393.125
 21
50
  0
LINE
  5
BA
100
AcDbEntity
  8
legende
  6
ByBlock
 62
    0
370
   -2
100
AcDbLine
 10
380.5625
 20
-50
 11
393.125
 21
-50
  0
ENDBLK
  5
6F
330
6D
100
AcDbEntity
  8
0
100
AcDbBlockEnd
  0
BLOCK
  5
71
330
70
100
AcDbEntity
  8
0
100
AcDbBlockBegin
  2
*D7
 70
    1
 10
0
 20
0
  3
*D7
  1

  0
LINE
  5
BB
100
AcDbEntity
  8
legende
  6
ByBlock
 62
    0
370
   -2
100
AcDbLine
 10
300
 20
45
 11
300
 21
-45
  0
MTEXT
  5
BC
100
AcDbEntity
  8
legende
  6
CONTINUOUS
 62
    0
370
   -2
100
AcDbMText
 10
295.3125
 20
5.740531871003218e-16
 30
0
 40
6.25
 41
7.638888888889277
 71
    5
 72
    1
  1
90
  7
standard
210
0
220
0
230
1
 50
90
 73
    2
 44
1
  0
SOLID
  5
BD
100
AcDbEntity
  8
legende
  6
ByBlock
 62
    0
370
   -2
100
AcDbTrace
 10
300
 20
45
 30
0
 11
301.0407116444321
 21
38.75
 31
0
 12
298.9592883555679
 22
38.75
 32
0
 13
298.9592883555679
 23
38.75
 33
0
  0
SOLID
  5
BE
100
AcDbEntity
  8
legende
  6
ByBlock
 62
    0
370
   -2
100
AcDbTrace
 10
300
 20
-45
 30
0
 11
298.9592883555679
 21
-38.75
 31
0
 12
301.0407116444321
 22
-38.75
 32
0
 13
301.0407116444321
 23
-38.75
 33
0
  0
LINE
  5
BF
100
AcDbEntity
  8
legende
  6
ByBlock
 62
    0
370
   -2
100
AcDbLine
 10
304.4375
 20
45
 11
296.875
 21
45
  0
LINE
  5
C0
100
AcDbEntity
  8
legende
  6
ByBlock
 62
    0
370
   -2
100
AcDbLine
 10
304.4375
 20
-45
 11
296.875
 21
-45
  0
ENDBLK
  5
72
330
70
100
AcDbEntity
  8
0
100
AcDbBlockEnd
  0
BLOCK
  5
74
330
73
100
AcDbEntity
  8
0
100
AcDbBlockBegin
  2
*D10
 70
    1
 10
0
 20
0
  3
*D10
  1

  0
LINE
  5
C1
100
AcDbEntity
  8
legende
  6
ByBlock
 62
    0
370
   -2
100
AcDbLine
 10
293.5
 20
100
 11
321.5
 21
100
  0
MTEXT
  5
C2
100
AcDbEntity
  8
legende
  6
CONTINUOUS
 62
    0
370
   -2
100
AcDbMText
 10
307.5
 20
104.6875
 30
0
 40
6.25
 41
2.777777777778165
 71
    5
 72
    1
  1
3
  7
standard
210
0
220
0
230
1
 50
0
 73
    2
 44
1
  0
SOLID
  5
C3
100
AcDbEntity
  8
legende
  6
ByBlock
 62
    0
370
   -2
100
AcDbTrace
 10
306
 20
100
 30
0
 11
299.75
 21
98.95928835556789
 31
0
 12
299.75
 22
101.0407116444321
 32
0
 13
299.75
 23
101.0407116444321
 33
0
  0
SOLID
  5
C4
100
AcDbEntity
  8
legende
  6
ByBlock
 62
    0
370
   -2
100
AcDbTrace
 10
309
 20
100
 30
0
 11
315.25
 21
101.0407116444321
 31
0
 12
315.25
 22
98.95928835556789
 32
0
 13
315.25
 23
98.95928835556789
 33
0
  0
LINE
  5
C5
100
AcDbEntity
  8
legende
  6
ByBlock
 62
    0
370
   -2
100
AcDbLine
 10
306
 20
76.5625
 11
306
 21
103.125
  0
LINE
  5
C6
100
AcDbEntity
  8
legende
  6
ByBlock
 62
    0
370
   -2
100
AcDbLine
 10
309
 20
76.5625
 11
309
 21
103.125
  0
ENDBLK
  5
75
330
73
100
AcDbEntity
  8
0
100
AcDbBlockEnd
  0
BLOCK
  5
77
330
76
100
AcDbEntity
  8
0
100
AcDbBlockBegin
  2
*D11
 70
    1
 10
0
 20
0
  3
*D11
  1

  0
LINE
  5
C7
100
AcDbEntity
  8
legende
  6
ByBlock
 62
    0
370
   -2
100
AcDbLine
 10
309
 20
120
 11
329
 21
120
  0
MTEXT
  5
C8
100
AcDbEntity
  8
legende
  6
CONTINUOUS
 62
    0
370
   -2
100
AcDbMText
 10
319
 20
124.6875
 30
0
 40
6.25
 41
7.638888888888888
 71
    5
 72
    1
  1
20
  7
standard
210
0
220
0
230
1
 50
0
 73
    2
 44
1
  0
SOLID
  5
C9
100
AcDbEntity
  8
legende
  6
ByBlock
 62
    0
370
   -2
100
AcDbTrace
 10
309
 20
120
 30
0
 11
315.25
 21
121.0407116444321
 31
0
 12
315.25
 22
118.9592883555679
 32
0
 13
315.25
 23
118.9592883555679
 33
0
  0
SOLID
  5
CA
100
AcDbEntity
  8
legende
  6
ByBlock
 62
    0
370
   -2
100
AcDbTrace
 10
329
 20
120
 30
0
 11
322.75
 21
118.9592883555679
 31
0
 12
322.75
 22
121.0407116444321
 32
0
 13
322.75
 23
121.0407116444321
 33
0
  0
LINE
  5
CB
100
AcDbEntity
  8
legende
  6
ByBlock
 62
    0
370
   -2
100
AcDbLine
 10
309
 20
76.5625
 11
309
 21
123.125
  0
LINE
  5
CC
100
AcDbEntity
  8
legende
  6
ByBlock
 62
    0
370
   -2
100
AcDbLine
 10
329
 20
51.5625
 11
329
 21
123.125
  0
ENDBLK
  5
78
330
76
100
AcDbEntity
  8
0
100
AcDbBlockEnd
  0
BLOCK
  5
7A
330
79
100
AcDbEntity
  8
0
100
AcDbBlockBegin
  2
*D12
 70
    1
 10
0
 20
0
  3
*D12
  1

  0
LINE
  5
CD
100
AcDbEntity
  8
legende
  6
ByBlock
 62
    0
370
   -2
100
AcDbLine
 10
296.5
 20
110
 11
324.5
 21
110
  0
MTEXT
  5
CE
100
AcDbEntity
  8
legende
  6
CONTINUOUS
 62
    0
370
   -2
100
AcDbMText
 10
310.5
 20
114.6875
 30
0
 40
6.25
 41
2.777777777778165
 71
    5
 72
    1
  1
3
  7
standard
210
0
220
0
230
1
 50
0
 73
    2
 44
1
  0
SOLID
  5
CF
100
AcDbEntity
  8
legende
  6
ByBlock
 62
    0
370
   -2
100
AcDbTrace
 10
309
 20
110
 30
0
 11
302.75
 21
108.9592883555679
 31
0
 12
302.75
 22
111.0407116444321
 32
0
 13
302.75
 23
111.0407116444321
 33
0
  0
SOLID
  5
D0
100
AcDbEntity
  8
legende
  6
ByBlock
 62
    0
370
   -2
100
AcDbTrace
 10
312
 20
110
 30
0
 11
318.25
 21
111.0407116444321
 31
0
 12
318.25
 22
108.9592883555679
 32
0
 13
318.25
 23
108.9592883555679
 33
0
  0
LINE
  5
D1
100
AcDbEntity
  8
legende
  6
ByBlock
 62
    0
370
   -2
100
AcDbLine
 10
309
 20
76.5625
 11
309
 21
113.125
  0
LINE
  5
D2
100
AcDbEntity
  8
legende
  6
ByBlock
 62
    0
370
   -2
100
AcDbLine
 10
312
 20
76.5625
 11
312
 21
113.125
  0
ENDBLK
  5
7B
330
79
100
AcDbEntity
  8
0
100
AcDbBlockEnd
  0
BLOCK
  5
7D
330
7C
100
AcDbEntity
  8
0
100
AcDbBlockBegin
  2
*D8
 70
    1
 10
0
 20
0
  3
*D8
  1

  0
LINE
  5
D3
100
AcDbEntity
  8
legende
  6
ByBlock
 62
    0
370
   -2
100
AcDbLine
 10
290
 20
59
 11
290
 21
-59
  0
MTEXT
  5
D4
100
AcDbEntity
  8
legende
  6
CONTINUOUS
 62
    0
370
   -2
100
AcDbMText
 10
285.3125
 20
5.740531871003218e-16
 30
0
 40
6.25
 41
9.722222222222221
 71
    5
 72
    1
  1
118
  7
standard
210
0
220
0
230
1
 50
90
 73
    2
 44
1
  0
SOLID
  5
D5
100
AcDbEntity
  8
legende
  6
ByBlock
 62
    0
370
   -2
100
AcDbTrace
 10
290
 20
59
 30
0
 11
291.0407116444321
 21
52.75
 31
0
 12
288.9592883555679
 22
52.75
 32
0
 13
288.9592883555679
 23
52.75
 33
0
  0
SOLID
  5
D6
100
AcDbEntity
  8
legende
  6
ByBlock
 62
    0
370
   -2
100
AcDbTrace
 10
290
 20
-59
 30
0
 11
288.9592883555679
 21
-52.75
 31
0
 12
291.0407116444321
 22
-52.75
 32
0
 13
291.0407116444321
 23
-52.75
 33
0
  0
LINE
  5
D7
100
AcDbEntity
  8
legende
  6
ByBlock
 62
    0
370
   -2
100
AcDbLine
 10
307.4375
 20
59
 11
286.875
 21
59
  0
LINE
  5
D8
100
AcDbEntity
  8
legende
  6
ByBlock
 62
    0
370
   -2
100
AcDbLine
 10
307.4375
 20
-59
 11
286.875
 21
-59
  0
ENDBLK
  5
7E
330
7C
100
AcDbEntity
  8
0
100
AcDbBlockEnd
  0
BLOCK
  5
80
330
7F
100
AcDbEntity
  8
0
100
AcDbBlockBegin
  2
*D13
 70
    1
 10
0
 20
0
  3
*D13
  1

  0
LINE
  5
D9
100
AcDbEntity
  8
legende
  6
ByBlock
 62
    0
370
   -2
100
AcDbLine
 10
326.5
 20
100
 11
355.5
 21
100
  0
MTEXT
  5
DA
100
AcDbEntity
  8
legende
  6
CONTINUOUS
 62
    0
370
   -2
100
AcDbMText
 10
341
 20
104.6875
 30
0
 40
6.25
 41
3.472222222222222
 71
    5
 72
    1
  1
4
  7
standard
210
0
220
0
230
1
 50
0
 73
    2
 44
1
  0
SOLID
  5
DB
100
AcDbEntity
  8
legende
  6
ByBlock
 62
    0
370
   -2
100
AcDbTrace
 10
339
 20
100
 30
0
 11
332.75
 21
98.95928835556789
 31
0
 12
332.75
 22
101.0407116444321
 32
0
 13
332.75
 23
101.0407116444321
 33
0
  0
SOLID
  5
DC
100
AcDbEntity
  8
legende
  6
ByBlock
 62
    0
370
   -2
100
AcDbTrace
 10
343
 20
100
 30
0
 11
349.25
 21
101.0407116444321
 31
0
 12
349.25
 22
98.95928835556789
 32
0
 13
349.25
 23
98.95928835556789
 33
0
  0
LINE
  5
DD
100
AcDbEntity
  8
legende
  6
ByBlock
 62
    0
370
   -2
100
AcDbLine
 10
339
 20
58.5625
 11
339
 21
103.125
  0
LINE
  5
DE
100
AcDbEntity
  8
legende
  6
ByBlock
 62
    0
370
   -2
100
AcDbLine
 10
343
 20
58.5625
 11
343
 21
103.125
  0
ENDBLK
  5
81
330
7F
100
AcDbEntity
  8
0
100
AcDbBlockEnd
  0
BLOCK
  5
83
330
82
100
AcDbEntity
  8
0
100
AcDbBlockBegin
  2
*D17
 70
    1
 10
0
 20
0
  3
*D17
  1

  0
LINE
  5
DF
100
AcDbEntity
  8
legende
  6
ByBlock
 62
    0
370
   -2
100
AcDbLine
 10
399
 20
110
 11
506
 21
110
  0
MTEXT
  5
E0
100
AcDbEntity
  8
legende
  6
CONTINUOUS
 62
    0
370
   -2
100
AcDbMText
 10
452.5
 20
114.6875
 30
0
 40
6.25
 41
11.11111111111111
 71
    5
 72
    1
  1
107
  7
standard
210
0
220
0
230
1
 50
0
 73
    2
 44
1
  0
SOLID
  5
E1
100
AcDbEntity
  8
legende
  6
ByBlock
 62
    0
370
   -2
100
AcDbTrace
 10
399
 20
110
 30
0
 11
405.25
 21
111.0407116444321
 31
0
 12
405.25
 22
108.9592883555679
 32
0
 13
405.25
 23
108.9592883555679
 33
0
  0
SOLID
  5
E2
100
AcDbEntity
  8
legende
  6
ByBlock
 62
    0
370
   -2
100
AcDbTrace
 10
506
 20
110
 30
0
 11
499.75
 21
108.9592883555679
 31
0
 12
499.75
 22
111.0407116444321
 32
0
 13
499.75
 23
111.0407116444321
 33
0
  0
LINE
  5
E3
100
AcDbEntity
  8
legende
  6
ByBlock
 62
    0
370
   -2
100
AcDbLine
 10
399
 20
56.5625
 11
399
 21
113.125
  0
LINE
  5
E4
100
AcDbEntity
  8
legende
  6
ByBlock
 62
    0
370
   -2
100
AcDbLine
 10
506
 20
56.5625
 11
506
 21
113.125
  0
ENDBLK
  5
84
330
82
100
AcDbEntity
  8
0
100
AcDbBlockEnd
  0
BLOCK
  5
86
330
85
100
AcDbEntity
  8
0
100
AcDbBlockBegin
  2
*D1
 70
    1
 10
0
 20
0
  3
*D1
  1

  0
LINE
  5
E5
100
AcDbEntity
  8
legende
  6
ByBlock
 62
    0
370
   -2
100
AcDbLine
 10
361
 20
46
 11
361
 21
-46
  0
MTEXT
  5
E6
100
AcDbEntity
  8
legende
  6
CONTINUOUS
 62
    0
370
   -2
100
AcDbMText
 10
356.3125
 20
5.740531871003218e-16
 30
0
 40
6.25
 41
7.638888888889276
 71
    5
 72
    1
  1
92
  7
standard
210
0
220
0
230
1
 50
90
 73
    2
 44
1
  0
SOLID
  5
E7
100
AcDbEntity
  8
legende
  6
ByBlock
 62
    0
370
   -2
100
AcDbTrace
 10
361
 20
46
 30
0
 11
362.0407116444321
 21
39.75
 31
0
 12
359.9592883555679
 22
39.75
 32
0
 13
359.9592883555679
 23
39.75
 33
0
  0
SOLID
  5
E8
100
AcDbEntity
  8
legende
  6
ByBlock
 62
    0
370
   -2
100
AcDbTrace
 10
361
 20
-46
 30
0
 11
359.9592883555679
 21
-39.75
 31
0
 12
362.0407116444321
 22
-39.75
 32
0
 13
362.0407116444321
 23
-39.75
 33
0
  0
LINE
  5
E9
100
AcDbEntity
  8
legende
  6
ByBlock
 62
    0
370
   -2
100
AcDbLine
 10
359.4375
 20
46
 11
357.875
 21
46
  0
LINE
  5
EA
100
AcDbEntity
  8
legende
  6
ByBlock
 62
    0
370
   -2
100
AcDbLine
 10
359.4375
 20
-46
 11
357.875
 21
-46
  0
ENDBLK
  5
87
330
85
100
AcDbEntity
  8
0
100
AcDbBlockEnd
  0
BLOCK
  5
89
330
88
100
AcDbEntity
  8
0
100
AcDbBlockBegin
  2
*D5
 70
    1
 10
0
 20
0
  3
*D5
  1

  0
LINE
  5
EB
100
AcDbEntity
  8
legende
  6
ByBlock
 62
    0
370
   -2
100
AcDbLine
 10
415
 20
-55
 11
415
 21
55
  0
MTEXT
  5
EC
100
AcDbEntity
  8
legende
  6
CONTINUOUS
 62
    0
370
   -2
100
AcDbMText
 10
410.3125
 20
5.740531871003218e-16
 30
0
 40
6.25
 41
9.722222222222221
 71
    5
 72
    1
  1
110
  7
standard
210
0
220
0
230
1
 50
90
 73
    2
 44
1
  0
SOLID
  5
ED
100
AcDbEntity
  8
legende
  6
ByBlock
 62
    0
370
   -2
100
AcDbTrace
 10
415
 20
-55
 30
0
 11
413.9592883555679
 21
-48.75
 31
0
 12
416.0407116444321
 22
-48.75
 32
0
 13
416.0407116444321
 23
-48.75
 33
0
  0
SOLID
  5
EE
100
AcDbEntity
  8
legende
  6
ByBlock
 62
    0
370
   -2
100
AcDbTrace
 10
415
 20
55
 30
0
 11
416.0407116444321
 21
48.75
 31
0
 12
413.9592883555679
 22
48.75
 32
0
 13
413.9592883555679
 23
48.75
 33
0
  0
LINE
  5
EF
100
AcDbEntity
  8
legende
  6
ByBlock
 62
    0
370
   -2
100
AcDbLine
 10
413.4375
 20
-55
 11
411.875
 21
-55
  0
LINE
  5
F0
100
AcDbEntity
  8
legende
  6
ByBlock
 62
    0
370
   -2
100
AcDbLine
 10
413.4375
 20
55
 11
411.875
 21
55
  0
ENDBLK
  5
8A
330
88
100
AcDbEntity
  8
0
100
AcDbBlockEnd
  0
ENDSEC
  0
SECTION
  2
ENTITIES
  0
HATCH
  5
F1
100
AcDbEntity
  8
vitre
  6
ByLayer
 62
  256
370
   -1
100
AcDbHatch
 10
0
 20
0
 30
0
210
0
220
0
230
1
  2
ansi31
 70
    0
 71
    0
 91
    1
 92
    0
 93
    4
 72
    1
 10
527
 20
50
 11
521
 21
50
 72
    1
 10
521
 20
50
 11
521
 21
-50
 72
    1
 10
521
 20
-50
 11
527
 21
-50
 72
    1
 10
527
 20
-50
 11
527
 21
50
 97
    0
 75
    0
 76
    1
 52
4.71238898038469
 41
3
 77
    0
 78
    0
 98
    0
  0
HATCH
  5
F2
100
AcDbEntity
  8
vitre
  6
ByLayer
 62
  256
370
   -1
100
AcDbHatch
 10
0
 20
0
 30
0
210
0
220
0
230
1
  2
ansi31
 70
    0
 71
    0
 91
    1
 92
    0
 93
    4
 72
    1
 10
379
 20
-50
 11
373
 21
-50
 72
    1
 10
373
 20
-50
 11
373
 21
50
 72
    1
 10
373
 20
50
 11
379
 21
50
 72
    1
 10
379
 20
50
 11
379
 21
-50
 97
    0
 75
    0
 76
    1
 52
1.570796326794897
 41
3
 77
    0
 78
    0
 98
    0
  0
HATCH
  5
F3
100
AcDbEntity
  8
vitre
  6
ByLayer
 62
  256
370
   -1
100
AcDbHatch
 10
0
 20
0
 30
0
210
0
220
0
230
1
  2
ansi31
 70
    0
 71
    0
 91
    1
 92
    0
 93
    4
 72
    1
 10
183
 20
50
 11
177
 21
50
 72
    1
 10
177
 20
50
 11
177
 21
-50
 72
    1
 10
177
 20
-50
 11
183
 21
-50
 72
    1
 10
183
 20
-50
 11
183
 21
50
 97
    0
 75
    0
 76
    1
 52
4.71238898038469
 41
3
 77
    0
 78
    0
 98
    0
  0
HATCH
  5
F4
100
AcDbEntity
  8
vitre
  6
ByLayer
 62
  256
370
   -1
100
AcDbHatch
 10
0
 20
0
 30
0
210
0
220
0
230
1
  2
ansi31
 70
    0
 71
    0
 91
    1
 92
    0
 93
    4
 72
    1
 10
123
 20
50
 11
129
 21
50
 72
    1
 10
129
 20
50
 11
129
 21
-50
 72
    1
 10
129
 20
-50
 11
123
 21
-50
 72
    1
 10
123
 20
-50
 11
123
 21
50
 97
    0
 75
    0
 76
    1
 52
1.570796326794897
 41
3
 77
    0
 78
    0
 98
    0
  0
LINE
  5
F5
100
AcDbEntity
  8
draft
  6
ByLayer
 62
  256
370
   -1
100
AcDbLine
 10
99.99999999996939
 20
-500100
 11
100.0000000000306
 21
499900
  0
LINE
  5
F6
100
AcDbEntity
  8
draft
  6
ByLayer
 62
  256
370
   -1
100
AcDbLine
 10
299.9999999999694
 20
-500100
 11
300.0000000000306
 21
499900
  0
LINE
  5
F7
100
AcDbEntity
  8
draft
  6
ByLayer
 62
  256
370
   -1
100
AcDbLine
 10
-500200
 20
-45
 11
499800
 21
-45
  0
LINE
  5
F8
100
AcDbEntity
  8
draft
  6
ByLayer
 62
  256
370
   -1
100
AcDbLine
 10
96.99999999996939
 20
-500100
 11
97.00000000003062
 21
499900
  0
LINE
  5
F9
100
AcDbEntity
  8
draft
  6
ByLayer
 62
  256
370
   -1
100
AcDbLine
 10
102.9999999999694
 20
-500100
 11
103.0000000000306
 21
499900
  0
LINE
  5
FA
100
AcDbEntity
  8
draft
  6
ByLayer
 62
  256
370
   -1
100
AcDbLine
 10
-499880
 20
45
 11
500120
 21
45
  0
LINE
  5
FB
100
AcDbEntity
  8
draft
  6
ByLayer
 62
  256
370
   -1
100
AcDbLine
 10
-499880
 20
75
 11
500120
 21
75
  0
LINE
  5
FC
100
AcDbEntity
  8
draft
  6
ByLayer
 62
  256
370
   -1
100
AcDbLine
 10
-500200
 20
-75
 11
499800
 21
-75
  0
LINE
  5
FD
100
AcDbEntity
  8
draft
  6
ByLayer
 62
  256
370
   -1
100
AcDbLine
 10
100
 20
155
 11
300
 21
155
  0
LINE
  5
FE
100
AcDbEntity
  8
draft
  6
ByLayer
 62
  256
370
   -1
100
AcDbLine
 10
300
 20
-155
 11
99.99999999999999
 21
-155
  0
LINE
  5
FF
100
AcDbEntity
  8
tole
  6
ByLayer
 62
  256
370
   -1
100
AcDbLine
 10
103
 20
155
 11
103
 21
55
  0
LINE
  5
100
100
AcDbEntity
  8
tole
  6
ByLayer
 62
  256
370
   -1
100
AcDbLine
 10
103
 20
-55
 11
103
 21
-155
  0
LINE
  5
101
100
AcDbEntity
  8
tole
  6
ByLayer
 62
  256
370
   -1
100
AcDbLine
 10
104.5
 20
-55
 11
104.5
 21
-155
  0
LINE
  5
102
100
AcDbEntity
  8
tole
  6
ByLayer
 62
  256
370
   -1
100
AcDbLine
 10
104.5
 20
155
 11
104.5
 21
55
  0
LINE
  5
103
100
AcDbEntity
  8
draft
  6
ByLayer
 62
  256
370
   -1
100
AcDbLine
 10
202.9999999999694
 20
-500100
 11
203.0000000000306
 21
499900
  0
LINE
  5
104
100
AcDbEntity
  8
isorel
  6
ByLayer
 62
  256
370
   -1
100
AcDbLine
 10
203
 20
155
 11
203
 21
55
  0
LINE
  5
105
100
AcDbEntity
  8
isorel
  6
ByLayer
 62
  256
370
   -1
100
AcDbLine
 10
203
 20
-55
 11
203
 21
-155
  0
LINE
  5
106
100
AcDbEntity
  8
isorel
  6
ByLayer
 62
  256
370
   -1
100
AcDbLine
 10
193
 20
-54.99999999999999
 11
193
 21
-155
  0
LINE
  5
107
100
AcDbEntity
  8
isorel
  6
ByLayer
 62
  256
370
   -1
100
AcDbLine
 10
193
 20
155
 11
193
 21
55.00000000000001
  0
LWPOLYLINE
  5
108
100
AcDbEntity
  8
finition2
  6
ByLayer
 62
  256
370
   -1
100
AcDbPolyline
 90
    4
 70
    1
 43
0
 10
99
 20
75
 10
96.00000000000001
 20
75
 10
96.00000000000001
 20
45
 10
99
 20
45
  0
LWPOLYLINE
  5
109
100
AcDbEntity
  8
finition2
  6
ByLayer
 62
  256
370
   -1
100
AcDbPolyline
 90
    4
 70
    1
 43
0
 10
99
 20
-45
 10
96.00000000000001
 20
-45
 10
96.00000000000001
 20
-75
 10
99
 20
-75
  0
CIRCLE
  5
10A
100
AcDbEntity
  8
joint
  6
ByLayer
 62
  256
370
   -1
100
AcDbCircle
 10
101
 20
57
 40
2
  0
LWPOLYLINE
  5
10B
100
AcDbEntity
  8
finition
  6
ByLayer
 62
  256
370
   -1
100
AcDbPolyline
 90
    4
 70
    1
 43
0
 10
102
 20
75
 10
99
 20
75
 10
99
 20
59
 10
102
 20
59
  0
CIRCLE
  5
10C
100
AcDbEntity
  8
joint
  6
ByLayer
 62
  256
370
   -1
100
AcDbCircle
 10
101
 20
-57
 40
2
  0
LWPOLYLINE
  5
10D
100
AcDbEntity
  8
finition
  6
ByLayer
 62
  256
370
   -1
100
AcDbPolyline
 90
    4
 70
    1
 43
0
 10
102
 20
-75
 10
99
 20
-75
 10
99
 20
-59
 10
102
 20
-59
  0
LWPOLYLINE
  5
10E
100
AcDbEntity
  8
contre-tube
  6
ByLayer
 62
  256
370
   -1
100
AcDbPolyline
 90
    4
 70
    1
 43
0
 10
119
 20
-50
 10
99
 20
-50
 10
99
 20
-45
 10
119
 20
-45
  0
LWPOLYLINE
  5
10F
100
AcDbEntity
  8
contre-tube
  6
ByLayer
 62
  256
370
   -1
100
AcDbPolyline
 90
    4
 70
    1
 43
0
 10
119
 20
45
 10
99
 20
45
 10
99
 20
50
 10
119
 20
50
  0
LWPOLYLINE
  5
110
100
AcDbEntity
  8
vitre
  6
ByLayer
 62
  256
370
   -1
100
AcDbPolyline
 90
    4
 70
    1
 43
0
 10
123
 20
50
 10
129
 20
50
 10
129
 20
-50
 10
123
 20
-50
  0
CIRCLE
  5
111
100
AcDbEntity
  8
joint
  6
ByLayer
 62
  256
370
   -1
100
AcDbCircle
 10
121
 20
48
 40
2
  0
CIRCLE
  5
112
100
AcDbEntity
  8
joint
  6
ByLayer
 62
  256
370
   -1
100
AcDbCircle
 10
121
 20
-48
 40
2
  0
LWPOLYLINE
  5
113
100
AcDbEntity
  8
vitre
  6
ByLayer
 62
  256
370
   -1
100
AcDbPolyline
 90
    4
 70
    1
 43
0
 10
183
 20
50
 10
177
 20
50
 10
177
 20
-50
 10
183
 20
-50
  0
CIRCLE
  5
114
100
AcDbEntity
  8
joint
  6
ByLayer
 62
  256
370
   -1
100
AcDbCircle
 10
185
 20
48
 40
2
  0
CIRCLE
  5
115
100
AcDbEntity
  8
joint
  6
ByLayer
 62
  256
370
   -1
100
AcDbCircle
 10
185
 20
-48
 40
2
  0
LWPOLYLINE
  5
116
100
AcDbEntity
  8
finition2
  6
ByLayer
 62
  256
370
   -1
100
AcDbPolyline
 90
    4
 70
    1
 43
0
 10
206
 20
75
 10
209
 20
75
 10
209
 20
45
 10
206
 20
45
  0
LWPOLYLINE
  5
117
100
AcDbEntity
  8
finition
  6
ByLayer
 62
  256
370
   -1
100
AcDbPolyline
 90
    4
 70
    1
 43
0
 10
203
 20
75
 10
206
 20
75
 10
206
 20
59
 10
203
 20
59
  0
LWPOLYLINE
  5
118
100
AcDbEntity
  8
finition
  6
ByLayer
 62
  256
370
   -1
100
AcDbPolyline
 90
    4
 70
    1
 43
0
 10
203
 20
-75
 10
206
 20
-75
 10
206
 20
-59
 10
203
 20
-59
  0
LWPOLYLINE
  5
119
100
AcDbEntity
  8
contre-tube
  6
ByLayer
 62
  256
370
   -1
100
AcDbPolyline
 90
    4
 70
    1
 43
0
 10
187
 20
50
 10
206
 20
50
 10
206
 20
45
 10
187
 20
45
  0
LWPOLYLINE
  5
11A
100
AcDbEntity
  8
tube
  6
ByLayer
 62
  256
370
   -1
100
AcDbPolyline
 90
    4
 70
    1
 43
0
 10
99
 20
55
 10
206
 20
55
 10
206
 20
50
 10
99
 20
50
  0
LWPOLYLINE
  5
11B
100
AcDbEntity
  8
tube
  6
ByLayer
 62
  256
370
   -1
100
AcDbPolyline
 90
    4
 70
    1
 43
0
 10
99
 20
-50
 10
206
 20
-50
 10
206
 20
-55
 10
99
 20
-55
  0
LWPOLYLINE
  5
11C
100
AcDbEntity
  8
contre-tube
  6
ByLayer
 62
  256
370
   -1
100
AcDbPolyline
 90
    4
 70
    1
 43
0
 10
187
 20
-50
 10
206
 20
-50
 10
206
 20
-45
 10
187
 20
-45
  0
LWPOLYLINE
  5
11D
100
AcDbEntity
  8
finition2
  6
ByLayer
 62
  256
370
   -1
100
AcDbPolyline
 90
    4
 70
    1
 43
0
 10
206
 20
-45
 10
209
 20
-45
 10
209
 20
-75
 10
206
 20
-75
  0
LWPOLYLINE
  5
11E
100
AcDbEntity
  8
contre-tube
  6
ByLayer
 62
  256
370
   -1
100
AcDbPolyline
 90
    4
 70
    1
 43
0
 10
129
 20
50
 10
177
 20
50
 10
177
 20
45
 10
129
 20
45
  0
LWPOLYLINE
  5
11F
100
AcDbEntity
  8
contre-tube
  6
ByLayer
 62
  256
370
   -1
100
AcDbPolyline
 90
    4
 70
    1
 43
0
 10
130
 20
-45
 10
177
 20
-45
 10
177
 20
-50
 10
130
 20
-50
  0
LWPOLYLINE
  5
120
100
AcDbEntity
  8
tube
  6
ByLayer
 62
  256
370
   -1
100
AcDbPolyline
 90
    4
 70
    1
 43
0
 10
399
 20
55
 10
506
 20
55
 10
506
 20
50
 10
399
 20
50
  0
LWPOLYLINE
  5
121
100
AcDbEntity
  8
tube
  6
ByLayer
 62
  256
370
   -1
100
AcDbPolyline
 90
    4
 70
    1
 43
0
 10
399
 20
-50
 10
506
 20
-50
 10
506
 20
-55
 10
399
 20
-55
  0
LWPOLYLINE
  5
122
100
AcDbEntity
  8
contre-tube
  6
ByLayer
 62
  256
370
   -1
100
AcDbPolyline
 90
    4
 70
    1
 43
0
 10
429
 20
50
 10
477
 20
50
 10
477
 20
45
 10
429
 20
45
  0
LWPOLYLINE
  5
123
100
AcDbEntity
  8
contre-tube
  6
ByLayer
 62
  256
370
   -1
100
AcDbPolyline
 90
    4
 70
    1
 43
0
 10
430
 20
-45
 10
477
 20
-45
 10
477
 20
-50
 10
430
 20
-50
  0
CIRCLE
  5
124
100
AcDbEntity
  8
joint
  6
ByLayer
 62
  256
370
   -1
100
AcDbCircle
 10
361
 20
48
 40
2
  0
CIRCLE
  5
125
100
AcDbEntity
  8
joint
  6
ByLayer
 62
  256
370
   -1
100
AcDbCircle
 10
361
 20
-48
 40
2
  0
LWPOLYLINE
  5
126
100
AcDbEntity
  8
vitre
  6
ByLayer
 62
  256
370
   -1
100
AcDbPolyline
 90
    4
 70
    1
 43
0
 10
373
 20
50
 10
379
 20
50
 10
379
 20
-50
 10
373
 20
-50
  0
CIRCLE
  5
127
100
AcDbEntity
  8
joint
  6
ByLayer
 62
  256
370
   -1
100
AcDbCircle
 10
539
 20
48
 40
2
  0
CIRCLE
  5
128
100
AcDbEntity
  8
joint
  6
ByLayer
 62
  256
370
   -1
100
AcDbCircle
 10
539
 20
-48
 40
2
  0
LWPOLYLINE
  5
129
100
AcDbEntity
  8
vitre
  6
ByLayer
 62
  256
370
   -1
100
AcDbPolyline
 90
    4
 70
    1
 43
0
 10
527
 20
50
 10
521
 20
50
 10
521
 20
-50
 10
527
 20
-50
  0
LWPOLYLINE
  5
12A
100
AcDbEntity
  8
finition2
  6
ByLayer
 62
  256
370
   -1
100
AcDbPolyline
 90
    4
 70
    1
 43
0
 10
571
 20
75
 10
574
 20
75
 10
574
 20
45
 10
571
 20
45
  0
LWPOLYLINE
  5
12B
100
AcDbEntity
  8
finition2
  6
ByLayer
 62
  256
370
   -1
100
AcDbPolyline
 90
    4
 70
    1
 43
0
 10
571
 20
-45
 10
574
 20
-45
 10
574
 20
-75
 10
571
 20
-75
  0
LWPOLYLINE
  5
12C
100
AcDbEntity
  8
finition
  6
ByLayer
 62
  256
370
   -1
100
AcDbPolyline
 90
    4
 70
    1
 43
0
 10
568
 20
75
 10
571
 20
75
 10
571
 20
59
 10
568
 20
59
  0
LWPOLYLINE
  5
12D
100
AcDbEntity
  8
finition
  6
ByLayer
 62
  256
370
   -1
100
AcDbPolyline
 90
    4
 70
    1
 43
0
 10
568
 20
-75
 10
571
 20
-75
 10
571
 20
-59
 10
568
 20
-59
  0
LWPOLYLINE
  5
12E
100
AcDbEntity
  8
contre-tube
  6
ByLayer
 62
  256
370
   -1
100
AcDbPolyline
 90
    4
 70
    1
 43
0
 10
551
 20
-50
 10
571
 20
-50
 10
571
 20
-45
 10
551
 20
-45
  0
LWPOLYLINE
  5
12F
100
AcDbEntity
  8
contre-tube
  6
ByLayer
 62
  256
370
   -1
100
AcDbPolyline
 90
    4
 70
    1
 43
0
 10
551
 20
45
 10
571
 20
45
 10
571
 20
50
 10
551
 20
50
  0
CIRCLE
  5
130
100
AcDbEntity
  8
joint
  6
ByLayer
 62
  256
370
   -1
100
AcDbCircle
 10
341
 20
57
 40
2
  0
CIRCLE
  5
131
100
AcDbEntity
  8
joint
  6
ByLayer
 62
  256
370
   -1
100
AcDbCircle
 10
341
 20
-57
 40
2
  0
LWPOLYLINE
  5
132
100
AcDbEntity
  8
finition2
  6
ByLayer
 62
  256
370
   -1
100
AcDbPolyline
 90
    4
 70
    1
 43
0
 10
309
 20
75
 10
306
 20
75
 10
306
 20
45
 10
309
 20
45
  0
LWPOLYLINE
  5
133
100
AcDbEntity
  8
finition2
  6
ByLayer
 62
  256
370
   -1
100
AcDbPolyline
 90
    4
 70
    1
 43
0
 10
309
 20
-45
 10
306
 20
-45
 10
306
 20
-75
 10
309
 20
-75
  0
LWPOLYLINE
  5
134
100
AcDbEntity
  8
finition
  6
ByLayer
 62
  256
370
   -1
100
AcDbPolyline
 90
    4
 70
    1
 43
0
 10
312
 20
75
 10
309
 20
75
 10
309
 20
59
 10
312
 20
59
  0
LWPOLYLINE
  5
135
100
AcDbEntity
  8
finition
  6
ByLayer
 62
  256
370
   -1
100
AcDbPolyline
 90
    4
 70
    1
 43
0
 10
312
 20
-75
 10
309
 20
-75
 10
309
 20
-59
 10
312
 20
-59
  0
LWPOLYLINE
  5
136
100
AcDbEntity
  8
contre-tube
  6
ByLayer
 62
  256
370
   -1
100
AcDbPolyline
 90
    4
 70
    1
 43
0
 10
329
 20
-50
 10
309
 20
-50
 10
309
 20
-45
 10
329
 20
-45
  0
LWPOLYLINE
  5
137
100
AcDbEntity
  8
contre-tube
  6
ByLayer
 62
  256
370
   -1
100
AcDbPolyline
 90
    4
 70
    1
 43
0
 10
329
 20
45
 10
309
 20
45
 10
309
 20
50
 10
329
 20
50
  0
DIMENSION
  5
138
100
AcDbEntity
  8
legende
  6
ByLayer
 62
  256
370
   -1
100
AcDbDimension
  2
*D1
 10
361
 20
-46
 30
0
 11
356.3125
 21
5.740531871003218e-16
 31
0
 70
   32
 71
    5
  3
Standard
 53
0
210
0
220
0
230
1
100
AcDbAlignedDimension
 13
361
 23
46
 33
0
 14
361
 24
-46
 34
0
 50
90
100
AcDbRotatedDimension
  0
DIMENSION
  5
139
100
AcDbEntity
  8
legende
  6
ByLayer
 62
  256
370
   -1
100
AcDbDimension
  2
*D2
 10
341
 20
-55
 30
0
 11
336.3125
 21
5.740531871003218e-16
 31
0
 70
   32
 71
    5
  3
Standard
 53
0
210
0
220
0
230
1
100
AcDbAlignedDimension
 13
341
 23
55
 33
0
 14
341
 24
-55
 34
0
 50
90
100
AcDbRotatedDimension
  0
DIMENSION
  5
13A
100
AcDbEntity
  8
legende
  6
ByLayer
 62
  256
370
   -1
100
AcDbDimension
  2
*D3
 10
425
 20
-50
 30
0
 11
420.3125
 21
5.740531871003218e-16
 31
0
 70
   32
 71
    5
  3
Standard
 53
0
210
0
220
0
230
1
100
AcDbAlignedDimension
 13
425
 23
50
 33
0
 14
425
 24
-50
 34
0
 50
90
100
AcDbRotatedDimension
  0
DIMENSION
  5
13B
100
AcDbEntity
  8
legende
  6
ByLayer
 62
  256
370
   -1
100
AcDbDimension
  2
*D4
 10
435
 20
45
 30
0
 11
430.3125
 21
5.740531871003218e-16
 31
0
 70
   32
 71
    5
  3
Standard
 53
0
210
0
220
0
230
1
100
AcDbAlignedDimension
 13
435
 23
-45
 33
0
 14
435
 24
45
 34
0
 50
90
100
AcDbRotatedDimension
  0
DIMENSION
  5
13C
100
AcDbEntity
  8
legende
  6
ByLayer
 62
  256
370
   -1
100
AcDbDimension
  2
*D5
 10
415
 20
55
 30
0
 11
410.3125
 21
5.740531871003218e-16
 31
0
 70
   32
 71
    5
  3
Standard
 53
0
210
0
220
0
230
1
100
AcDbAlignedDimension
 13
415
 23
-55
 33
0
 14
415
 24
55
 34
0
 50
90
100
AcDbRotatedDimension
  0
DIMENSION
  5
13D
100
AcDbEntity
  8
legende
  6
ByLayer
 62
  256
370
   -1
100
AcDbDimension
  2
*D6
 10
390
 20
-50
 30
0
 11
385.3125
 21
5.740531871003218e-16
 31
0
 70
   32
 71
    5
  3
Standard
 53
0
210
0
220
0
230
1
100
AcDbAlignedDimension
 13
379
 23
50
 33
0
 14
379
 24
-50
 34
0
 50
90
100
AcDbRotatedDimension
  0
DIMENSION
  5
13E
100
AcDbEntity
  8
legende
  6
ByLayer
 62
  256
370
   -1
100
AcDbDimension
  2
*D7
 10
300
 20
-45
 30
0
 11
295.3125
 21
5.740531871003218e-16
 31
0
 70
   32
 71
    5
  3
Standard
 53
0
210
0
220
0
230
1
100
AcDbAlignedDimension
 13
306
 23
45
 33
0
 14
306
 24
-45
 34
0
 50
90
100
AcDbRotatedDimension
  0
DIMENSION
  5
13F
100
AcDbEntity
  8
legende
  6
ByLayer
 62
  256
370
   -1
100
AcDbDimension
  2
*D8
 10
290
 20
-59
 30
0
 11
285.3125
 21
5.740531871003218e-16
 31
0
 70
   32
 71
    5
  3
Standard
 53
0
210
0
220
0
230
1
100
AcDbAlignedDimension
 13
309
 23
59
 33
0
 14
309
 24
-59
 34
0
 50
90
100
AcDbRotatedDimension
  0
DIMENSION
  5
140
100
AcDbEntity
  8
legende
  6
ByLayer
 62
  256
370
   -1
100
AcDbDimension
  2
*D9
 10
280
 20
-75
 30
0
 11
275.3125
 21
5.740531871003218e-16
 31
0
 70
   32
 71
    5
  3
Standard
 53
0
210
0
220
0
230
1
100
AcDbAlignedDimension
 13
306
 23
75
 33
0
 14
306
 24
-75
 34
0
 50
90
100
AcDbRotatedDimension
  0
DIMENSION
  5
141
100
AcDbEntity
  8
legende
  6
ByLayer
 62
  256
370
   -1
100
AcDbDimension
  2
*D10
 10
309
 20
100
 30
0
 11
307.5
 21
104.6875
 31
0
 70
   32
 71
    5
  3
Standard
 53
0
210
0
220
0
230
1
100
AcDbAlignedDimension
 13
306
 23
75
 33
0
 14
309
 24
75
 34
0
100
AcDbRotatedDimension
  0
DIMENSION
  5
142
100
AcDbEntity
  8
legende
  6
ByLayer
 62
  256
370
   -1
100
AcDbDimension
  2
*D11
 10
329
 20
120
 30
0
 11
319
 21
124.6875
 31
0
 70
   32
 71
    5
  3
Standard
 53
0
210
0
220
0
230
1
100
AcDbAlignedDimension
 13
309
 23
75
 33
0
 14
329
 24
50
 34
0
100
AcDbRotatedDimension
  0
DIMENSION
  5
143
100
AcDbEntity
  8
legende
  6
ByLayer
 62
  256
370
   -1
100
AcDbDimension
  2
*D12
 10
312
 20
110
 30
0
 11
310.5
 21
114.6875
 31
0
 70
   32
 71
    5
  3
Standard
 53
0
210
0
220
0
230
1
100
AcDbAlignedDimension
 13
309
 23
75
 33
0
 14
312
 24
75
 34
0
100
AcDbRotatedDimension
  0
DIMENSION
  5
144
100
AcDbEntity
  8
legende
  6
ByLayer
 62
  256
370
   -1
100
AcDbDimension
  2
*D13
 10
343
 20
100
 30
0
 11
341
 21
104.6875
 31
0
 70
   32
 71
    5
  3
Standard
 53
0
210
0
220
0
230
1
100
AcDbAlignedDimension
 13
339
 23
57
 33
0
 14
343
 24
57
 34
0
100
AcDbRotatedDimension
  0
DIMENSION
  5
145
100
AcDbEntity
  8
legende
  6
ByLayer
 62
  256
370
   -1
100
AcDbDimension
  2
*D14
 10
363
 20
100
 30
0
 11
361
 21
104.6875
 31
0
 70
   32
 71
    5
  3
Standard
 53
0
210
0
220
0
230
1
100
AcDbAlignedDimension
 13
359
 23
48
 33
0
 14
363
 24
48
 34
0
100
AcDbRotatedDimension
  0
DIMENSION
  5
146
100
AcDbEntity
  8
legende
  6
ByLayer
 62
  256
370
   -1
100
AcDbDimension
  2
*D15
 10
379
 20
110
 30
0
 11
376
 21
114.6875
 31
0
 70
   32
 71
    5
  3
Standard
 53
0
210
0
220
0
230
1
100
AcDbAlignedDimension
 13
373
 23
50
 33
0
 14
379
 24
50
 34
0
100
AcDbRotatedDimension
  0
DIMENSION
  5
147
100
AcDbEntity
  8
legende
  6
ByLayer
 62
  256
370
   -1
100
AcDbDimension
  2
*D16
 10
477
 20
100
 30
0
 11
453
 21
104.6875
 31
0
 70
   32
 71
    5
  3
Standard
 53
0
210
0
220
0
230
1
100
AcDbAlignedDimension
 13
429
 23
50
 33
0
 14
477
 24
50
 34
0
100
AcDbRotatedDimension
  0
DIMENSION
  5
148
100
AcDbEntity
  8
legende
  6
ByLayer
 62
  256
370
   -1
100
AcDbDimension
  2
*D17
 10
506
 20
110
 30
0
 11
452.5
 21
114.6875
 31
0
 70
   32
 71
    5
  3
Standard
 53
0
210
0
220
0
230
1
100
AcDbAlignedDimension
 13
399
 23
55
 33
0
 14
506
 24
55
 34
0
100
AcDbRotatedDimension
  0
ENDSEC
  0
SECTION
  2
OBJECTS
  0
DICTIONARY
  5
C
330
0
100
AcDbDictionary
281
    1
  3
ACAD_GROUP
350
D
  0
DICTIONARY
  5
D
330
C
100
AcDbDictionary
281
    1
  0
PLOTSETTINGS
  5
149
100
AcDbPlotSettings
  6
1x1
 40
0
 41
0
 42
0
 43
0
  0
ENDSEC
  0
EOF
